osu file format v9

[General]
AudioFilename: Hatsune Miku - Shiroi Yuki no Princess wa - VOCALOID.mp3
AudioLeadIn: 0
PreviewTime: 211859
Countdown: 1
SampleSet: Normal
StackLeniency: 0.7
Mode: 0
LetterboxInBreaks: 1

[Editor]
DistanceSpacing: 0.7
BeatDivisor: 4
GridSize: 8

[Metadata]
Title:Shiroi Yuki no Princess wa
Artist:Hatsune Miku
Creator:KingsAL2
Version:Alarmable
Source:VOCALOID
Tags:EXIT TUNES Supernova 2 Noboru-P

[Difficulty]
HPDrainRate:8
CircleSize:4
OverallDifficulty:7
ApproachRate:7
SliderMultiplier:2.2
SliderTickRate:1

[Events]
//Background and Video events
0,0,"meola_1.jpg"
//Break Periods
2,85909,89759
2,160308,170159
//Storyboard Layer 0 (Background)
//Storyboard Layer 1 (Fail)
//Storyboard Layer 2 (Pass)
//Storyboard Layer 3 (Foreground)
//Storyboard Sound Samples
//Background Colour Transformations
3,100,163,162,255

[TimingPoints]
21059,600,4,1,2,40,1,0
21675,-100,4,1,2,51,0,0
22275,-100,4,1,2,69,0,0
23775,-100,4,1,2,41,0,0
24075,-100,4,1,2,53,0,0
24375,-100,4,1,2,60,0,0
24675,-100,4,1,2,69,0,0
32775,-100,4,1,1,69,0,0
35625,-100,4,1,2,69,0,0
40125,-100,4,1,1,69,0,0
42525,-100,4,1,1,60,0,0
43425,-100,4,1,1,41,0,0
43725,-100,4,1,1,60,0,0
46125,-100,4,1,2,60,0,0
50475,-100,4,1,1,60,0,0
60525,-100,4,2,0,79,0,0
61725,-100,4,1,0,69,0,0
61875,-100,4,1,0,69,0,1
62009,-100,4,1,0,69,0,0
71775,-100,4,1,2,69,0,0
74025,-100,4,1,1,69,0,0
74625,-100,4,1,2,69,0,0
74875,-100,4,1,1,69,0,0
81075,-100,4,1,2,69,0,0
92475,-100,4,1,1,69,0,0
95175,-100,4,1,2,69,0,0
97875,-100,4,1,1,69,0,0
99375,-200,4,1,0,30,0,0
100175,-100,4,1,2,69,0,0
104025,-100,4,1,1,69,0,0
107625,-100,4,1,2,69,0,0
112125,-100,4,2,1,69,0,0
120509,-100,4,1,1,69,0,0
124575,-100,4,1,2,69,0,0
129975,-100,4,2,0,100,0,0
131325,-100,4,1,1,70,0,0
143925,-100,4,1,2,70,0,0
171225,-100,4,1,1,59,0,0
171525,-100,4,1,1,50,0,0
171825,-100,4,1,1,41,0,0
172125,-200,4,2,0,69,0,0
180525,-100,4,1,1,69,0,0
180825,-100,4,1,1,60,0,0
181125,-100,4,1,1,49,0,0
181425,-100,4,1,1,40,0,0
181725,-100,4,1,1,59,0,0
185025,-100,4,1,2,59,0,0
190425,-100,4,1,1,49,0,0
190725,-100,4,1,1,40,0,0
191025,-100,4,1,1,29,0,0
191325,-100,4,2,0,70,0,0
208125,-100,4,1,0,80,0,0
210525,-100,4,1,1,80,0,0
210975,-100,4,1,2,80,0,0
211425,-100,4,1,1,80,0,0
211725,-100,4,1,2,49,0,0
212025,-100,4,1,2,61,0,0
212325,-100,4,1,2,71,0,0
212625,-100,4,1,2,79,0,0
217725,-100,4,1,1,79,0,0
218625,-100,4,1,2,79,0,0
233475,-100,4,1,1,79,0,0
234075,-100,4,1,2,79,0,0
235875,-100,4,1,2,59,0,0
236325,-100,4,1,2,79,0,0

[Colours]
Combo1 : 0,64,64
Combo2 : 43,164,61
Combo3 : 0,111,111
Combo4 : 0,196,196

[HitObjects]
416,64,21059,6,0,B|416:128,1,55
376,128,21359,2,0,B|368:192,1,55,8|0
336,192,21659,2,0,B|320:256,1,55
288,248,21959,2,0,B|264:304,1,55,8|0
232,296,22259,2,0,B|192:352,3,55
256,64,23159,5,0
256,64,23309,2,0,B|136:64,1,110,4|0
104,64,23759,2,0,B|48:96,1,55
64,136,24059,2,0,B|32:192,1,55
64,224,24359,2,0,B|56:296,1,55
96,312,24659,2,0,B|96:376,3,55,0|0|0|4
256,320,25409,5,0
256,320,25709,2,0,B|256:144,1,165,2|0
168,144,26459,1,0
168,144,26609,1,2
256,72,26909,2,0,B|336:48|424:80,1,165,2|0
336,144,27659,1,0
336,144,27809,1,2
104,200,28109,6,0,B|64:256|104:312,1,110
128,336,28559,2,0,B|208:336,1,55
208,288,28859,2,0,B|280:288,1,55
288,240,29159,2,0,B|376:240,1,55
376,200,29459,1,0
376,200,29909,1,2
376,200,30359,5,0
376,168,30509,1,0
376,128,30659,1,8
256,48,30959,1,8
256,80,31109,1,0
256,112,31259,1,8
136,192,31559,1,8
136,160,31709,1,0
136,128,31859,1,8
256,216,32159,1,8
256,248,32309,1,2
192,336,32609,1,2
312,336,32909,6,0,B|440:336,1,110,2|0
424,288,33359,2,0,B|288:288,1,110,8|2
312,240,33809,2,0,B|432:240,1,110,0|2
424,184,34259,1,2
392,136,34409,1,0
336,128,34559,1,2
296,80,34709,1,8
296,80,35009,6,0,B|168:80,1,110,0|4
104,184,35759,1,2
160,304,36059,1,0
160,304,36209,2,0,B|240:304,2,55,2|0|2
256,192,36959,1,8
256,192,37259,2,0,B|256:72,1,110,2|0
336,96,37859,5,4
424,48,38159,1,8
480,134,38459,1,0
392,182,38759,1,8
256,88,39059,5,0
256,96,39209,1,2
256,104,39359,1,0
256,112,39509,1,2
256,224,39809,5,0
256,224,39959,1,2
168,296,40259,5,4
88,346,40559,1,8
32,266,40859,1,0
120,218,41159,1,8
240,160,41459,6,0,B|208:104,1,55,2|0
168,112,41759,2,0,B|128:48,1,55,0|2
160,24,42059,1,0
256,88,42359,1,0
232,192,42659,2,0,B|352:256|456:184,1,220,2|0
376,112,43559,1,2
256,88,43859,1,2
160,24,44159,2,0,B|72:56|48:144,1,165
48,176,44759,1,8
144,264,45059,6,0,B|256:312|368:256,1,220,2|0
456,176,45959,1,8
368,96,46259,5,2
456,176,46559,1,8
384,256,46859,1,0
296,184,47159,1,8
360,344,47459,6,0,B|256:264|144:344,1,220,4|0
88,240,48359,1,8
112,136,48659,2,0,B|152:32|256:40,1,165,2|0
256,80,49259,1,2
240,192,49559,1,8
272,232,49709,2,0,B|368:232|400:336,1,165,2|8
256,336,50759,5,0
256,336,51059,1,2
112,192,51359,1,0
256,48,51659,1,2
400,192,51959,1,0
256,336,52259,6,0,B|376:320|400:184,1,220,2|0
256,144,53159,1,8
256,144,53459,2,0,B|168:96|64:160,1,165,2|0
80,176,54059,1,8
96,280,54359,1,8
200,312,54659,2,0,B|304:280|408:320,1,165,2|0
400,320,55259,5,0
440,216,55559,1,8
400,96,55859,2,0,B|288:96,1,110,2|8
248,96,56309,1,0
160,192,56609,1,0
200,192,56759,1,8
248,296,57059,2,0,B|368:256|472:304,1,220,2|0
448,192,57959,2,0,B|384:192,2,55,8|0|2
464,80,58559,6,0,B|416:32,1,55
384,64,58859,2,8,B|320:24,1,55
296,56,59159,2,0,B|232:32,2,55
336,144,59759,5,0
248,184,60059,1,0
160,216,60359,1,0
64,232,60659,1,2
64,232,60959,5,0
160,216,61259,1,2
224,136,61559,1,0
232,40,61859,1,4
224,136,62159,5,8
272,224,62459,2,0,B|368:240|424:128,1,165,0|0
440,128,63059,1,2
376,80,63359,1,8
368,216,63659,1,0
312,40,63959,1,0
304,264,64259,2,0,B|184:256,1,110,0|8
392,232,64859,2,0,B|272:224,1,110,0|0
488,192,65459,2,0,B|368:184,1,110,4|8
96,288,66059,5,4
256,336,66359,1,2
408,288,66659,1,4
256,224,66959,6,0,B|256:160,2,55,0|2|0
128,192,67559,1,2
128,192,67709,2,0,B|136:88|248:64,1,165,0|10
256,96,68309,2,0,B|392:96,1,110
440,192,68909,1,0
440,192,69059,2,0,B|328:216,1,110,4|8
328,256,69509,2,0,B|208:296,1,110,2|0
223,290,70109,1,4
120,192,70559,5,2
192,80,70859,1,0
392,192,71159,1,2
320,80,71459,1,4
144,272,71909,5,0
176,312,72059,2,0,B|272:344|360:304,1,165
368,272,72659,1,0
368,272,72959,1,8
424,216,73259,1,0
424,216,73559,1,8
424,136,73859,5,4
256,88,74159,1,8
88,136,74459,1,0
256,88,74759,1,8
256,136,74909,2,0,B|256:144|256:144|264:144|264:144|256:152|256:152|248:152|248:152|256:160|256:160|264:160|264:160|256:168|256:168|248:168|248:168|256:176|256:176|264:176|264:176|256:184|256:184|248:184|248:184|256:192|256:192|264:192|264:192|256:200|256:200|248:200|248:200|256:208|256:208|256:216|256:216|256:224|256:224,1,165,14|8
152,280,75659,5,0
256,336,75959,1,8
360,280,76259,1,10
120,192,76559,5,8
120,192,76709,1,0
120,192,76859,2,8,B|88:72,1,110
208,128,77459,2,8,B|192:16,1,110
320,160,78059,2,8,B|312:48,1,110
408,192,78659,5,4
408,192,79109,1,2
256,280,79559,1,4
256,280,79859,1,2
152,192,80159,5,0
256,136,80459,1,0
352,192,80759,1,0
408,192,80909,2,0,B|464:264|424:360,1,165,4|8
336,288,81659,1,0
232,328,81959,1,8
176,328,82109,1,0
64,240,82559,2,0,B|176:240,1,110,8|0
256,136,83159,1,8
208,136,83309,1,0
392,112,83759,5,8
256,64,84059,1,0
120,112,84359,1,8
256,192,84509,12,4,85709
396,181,90659,6,0,B|432:224,1,55,8|0
324,173,90959,2,0,B|360:216,1,55
252,165,91259,2,0,B|288:208,1,55,8|0
180,157,91559,2,0,B|216:200,1,55
112,147,91858,2,0,B|144:192,1,55,8|0
42,137,92158,2,0,B|72:184,1,55
256,320,92609,5,0
160,264,92909,2,0,B|112:160,1,110
96,120,93359,1,8
256,144,93659,1,0
256,200,93809,1,0
256,248,93959,1,8
352,264,94259,2,0,B|400:160,1,110,0|8
416,120,94709,1,0
160,96,95009,5,0
344,96,95309,2,0,B|272:112|248:184,1,110
256,208,95759,1,8
136,312,96059,1,0
160,352,96209,1,8
360,352,96509,1,0
384,312,96659,2,0,B|384:192,1,110,0|8
256,80,97259,5,0
256,80,97409,1,8
168,160,97709,1,0
344,160,98009,2,0,B|408:160,1,55,0|8
408,200,98309,2,0,B|464:232,1,55
448,272,98609,2,0,B|488:328,1,55,0|8
448,352,98909,1,0
256,312,99509,6,0,B|256:168,1,110
256,152,100259,1,4
144,112,100559,1,8
104,136,100709,1,0
88,184,100859,1,0
368,112,101159,1,8
408,136,101309,1,0
424,184,101459,1,0
160,280,101759,5,8
256,344,102059,1,0
256,288,102209,2,0,B|256:168,1,110
256,48,102809,2,0,B|320:32,1,55,0|8
336,72,103109,2,0,B|408:64,1,55,0|8
400,112,103409,2,0,B|488:112,1,55,0|8
448,168,103709,2,0,B|512:176,1,55,0|8
384,256,104159,5,8
368,304,104309,1,4
272,232,104609,1,2
272,232,104909,2,0,B|184:192|88:256,1,165,2|8
384,256,105659,5,0
408,208,105809,1,0
384,152,105959,1,8
416,104,106109,2,0,B|320:56|240:80,1,165,0|8
128,152,106859,1,0
104,208,107009,1,0
128,256,107159,1,8
256,192,107459,1,0
184,208,107759,6,8,B|208:288|240:304|336:296|352:248|320:144,1,275,8|0
312,128,108659,2,8,B|288:48|256:32|160:40|144:88|176:192,1,275,8|0
184,208,109559,1,8
184,280,109859,6,0,B|184:352|256:368|336:360|328:240,1,220,4|0
256,216,110759,1,0
128,184,111059,1,10
200,112,111359,1,8
312,112,111659,1,10
384,184,111959,1,8
48,128,112259,6,0,B|0:40|104:-32|192:56,1,220,2|0
152,136,113159,1,8
232,200,113459,2,0,B|320:264|416:176,1,165,2|0
416,160,114059,1,0
328,88,114359,1,8
216,88,114659,2,0,B|120:80|64:160,1,165,2|0
64,200,115259,1,0
152,224,115559,5,8
184,320,115859,1,2
256,256,116159,2,0,B|312:304,1,55,2|0
328,320,116459,1,2
360,224,116759,1,8
176,144,117059,6,0,B|208:48|328:64|344:168,1,220,4|0
256,192,117959,1,8
336,240,118259,2,0,B|304:336|184:320|168:216,1,220,4|0
256,48,119159,5,8
216,80,119309,1,0
248,120,119459,2,0,B|432:120,1,165,2|0
456,120,120059,1,0
416,272,120359,5,4
256,240,120659,1,10
96,272,120959,1,8
32,120,121259,1,10
144,168,121559,5,8
256,144,121859,2,0,B|256:32,1,110,4|8
368,168,122459,1,0
288,216,122759,2,0,B|384:296,1,110,8|0
224,216,123359,2,0,B|128:296,1,110,8|0
256,328,123959,1,8
184,328,124259,6,0,B|80:320|64:208,1,165,2|0
64,176,124859,1,0
128,64,125159,1,8
200,168,125459,1,0
256,288,125759,1,8
256,344,125909,1,0
368,216,126209,1,0
368,160,126359,1,8
440,64,126659,6,0,B|376:160|448:288,1,220,2|0
480,160,127559,1,8
352,216,127859,2,0,B|264:248|152:208,1,165
152,216,128459,1,0
256,120,128759,1,0
256,48,129059,5,2
256,48,129659,1,2
256,48,130259,1,2
256,128,130559,5,0
256,168,130859,1,2
256,200,131159,1,0
256,296,131459,5,4
256,312,131609,1,0
256,328,131759,1,8
256,344,131909,1,0
256,360,132059,1,8
360,160,132509,5,8
400,200,132659,1,0
408,256,132809,2,0,B|336:272|352:376,1,110,0|8
400,336,133259,1,0
256,360,133559,1,8
112,336,133859,1,0
120,256,134159,5,8
192,192,134459,1,0
256,112,134759,1,8
280,24,135059,2,0,B|344:24,2,55,4|0|8
256,112,135659,5,4
312,208,135959,1,2
432,224,136259,1,4
464,128,136559,6,0,B|464:64,1,55,2|0
376,296,137009,2,0,B|376:232,1,55,0|2
320,128,137459,1,0
208,240,137759,2,0,B|208:152,1,55,2|0
112,112,138209,2,0,B|112:32,1,55,0|2
72,192,138659,5,0
256,152,138959,1,8
256,152,139109,1,2
440,192,139409,1,2
440,192,139709,2,0,B|352:216|344:320,1,165,4|8
256,240,140459,5,0
168,312,140759,1,8
160,216,141059,2,0,B|216:176|288:248|336:192,1,165,0|8
368,184,141659,1,0
256,120,141959,5,8
256,88,142109,1,0
256,56,142259,1,0
176,120,142559,2,0,B|56:152,1,110,8|0
336,120,143159,2,0,B|456:152,1,110,8|4
152,216,143759,1,8
256,272,144059,2,0,B|256:336,3,55,8|8|8|4
368,216,144959,6,0,B|368:88,1,110,8|0
296,184,145559,2,0,B|296:48,1,110,8|0
224,160,146159,1,8
152,136,146459,2,8,B|152:0,1,110,0|8
80,120,147059,1,0
120,272,147359,1,8
168,272,147509,1,0
288,336,147809,1,0
336,336,147959,1,8
256,72,148259,5,4
160,192,148709,1,2
352,192,149159,1,2
280,208,149459,1,0
224,256,149759,1,0
208,328,150059,1,0
224,256,150359,1,0
256,192,150509,12,0,152759
112,192,154409,5,0
160,192,154559,1,8
208,192,154709,1,0
256,192,154859,1,0
304,192,155009,1,0
352,192,155159,1,8
392,192,155309,1,0
288,280,155609,6,0,B|288:344,1,55
232,280,155909,2,0,B|232:336,1,55,0|8
120,192,156509,5,0
256,144,156809,2,0,B|256:80,1,55,0|8
392,192,157259,1,0
256,232,157559,5,8
256,232,157709,1,8
176,312,158009,2,0,B|272:344|360:304,1,165
352,216,158759,1,0
352,216,158909,1,0
288,136,159209,2,0,B|216:104,1,55
192,128,159509,2,0,B|128:112,1,55
120,160,159809,2,0,B|40:136,2,55,0|0|4
256,336,171059,5,0
256,304,171359,1,0
256,272,171659,1,0
256,240,171959,1,0
184,192,172259,6,0,B|184:128|256:80|320:128|320:192,1,220,4|2
176,272,174059,1,0
256,304,174359,1,0
336,272,174659,1,2
256,72,175259,5,0
208,128,175559,1,0
256,184,175859,1,2
312,232,176159,1,0
256,280,176459,1,0
256,352,176759,1,0
184,344,177059,6,0,B|192:248|320:240|328:352,2,220,6|2|2
128,272,179759,5,0
128,272,180059,1,0
144,176,180359,1,0
232,136,180659,5,2
256,240,180959,1,2
328,320,181259,1,2
432,336,181559,1,4
456,256,181859,6,0,B|496:160|384:96|328:200,1,220,8|8
368,256,182759,1,2
328,320,183059,2,0,B|216:360|104:320,1,220,8|8
120,248,183959,1,2
48,248,184259,2,0,B|144:232|168:144,1,165,8|0
176,112,184859,5,8
256,40,185159,1,8
256,88,185309,1,0
256,136,185459,1,0
256,240,185759,1,8
256,296,185909,1,0
360,240,186209,1,0
360,184,186359,1,8
416,272,186659,6,0,B|288:216|200:368|64:256,2,330
256,88,189059,5,2
256,192,189659,1,2
112,288,190259,5,4
184,312,190559,1,0
256,304,190859,1,0
312,256,191159,1,0
320,184,191459,2,0,B|264:96|136:96,1,165,2|0
152,104,192059,1,0
72,192,192509,5,0
72,240,192659,2,0,B|72:360,1,110,2|0
144,240,193259,2,0,B|144:352,1,110
216,328,193859,1,2
248,256,194159,1,0
296,200,194459,1,0
368,176,194759,1,0
440,176,195059,1,2
440,176,195659,6,0,B|328:192|312:336,1,220,0|2
384,328,196559,1,0
424,264,196859,2,0,B|184:264,1,220,0|2
160,208,197759,1,0
160,208,198059,1,0
256,64,198509,5,0
256,64,198659,1,2
128,128,198959,1,0
128,128,199109,1,2
232,248,199409,1,0
320,168,199709,2,0,B|296:248|384:328,1,165,0|2
416,256,200459,5,0
424,176,200759,1,0
456,104,201059,2,0,B|368:176|224:144,1,220,2|0
112,72,202109,1,0
112,72,202259,1,2
88,144,202559,1,0
80,216,202859,1,2
96,288,203159,1,0
160,264,203459,5,0
216,200,203759,1,0
208,112,204059,1,0
272,48,204359,1,0
312,64,204509,2,0,B|344:176|296:272,1,165,2|0
240,240,205259,2,0,B|192:304|224:368,1,110,2|0
336,336,205859,6,0,B|112:336,1,220,2|0
104,264,206759,1,0
128,192,207059,1,0
176,136,207359,1,0
176,136,207509,2,0,B|344:136,1,165
256,48,208259,5,4
88,312,208859,2,0,B|88:176,1,110
256,210,209459,2,0,B|256:320,1,110
432,320,210059,2,0,B|432:200,1,110
432,208,210659,1,8
256,128,211109,1,8
80,208,211559,1,8
120,272,211859,5,0
216,240,212159,1,0
272,160,212459,1,8
272,64,212759,1,0
184,104,213059,6,0,B|296:136|328:200,1,165,6|0
368,200,213659,1,0
256,272,213959,1,8
136,256,214259,1,2
64,312,214559,5,8
192,304,214859,1,0
200,192,215159,1,8
200,192,215459,2,0,B|272:176|344:192,1,110
309,185,216059,2,0,B|373:193|421:185,1,110
368,80,216659,1,4
256,32,216959,1,8
256,32,217259,5,0
256,192,217559,1,8
256,352,217859,1,0
208,320,218009,1,8
304,224,218309,1,8
256,192,218459,5,0
176,104,218759,2,0,B|48:104,1,110,8|0
256,40,219359,1,8
200,40,219509,1,0
360,112,219809,1,0
304,112,219959,1,8
256,192,220259,2,0,B|192:208|176:272,1,110,4|0
160,304,220709,1,8
256,360,221009,1,0
351,310,221309,2,0,B|351:206|239:190,1,165,0|8
160,128,222059,5,0
256,56,222359,1,8
352,128,222659,1,0
120,240,222959,2,0,B|136:312,2,55,8|0|0
392,240,223559,2,0,B|376:312,2,55,8|0|0
304,192,224159,1,8
256,272,224459,1,0
208,192,224759,1,8
128,192,225059,5,0
256,64,225359,1,8
384,192,225659,1,0
256,320,225959,1,8
256,320,226109,2,0,B|160:280|64:312,1,165,2|0
56,368,226859,1,8
96,224,227159,1,8
64,80,227459,1,8
136,48,227759,6,0,B|216:72|272:32,1,110,2|0
288,128,228359,2,0,B|376:96|416:152,1,110,2|0
376,240,228959,1,2
424,224,229109,1,0
336,352,229409,1,0
384,328,229559,1,2
256,272,229859,5,6
128,224,230309,1,0
256,144,230759,1,8
288,72,231059,2,0,B|352:80|368:160,1,110,0|8
352,216,231659,1,0
400,280,231959,1,8
400,280,232109,2,0,B|208:280,1,165,0|8
152,192,232859,5,0
256,64,233159,1,8
256,120,233309,1,0
256,264,233609,1,8
256,264,233909,1,8
312,264,234059,2,0,B|400:232|488:272,1,165,0|0
440,120,234809,5,0
384,120,234959,1,8
256,192,235259,1,0
72,120,235559,1,8
128,120,235709,1,0
128,232,236009,2,8,B|160:232,2,27.5
256,328,236459,2,0,B|256:272,1,55,8|0
384,232,236909,1,4
384,232,237059,1,0
256,72,237359,5,8
256,72,237659,1,0
160,128,237959,2,0,B|136:200,1,55,8|0
192,288,238409,2,0,B|168:360,1,55,0|8
256,152,238859,5,0
352,232,239159,1,8
400,232,239309,1,0
304,320,239609,1,0
256,320,239759,1,8
160,232,240059,1,0
160,232,240359,1,8
160,176,240509,6,0,B|176:80|264:48,1,165,0|8
256,144,241259,1,2
256,200,241409,1,0
256,256,241559,1,8
256,312,241709,2,0,B|352:336|424:256,1,165,0|8
464,192,242459,5,0
384,96,242759,2,0,B|304:96,1,55,8|0
264,160,243209,2,8,B|192:160,1,55,0|8
352,264,243659,1,0
256,328,243959,1,8
200,328,244109,1,0
96,264,244559,5,8
144,168,244859,1,0
256,144,245159,1,8
258,105,245309,1,0
256,192,245459,12,4,246509
