osu file format v12

[General]
AudioFilename: Shinitagari (You wanna die_) Hatsune Miku PV Eng Subbed..mp3
AudioLeadIn: 0
PreviewTime: 120859
Countdown: 0
SampleSet: None
StackLeniency: 0.7
Mode: 0
LetterboxInBreaks: 1
WidescreenStoryboard: 1

[Editor]
DistanceSpacing: 0.8
BeatDivisor: 6
GridSize: 8

[Metadata]
Title:Shinitagari (You Wanna Die?)
TitleUnicode:Shinitagari (You Wanna Die?)
Artist:Hatsune Miku
ArtistUnicode:Hatsune Miku
Creator:Kyubeychan
Version:Normal
Source:
Tags:Hatsune Miku Vocaloid You Wanna Die Shinitagari
BeatmapID:304117
BeatmapSetID:118248

[Difficulty]
HPDrainRate:5
CircleSize:3
OverallDifficulty:5
ApproachRate:5
SliderMultiplier:1.4
SliderTickRate:1

[Events]
//Background and Video events
0,0,"shinitagari___wallpaper_by_reshifthaze-d42bcks.jpg",0,0
Video,0,"Shinitagari (You wanna die).avi"
//Break Periods
2,46903,55022
2,69691,71176
2,92768,101176
2,108922,115022
//Storyboard Layer 0 (Background)
//Storyboard Layer 1 (Fail)
//Storyboard Layer 2 (Pass)
//Storyboard Layer 3 (Foreground)
//Storyboard Sound Samples
//Background Colour Transformations
3,100,163,162,255

[TimingPoints]
19299.9025468071,576.923076923077,4,1,0,74,1,0
120825,-100,4,1,0,74,0,1
141655,-100,4,1,0,74,0,0

[Colours]
Combo1 : 147,0,0
Combo2 : 0,128,255
Combo3 : 255,0,0
Combo4 : 0,0,128
Combo5 : 64,0,64

[HitObjects]
360,240,19299,2,0,P|400:224|424:184,1,70,0|8,0:0|0:0,0:0:0:0:
384,112,19876,2,0,P|368:80|328:64,1,70,0|8,0:0|0:0,0:0:0:0:
208,64,20453,1,0,0:0:0:0:
120,64,20742,2,0,L|32:64,1,70,8|0,0:0|0:0,0:0:0:0:
88,232,21607,6,0,P|104:248|160:232,1,70,0|8,0:0|0:0,0:0:0:0:
216,240,22184,1,0,0:0:0:0:
288,240,22472,1,8,0:0:0:0:
368,224,22761,2,0,P|392:200|432:216,1,70,0|8,0:0|0:0,0:0:0:0:
440,280,23338,1,0,0:0:0:0:
184,256,23915,6,0,P|152:272|120:240,1,70,0|8,0:0|0:0,0:0:0:0:
128,168,24492,1,0,0:0:0:0:
128,80,24780,1,8,0:0:0:0:
240,80,25069,2,0,L|312:80,2,70,0|8|0,0:0|0:0|0:0,0:0:0:0:
432,160,26222,6,0,L|432:248,2,70,0|8|0,0:0|0:0|0:0,0:0:0:0:
432,304,27088,1,8,0:0:0:0:
288,336,27376,1,0,0:0:0:0:
208,336,27665,2,0,L|136:336,1,70,8|0,0:0|0:0,0:0:0:0:
112,192,28530,6,0,L|160:120,1,70,0|8,0:0|0:0,0:0:0:0:
208,136,29107,2,0,L|240:208,1,70,0|8,0:0|0:0,0:0:0:0:
328,200,29684,1,0,0:0:0:0:
416,200,29972,1,8,0:0:0:0:
496,200,30261,1,8,0:0:0:0:
392,328,30838,6,0,P|352:360|264:320,1,140,0|8,0:0|0:0,0:0:0:0:
200,312,31992,1,0,0:0:0:0:
144,312,32569,1,8,0:0:0:0:
168,128,33146,6,0,L|168:208,1,70,0|8,0:0|0:0,0:0:0:0:
240,208,33722,2,0,L|240:280,1,70,0|8,0:0|0:0,0:0:0:0:
328,280,34299,1,0,0:0:0:0:
384,280,34876,1,8,0:0:0:0:
256,192,35453,12,14,37184,0:0:0:0:
128,160,37761,5,0,0:0:0:0:
128,248,38049,2,0,L|128:336,1,70
216,320,38626,1,12,0:0:0:0:
328,320,38915,6,0,L|400:320,1,70
480,320,39492,1,12,0:0:0:0:
480,248,39780,1,14,0:0:0:0:
472,104,40069,6,0,P|472:80|432:32,1,70,0|8,0:0|0:0,0:0:0:0:
328,40,40646,1,0,0:0:0:0:
256,40,40934,1,8,0:0:0:0:
152,64,41222,6,0,L|112:128,2,70,0|8|0,0:0|0:0|0:0,0:0:0:0:
96,208,42088,1,8,0:0:0:0:
144,312,42376,6,0,P|192:352|256:312,1,140,0|8,0:0|0:0,0:0:0:0:
304,320,43530,2,0,P|360:360|424:320,1,140,0|8,0:0|0:0,0:0:0:0:
448,184,44684,6,0,L|448:104,1,70,0|8,0:0|0:0,0:0:0:0:
400,48,45261,1,0,0:0:0:0:
328,48,45549,1,8,0:0:0:0:
224,48,45838,6,0,L|144:48,3,70,0|8|0|8,0:0|0:0|0:0|0:0,0:0:0:0:
144,192,56222,6,0,P|168:184|192:136,2,70,0|8|0,0:0|0:0|0:0,0:0:0:0:
120,264,57088,1,8,0:0:0:0:
208,336,57376,2,0,L|280:336,1,70,0|8,0:0|0:0,0:0:0:0:
352,336,57953,1,8,0:0:0:0:
432,168,58530,6,0,P|440:128|416:88,1,70,0|8,0:0|0:0,0:0:0:0:
360,64,59107,2,0,L|288:64,1,70,0|8,0:0|0:0,0:0:0:0:
208,64,59684,1,0,0:0:0:0:
160,64,59972,1,8,0:0:0:0:
112,64,60261,1,12,0:0:0:0:
176,192,60838,6,0,L|240:336,1,140,0|8,0:0|0:0,0:0:0:0:
280,320,61992,2,0,L|328:176,1,140,0|8,0:0|0:0,0:0:0:0:
176,56,63146,6,0,P|144:56|88:144,1,140
80,208,64299,1,0,0:0:0:0:
80,256,64588,1,0,0:0:0:0:
80,296,64876,1,0,0:0:0:0:
296,344,65453,6,0,P|344:336|368:320,1,70
416,304,66030,1,0,0:0:0:0:
464,272,66319,1,0,0:0:0:0:
464,144,66607,2,0,L|464:64,2,70
328,112,67761,6,0,P|336:176|328:184,1,70
296,208,68338,1,0,0:0:0:0:
256,208,68626,1,0,0:0:0:0:
184,176,68915,2,0,P|160:144|160:112,2,70
144,56,72376,5,0,0:0:0:0:
328,144,72953,1,0,0:0:0:0:
336,304,73530,1,0,0:0:0:0:
136,336,74107,1,0,0:0:0:0:
112,192,74684,6,0,P|128:144|152:144,1,70
224,144,75261,2,0,P|264:144|304:128,1,70
376,224,75838,2,0,P|384:272|368:304,1,70
280,328,76415,1,0,0:0:0:0:
160,336,76703,1,0,0:0:0:0:
256,192,76992,12,12,79011,0:0:0:0:
112,232,79299,6,0,P|104:184|176:128,1,140
256,176,80165,1,0,0:0:0:0:
344,144,80453,2,0,B|376:112|368:144|368:248,1,140
144,304,81607,6,0,P|104:280|88:240,1,70
168,216,82184,2,0,P|176:192|160:152,1,70
80,168,82761,2,0,P|64:128|80:88,1,70
168,120,83338,2,0,P|184:96|176:48,1,70
256,192,83915,12,12,85934,0:0:0:0:
136,304,86222,6,0,L|136:144,1,140
256,96,87088,1,0,0:0:0:0:
256,208,87376,2,0,P|256:264|272:288,3,70
256,192,88530,12,12,90549,0:0:0:0:
192,96,90838,6,0,L|192:256,1,140
280,240,91992,2,0,L|280:384,1,140
152,88,102376,6,0,P|144:136|184:224,1,140,0|8,0:0|0:0,0:0:0:0:
208,328,103530,6,0,P|248:336|360:320,1,140,0|8,0:0|0:0,0:0:0:0:
408,208,104684,6,0,L|408:128,3,70,0|0|0|8,0:0|0:0|0:0|0:0,0:0:0:0:
320,80,105838,6,0,P|296:72|256:96,3,70,0|0|0|8,0:0|0:0|0:0|0:0,0:0:0:0:
192,168,106992,6,0,P|168:216|208:296,1,140,0|8,0:0|0:0,0:0:0:0:
296,232,108146,6,0,P|328:184|312:88,1,140,0|8,0:0|0:0,0:0:0:0:
96,56,116222,5,0,0:0:0:0:
184,136,116511,1,8,0:0:0:0:
96,216,116799,1,0,0:0:0:0:
200,288,117088,1,8,0:0:0:0:
368,296,117376,6,0,L|384:224,1,70,0|8,0:0|0:0,0:0:0:0:
368,152,117953,2,0,P|352:120|312:112,1,70,0|8,0:0|0:0,0:0:0:0:
256,192,118530,12,12,120261,0:0:0:0:
72,200,120838,6,0,P|72:168|104:136,1,70
200,224,121415,2,0,P|216:264|256:264,1,70
360,224,121992,2,0,P|384:200|384:152,1,70
352,96,122569,1,0,0:0:0:0:
232,96,122857,1,0,0:0:0:0:
136,200,123146,6,0,L|136:288,3,70
304,272,124299,6,0,L|304:192,3,70
448,168,125453,6,0,P|456:128|448:80,2,70
416,48,126319,1,0,0:0:0:0:
272,104,126607,6,0,L|272:184,3,70
120,248,127761,6,0,P|128:296|160:312,1,70
256,328,128338,1,0,0:0:0:0:
352,328,128626,1,0,0:0:0:0:
360,224,128915,6,0,L|360:192,2,23.3333333333333
360,176,129492,1,0,0:0:0:0:
360,104,129780,1,0,0:0:0:0:
256,192,130069,12,12,132088,0:0:0:0:
136,192,132376,6,0,L|280:192,1,140
336,312,133530,2,0,L|176:312,1,140
136,216,134684,5,0,0:0:0:0:
64,152,134972,1,0,0:0:0:0:
136,104,135261,1,0,0:0:0:0:
272,112,135838,5,0,0:0:0:0:
344,192,136126,1,0,0:0:0:0:
272,256,136415,1,0,0:0:0:0:
352,312,136703,1,0,0:0:0:0:
168,336,136992,6,0,L|96:336,3,70
64,168,138146,1,0,0:0:0:0:
112,96,138434,1,0,0:0:0:0:
224,136,138722,2,0,P|224:168|264:200,1,70
256,192,139299,12,0,141607,0:0:0:0:
176,96,142761,6,0,P|192:152|208:176,1,70
280,216,143338,2,0,P|288:240|272:288,1,70
256,192,143915,12,0,146222,0:0:0:0:
176,72,148530,6,0,P|152:96|160:144,2,70
312,152,149684,6,0,P|336:184|328:224,2,70
216,272,150838,6,0,P|216:312|176:336,2,70
72,224,151992,6,0,P|56:168|72:152,2,70
96,64,152857,1,0,0:0:0:0:
152,64,153146,1,4,0:0:0:0:
160,88,155453,6,0,P|144:152|168:240,1,140
272,256,156607,2,0,P|304:288|248:352,1,140
256,192,157761,12,12,162376,0:0:0:0:
