osu file format v12

[General]
AudioFilename: Shinitagari (You wanna die_) Hatsune Miku PV Eng Subbed..mp3
AudioLeadIn: 0
PreviewTime: 120859
Countdown: 0
SampleSet: None
StackLeniency: 0.7
Mode: 0
LetterboxInBreaks: 1
WidescreenStoryboard: 1

[Editor]
DistanceSpacing: 0.8
BeatDivisor: 6
GridSize: 8

[Metadata]
Title:Shinitagari (You Wanna Die?)
TitleUnicode:Shinitagari (You Wanna Die?)
Artist:Hatsune Miku
ArtistUnicode:Hatsune Miku
Creator:Kyubeychan
Version:Easy
Source:
Tags:Hatsune Miku Vocaloid You Wanna Die Shinitagari
BeatmapID:304579
BeatmapSetID:118248

[Difficulty]
HPDrainRate:5
CircleSize:3
OverallDifficulty:5
ApproachRate:2
SliderMultiplier:1.4
SliderTickRate:1

[Events]
//Background and Video events
0,0,"shinitagari___wallpaper_by_reshifthaze-d42bcks.jpg",0,0
Video,0,"Shinitagari (You wanna die).avi"
//Break Periods
2,28152,31586
2,46614,63893
//Storyboard Layer 0 (Background)
//Storyboard Layer 1 (Fail)
//Storyboard Layer 2 (Pass)
//Storyboard Layer 3 (Foreground)
//Storyboard Sound Samples
//Background Colour Transformations
3,100,163,162,255

[TimingPoints]
19299.9025468071,576.923076923077,4,1,0,74,1,0
120825,-100,4,1,0,74,0,1
141655,-100,4,1,0,74,0,0

[Colours]
Combo1 : 147,0,0
Combo2 : 0,128,255
Combo3 : 255,0,0
Combo4 : 0,0,128
Combo5 : 64,0,64

[HitObjects]
168,96,19299,1,0,0:0:0:0:
80,184,19876,1,8,0:0:0:0:
232,304,20453,5,0,0:0:0:0:
320,304,21030,1,8,0:0:0:0:
400,160,21607,6,0,P|360:104|280:80,1,140,0|8,0:0|0:0,0:0:0:0:
216,96,22761,6,0,P|192:104|152:216,1,140,0|8,0:0|0:0,0:0:0:0:
152,320,23915,5,0,0:0:0:0:
224,336,24492,1,8,0:0:0:0:
336,328,25069,5,0,0:0:0:0:
408,296,25646,1,8,0:0:0:0:
384,152,26222,2,0,P|312:88|272:112,1,140,0|8,0:0|0:0,0:0:0:0:
272,184,27376,6,0,P|248:232|160:224,1,140,0|8,0:0|0:0,0:0:0:0:
160,152,33146,5,0,0:0:0:0:
216,232,33722,1,8,0:0:0:0:
288,232,34299,5,0,0:0:0:0:
320,144,34876,1,8,0:0:0:0:
256,192,35453,12,4,37184,0:0:0:0:
200,56,37761,5,0,0:0:0:0:
296,112,38338,1,12,0:0:0:0:
208,184,38915,5,0,0:0:0:0:
296,232,39492,1,12,0:0:0:0:
152,320,40069,6,0,P|120:288|88:200,1,140,0|12,0:0|0:0,0:0:0:0:
128,136,41222,6,0,P|200:72|248:88,1,140,0|12,0:0|0:0,0:0:0:0:
296,320,42376,5,0,0:0:0:0:
208,320,42953,1,12,0:0:0:0:
208,208,43530,5,0,0:0:0:0:
296,208,44107,1,12,0:0:0:0:
304,80,44684,6,0,P|240:40|208:88,3,140,0|12|0|12,0:0|0:0|0:0|0:0,0:0:0:0:
152,104,65453,6,0,L|152:264,1,140,0|12,0:0|0:0,0:0:0:0:
240,272,66607,6,0,B|240:368|240:368|288:368,1,140,0|12,0:0|0:0,0:0:0:0:
456,264,67761,5,0,0:0:0:0:
456,176,68049,1,0,0:0:0:0:
456,88,68338,1,12,0:0:0:0:
320,48,68915,5,0,0:0:0:0:
248,48,69203,1,0,0:0:0:0:
176,48,69492,1,12,0:0:0:0:
72,240,70069,6,0,B|56:304|240:392|296:272,1,280
312,240,71799,1,12,0:0:0:0:
256,192,72376,12,6,74107,0:0:0:0:
144,72,74684,5,0,0:0:0:0:
96,136,75261,1,12,0:0:0:0:
120,264,75838,5,0,0:0:0:0:
176,304,76415,1,6,0:0:0:0:
272,248,76992,6,0,P|296:232|256:152,1,140,0|2,0:0|0:0,0:0:0:0:
192,184,78146,6,0,P|176:160|256:104,1,140,0|10,0:0|0:0,0:0:0:0:
256,192,79299,12,0,81319,0:0:0:0:
208,128,81607,6,0,P|168:184|192:248,1,140,0|6,0:0|0:0,0:0:0:0:
296,272,82761,6,0,P|320:320|240:352,1,140,0|6,0:0|0:0,0:0:0:0:
256,192,83915,12,0,85934,0:0:0:0:
152,168,86222,6,0,L|152:256,2,70,0|0|6,0:0|0:0|0:0,0:0:0:0:
248,128,87376,5,0,0:0:0:0:
320,184,87953,5,0,0:0:0:0:
320,240,88242,1,0,0:0:0:0:
200,312,88530,6,0,P|136:280|112:200,1,140,0|6,0:0|0:0,0:0:0:0:
256,216,89684,6,0,P|280:208|288:96,1,140,0|6,0:0|0:0,0:0:0:0:
256,192,90838,12,14,92857,0:0:0:0:
