osu file format v9

[General]
AudioFilename: Full_192kbps.mp3
AudioLeadIn: 1996
PreviewTime: -1
Countdown: 0
SampleSet: Normal
StackLeniency: 0.7
Mode: 0
LetterboxInBreaks: 1

[Editor]
DistanceSpacing: 1.2
BeatDivisor: 4
GridSize: 8

[Metadata]
Title:Senbonzakura (Speedup ver.)
Artist:Hatsune Miku
Creator:0x57CB36
Version:Hyper
Source:KurousaP
Tags:vocaloid vocaloid2 senbon sakura nightcore NatsumeRin kurousa-P speedcore

[Difficulty]
HPDrainRate:5
CircleSize:4
OverallDifficulty:5
ApproachRate:7
SliderMultiplier:1.73
SliderTickRate:1

[Events]
//Background and Video events
0,0,"BG.JPG"
//Break Periods
//Storyboard Layer 0 (Background)
//Storyboard Layer 1 (Fail)
//Storyboard Layer 2 (Pass)
//Storyboard Layer 3 (Foreground)
//Storyboard Sound Samples
//Background Colour Transformations
3,100,163,162,255

[TimingPoints]
431,338.983050847458,4,1,0,100,1,0
92596,312.5,4,1,0,100,1,0
184630,295.566502463054,4,1,0,70,1,0
282093,-100,4,2,0,5,0,0
282240,-100,4,1,0,70,0,0
282438,273.972602739726,4,1,0,100,1,0
284355,273.972602739726,4,1,0,100,1,0
381949,242.914979757085,4,1,0,100,1,0

[Colours]
Combo1 : 3,79,135
Combo2 : 36,101,27
Combo3 : 234,117,0
Combo4 : 238,140,255
Combo5 : 132,87,60
Combo6 : 255,0,0

[HitObjects]
64,80,184630,2,0,B|176:112,1,86.5
248,80,184925,1,0
224,184,185073,1,0
400,176,185221,6,0,B|288:144,1,86.5
256,72,185516,1,0
232,176,185664,1,0
208,280,185812,6,0,B|168:304|120:312,1,86.5
160,208,186107,2,0,B|144:248|104:280,1,86.5
104,168,186403,2,0,B|112:216|80:256,1,86.5
16,168,186698,1,0
64,80,186846,1,0
128,152,186994,6,0,B|168:112,3,43.25
184,96,187290,2,0,B|224:128,3,43.25
248,136,187585,2,0,B|280:176|336:160,1,86.5
376,72,187881,2,0,B|424:96|432:144,1,86.5
480,224,188176,2,0,B|480:360,2,129.75
480,224,188767,1,0
272,224,189063,1,0
88,128,189359,6,0,B|48:152|24:208|48:264|80:288,1,173
272,328,189950,2,0,B|320:320|352:288,3,86.5
440,248,190541,2,0,B|472:232|488:168|472:120|440:88,1,173
352,136,190984,1,0
312,40,191132,2,0,B|256:56|240:104,3,86.5
264,192,191723,2,0,B|208:200|160:176|136:128|144:80,1,173
40,96,192166,2,0,B|72:184,1,86.5
136,264,192462,2,0,B|96:184,2,86.5
224,320,192905,2,0,B|256:280|312:256,1,86.5
392,248,193201,2,0,B|368:208|384:152,1,86.5
328,72,193496,1,0
248,136,193644,1,0
152,104,193792,1,0
112,128,193866,1,0
80,168,193940,1,0
72,216,194014,1,0
88,264,194088,1,0
176,312,194235,6,0,B|216:232,1,86.5
256,328,194531,2,0,B|296:240,1,86.5
328,152,194827,1,0
248,136,194974,1,0
352,72,195122,1,0
208,40,195270,1,0
104,48,195418,2,0,B|136:88|128:136,1,86.5
136,176,195639,1,0
160,224,195713,2,0,B|144:320,1,86.5
232,256,196009,2,0,B|248:160,1,86.5
312,56,196304,5,0
392,128,196452,2,0,B|376:176|400:224,1,86.5
376,312,196748,2,0,B|400:272|392:200,1,86.5
296,192,197043,1,0
224,120,197191,1,0
128,88,197339,1,0
104,192,197487,2,0,B|24:152,1,86.5
104,192,197782,2,0,B|192:240,1,86.5
192,336,198078,2,0,B|184:240|256:184,1,173
296,152,198447,1,0
336,120,198521,1,0
256,184,198669,2,0,B|160:144,1,86.5
296,152,198964,6,0,B|248:72,1,86.5
344,144,199260,2,0,B|352:40,1,86.5
456,80,199556,1,0
440,184,199703,1,0
448,288,199851,2,0,B|400:272|352:296,1,86.5
264,312,200147,2,0,B|312:320|368:280,1,86.5
352,192,200442,2,0,B|368:240|352:296,2,86.5
352,192,200886,1,0
304,96,201033,2,0,B|272:192,1,86.5
232,88,201329,6,0,B|240:184,1,86.5
160,104,201625,2,0,B|200:192,1,86.5
248,272,201920,1,0
208,304,201994,1,0
176,344,202068,1,0
88,288,202216,2,0,B|72:232|96:168,1,86.5
192,208,202511,2,0,B|208:160|280:136,1,86.5
344,200,202807,2,0,B|408:200|472:256,2,129.75
144,144,203546,5,0
224,80,203694,1,0
328,104,203841,1,0
256,184,203989,1,0
256,184,204137,2,0,B|280:232|272:304,1,86.5
248,168,204432,2,0,B|224:112|232:72,1,86.5
328,104,204728,2,0,B|424:144,1,86.5
448,232,205024,2,0,B|368:200,1,86.5
336,296,205319,1,0
128,296,205615,5,0
128,296,205763,1,0
200,224,205910,2,0,B|176:176|200:120,1,86.5
296,320,206354,2,0,B|312:272|288:216,1,86.5
256,32,206797,1,0
256,192,207093,12,0,207979
56,200,208275,6,0,B|112:192|144:144,1,86.5
216,224,208570,2,0,B|168:208|152:152,1,86.5
160,64,208866,1,0
264,80,209014,1,0
352,128,209162,1,0
392,224,209309,1,0
320,304,209457,1,0
272,320,209531,1,0
224,328,209605,1,0
176,312,209679,1,0
128,288,209753,2,0,B|128:240|112:160,1,129.75
264,192,210196,2,0,B|344:232,1,86.5
264,160,210492,2,0,B|176:112,1,86.5,0|0
96,64,210787,5,0
32,144,210935,1,0
256,72,211083,1,0
256,176,211230,1,0
400,64,211378,1,0
456,152,211526,1,0
424,248,211674,2,0,B|376:160,1,86.5
344,272,211969,2,0,B|344:184,1,86.5
272,256,212265,2,0,B|320:168,1,86.5
232,112,212561,5,0
128,120,212708,1,0
88,160,212782,1,0
88,208,212856,1,0
112,256,212930,1,0
160,288,213004,6,4,B|256:344,1,86.5
272,256,213299,2,0,B|208:192,1,86.5
232,112,213595,1,0
232,112,213743,1,0
232,112,213891,1,0
440,104,214186,6,0,B|392:104|320:72,1,86.5
392,184,214482,1,0
288,184,214629,1,0
104,200,214777,1,0
208,200,214924,1,0
160,104,215073,5,0
176,112,215221,1,0
192,120,215368,1,0
208,128,215516,1,0
232,144,215664,2,0,B|264:232,1,86.5
384,248,215960,2,0,B|344:144,1,86.5
104,176,216255,2,0,B|144:280,1,86.5
128,344,216551,5,0
232,320,216698,1,0
280,232,216846,1,0
272,128,216994,1,0
352,56,217142,1,0
416,256,217437,6,0,B|400:216,3,43.25
424,264,217733,2,0,B|392:304|384:352,1,86.5
328,256,218029,2,0,B|296:208|304:160,1,86.5
224,104,218324,2,0,B|152:152,1,86.5
248,120,218620,2,0,B|216:208,1,86.5
208,304,218915,1,0
304,272,219063,1,0
112,272,219211,1,0
248,200,219359,1,0
168,200,219506,1,0
376,192,219802,6,0,B|392:144|440:128,1,86.5
328,112,220097,2,0,B|288:128|240:112,1,86.5
144,96,220393,2,0,B|184:80|248:112,1,86.5
248,200,220689,1,0
248,304,220836,1,0
248,336,220984,1,0
248,360,221132,1,0
144,344,221280,1,0
88,256,221428,1,0
144,168,221575,1,0
240,128,221723,1,0
344,128,221871,1,0
448,128,222019,5,0
448,176,222093,1,0
408,208,222166,1,0
424,256,222240,1,0
408,304,222314,1,0
320,256,222462,6,0,B|224:224,1,86.5
144,192,222758,2,0,B|240:224,1,86.5
264,120,223053,1,0
336,48,223201,1,0
224,288,223349,1,0
144,352,223496,1,0
64,288,223644,2,0,B|48:240|48:184,1,86.5
112,120,223940,2,0,B|104:72|128:24,1,86.5
216,80,224235,1,0
320,96,224383,1,0
424,72,224531,1,0
456,168,224679,1,0
352,192,224827,6,0,B|264:200,1,86.5
160,216,225122,2,0,B|272:208,1,86.5
368,272,225418,2,0,B|264:280,1,86.5
112,144,225713,2,0,B|224:136,1,86.5
256,192,226009,12,0,227191
88,128,227339,6,0,B|136:104,3,43.25
80,200,227782,2,0,B|128:200|184:248,1,86.5
312,296,228078,2,0,B|280:272|232:264,1,86.5
232,160,228373,2,0,B|272:80,1,86.5
376,88,228669,1,0
416,120,228743,1,0
432,168,228817,1,0
432,216,228891,1,0
416,264,228964,1,0
344,184,229112,2,0,B|280:184,3,43.25
168,96,229556,6,0,B|240:168,1,86.5
176,296,229851,2,0,B|232:232,1,86.5
328,272,230147,1,0
232,230,230295,1,0
136,192,230442,1,0
56,256,230590,1,0
56,256,230738,2,0,B|48:208|48:152,1,86.5
120,96,231033,2,0,B|160:64|216:64,1,86.5
296,96,231329,2,0,B|352:120,4,43.25
400,272,231920,5,0
400,272,232068,1,0
296,288,232216,1,0
296,288,232363,1,0
272,184,232511,2,0,B|200:232,1,86.5
104,192,232807,2,0,B|200:240,1,86.5
192,128,233102,1,0
264,48,233250,1,0
352,104,233398,1,0
280,176,233546,1,0
360,240,233694,2,0,B|328:200|280:176,1,86.5
176,88,233989,2,0,B|200:128|248:144,2,86.5
72,112,234432,5,0
80,160,234506,1,0
96,208,234580,1,0
120,256,234654,1,0
152,296,234728,1,0
200,320,234802,1,0
248,320,234876,1,0
296,304,234950,1,0
344,280,235024,1,0
392,280,235097,1,0
440,296,235171,1,0
344,112,235467,1,0
144,48,235763,1,0
208,128,235910,1,0
208,128,236058,1,0
480,120,236649,2,0,B|376:88,1,86.5
448,192,236945,2,0,B|352:168,1,86.5
408,264,237240,2,0,B|312:248,1,86.5
384,336,237536,2,0,B|272:320,1,86.5
112,288,237831,2,0,B|216:320,1,86.5
144,216,238127,2,0,B|240:240,1,86.5
184,144,238422,2,0,B|280:160,1,86.5
208,72,238718,2,0,B|320:88,1,86.5
400,72,239014,1,0
384,176,239162,1,0
424,272,239309,1,0
224,328,239605,2,0,B|288:272|264:160,1,173
256,88,240196,2,0,B|160:72,1,86.5
256,88,240492,2,0,B|344:72,1,86.5
256,88,240787,2,0,B|256:0,1,86.5
256,88,241083,2,0,B|256:200,1,86.5
184,248,241378,1,0
256,320,241526,1,0
328,248,241674,1,0
144,336,241969,1,0
144,336,242117,1,0
368,336,242265,1,0
368,336,242413,1,0
368,336,242561,2,0,B|432:296|432:232,1,86.5
408,168,242856,2,0,B|408:112|376:72,1,86.5
288,128,243152,2,0,B|240:96|168:112,1,86.5
224,208,243447,2,0,B|184:176|104:216,1,86.5
224,208,243743,2,0,B|200:304|288:368,1,173
224,208,244334,2,0,B|304:136|232:40,1,173
448,80,244925,1,0
440,96,244999,1,0
432,112,245073,1,0
424,128,245147,1,0
416,144,245221,1,0
256,336,245516,1,0
272,320,245664,1,0
280,304,245812,1,0
280,288,245960,1,0
256,184,246107,2,0,B|168:208,1,86.5
72,224,246403,2,0,B|96:168|80:104,1,86.5
168,72,246698,1,0
376,104,246846,1,0
384,208,246994,1,0
176,176,247142,1,0
176,176,247290,2,0,B|208:224|192:296,1,86.5
176,176,247585,2,0,B|232:176|264:128,1,86.5
176,176,247881,2,0,B|168:112|144:64,1,86.5
176,192,248176,2,0,B|104:200|80:232,1,86.5
112,320,248472,1,0
216,312,248620,1,0
320,328,248767,1,0
424,312,248915,1,0
432,208,249063,1,0
328,224,249211,1,0
224,232,249359,1,0
120,216,249506,1,0
120,216,249654,2,0,B|104:128,1,86.5
208,152,249950,2,0,B|240:48,1,86.5
304,144,250245,2,0,B|368:88,1,86.5
432,168,250541,1,0
448,216,250615,1,0
456,264,250689,1,0
448,312,250763,1,0
400,336,250836,2,0,B|312:336,1,86.5
208,336,251132,2,0,B|304:336,1,86.5
304,232,251428,1,0
304,232,251575,1,0
304,232,251723,1,0
304,232,251871,1,0
304,232,252019,2,0,B|256:208|240:144,1,86.5
128,96,252314,2,0,B|168:128|176:176,1,86.5
136,264,252610,1,0
336,312,252905,1,0
360,304,253053,1,0
384,296,253201,1,0
408,288,253349,1,0
256,152,253644,1,0
256,256,253792,1,0
80,152,254088,1,0
440,160,254383,1,0
440,160,254679,2,0,B|464:216|456:272,1,86.5
256,384,255270,6,0,B|248:328|200:296,1,86.5
176,224,255565,2,0,B|160:272|104:288,1,86.5
48,200,255861,1,0
96,112,256009,1,0
192,80,256157,1,0
296,96,256304,1,0
400,112,256452,1,0
416,144,256526,1,0
424,176,256600,1,0
416,208,256674,1,0
400,240,256748,2,0,B|352:240|272:256,1,129.75
264,152,257191,2,0,B|304:72,1,86.5
200,224,257487,2,0,B|152:312,1,86.5,0|0
56,296,257782,5,0
72,192,257930,1,0
152,128,258078,1,0
72,192,258225,1,0
64,88,258373,1,0
152,24,258521,1,0
328,32,258669,2,0,B|240:80,1,86.5
344,152,258964,2,0,B|256:152,1,86.5
336,272,259260,2,0,B|248:224,1,86.5
160,200,259556,5,0
128,296,259703,1,0
152,312,259777,1,0
176,320,259851,1,0
200,320,259925,1,0
224,320,259999,6,4,B|280:224,1,86.5
296,96,260294,2,0,B|240:176,1,86.5
176,216,260590,1,0
176,216,260738,1,0
176,216,260886,1,0
128,72,261181,6,0,B|128:120|96:192,1,86.5
64,248,261477,1,0
56,256,261624,1,0
96,352,261772,1,0
200,360,261919,1,0
168,288,262068,5,0
176,272,262216,1,0
184,256,262363,1,0
192,240,262511,1,0
208,216,262659,2,0,B|296:184,1,86.5
312,64,262955,2,0,B|208:104,1,86.5
240,344,263250,2,0,B|344:304,1,86.5
408,320,263546,5,0
384,216,263693,1,0
296,168,263841,1,0
192,176,263989,1,0
120,96,264137,1,0
200,32,264285,1,0
320,32,264432,6,0,B|280:48,3,43.25
328,24,264728,2,0,B|368:56|416:64,1,86.5
320,120,265024,2,0,B|272:152|224:144,1,86.5
168,224,265319,2,0,B|216:296,1,86.5
184,200,265615,2,0,B|272:232,1,86.5
368,240,265910,1,0
336,144,266058,1,0
336,336,266206,1,0
264,200,266354,1,0
264,280,266501,1,0
264,200,266649,1,0
256,72,266797,6,0,B|208:56|192:8,1,86.5
176,120,267092,2,0,B|192:160|176:208,1,86.5
160,304,267388,2,0,B|144:264|176:200,1,86.5
264,200,267684,1,0
368,200,267831,1,0
400,200,267979,1,0
424,200,268127,1,0
408,304,268275,1,0
320,360,268423,1,0
232,304,268570,1,0
192,208,268718,1,0
192,104,268866,1,0
192,0,269014,5,0
240,0,269088,1,0
272,40,269161,1,0
320,24,269235,1,0
368,40,269309,1,0
320,128,269457,6,0,B|288:224,1,86.5
256,304,269753,2,0,B|288:208,1,86.5
184,184,270048,1,0
112,112,270196,1,0
352,224,270344,1,0
416,304,270491,1,0
352,384,270639,2,0,B|304:400|248:400,1,86.5
184,336,270935,2,0,B|136:344|88:320,1,86.5
144,232,271230,1,0
160,128,271378,1,0
136,24,271526,1,0
232,-8,271674,1,0
256,96,271822,6,0,B|264:184,1,86.5
280,288,272117,2,0,B|272:176,1,86.5
336,80,272413,2,0,B|344:184,1,86.5
208,336,272708,2,0,B|200:224,1,86.5
256,192,273004,12,0,274482
80,216,274629,5,0
104,208,274777,5,0
128,208,274925,1,0
152,216,275073,1,0
168,224,275221,1,0
184,232,275368,2,0,B|216:200,3,43.25
352,200,275663,5,0
352,224,275811,1,0
344,248,275959,1,0
336,264,276107,1,0
328,280,276255,1,0
312,296,276403,1,0
296,312,276551,2,0,B|328:344,3,43.25
256,192,276846,2,0,B|256:160|256:96,1,86.5
256,192,277142,2,0,B|160:192,1,86.5
256,192,277437,2,0,B|256:304,1,86.5
256,192,277733,2,0,B|352:192,1,86.5
416,120,278029,1,0
376,88,278102,1,0
328,72,278176,1,0
280,64,278250,1,0
232,64,278324,1,0
184,72,278398,1,0
136,96,278472,1,0
104,136,278546,1,0
88,184,278620,1,0
80,232,278694,1,0
88,280,278767,1,0
112,328,278841,1,0
160,344,278915,1,0
208,352,278989,1,0
256,352,279063,1,0
304,344,279137,1,0
256,192,279211,12,0,282166
