osu file format v9

[General]
AudioFilename: Full_192kbps.mp3
AudioLeadIn: 1996
PreviewTime: -1
Countdown: 0
SampleSet: Normal
StackLeniency: 0.7
Mode: 0
LetterboxInBreaks: 1

[Editor]
Bookmarks: 432232
DistanceSpacing: 0.9
BeatDivisor: 4
GridSize: 8

[Metadata]
Title:Senbonzakura (Speedup ver.)
Artist:Hatsune Miku
Creator:0x57CB36
Version:Extreme
Source:KurousaP
Tags:vocaloid vocaloid2 senbon sakura NatsumeRin kurousa-P speedcore Byakugan249 nekonomitsu

[Difficulty]
HPDrainRate:6
CircleSize:4
OverallDifficulty:8
ApproachRate:9
SliderMultiplier:2
SliderTickRate:1

[Events]
//Background and Video events
0,0,"BG.JPG"
//Break Periods
//Storyboard Layer 0 (Background)
//Storyboard Layer 1 (Fail)
//Storyboard Layer 2 (Pass)
//Storyboard Layer 3 (Foreground)
//Storyboard Sound Samples
//Background Colour Transformations
3,100,163,162,255

[TimingPoints]
431,338.983050847458,4,2,0,80,1,0
92596,312.5,4,2,0,80,1,0
184630,295.566502463054,4,2,0,80,1,0
282438,273.972602739726,4,2,0,80,1,0
284355,273.972602739726,4,2,0,80,1,0
381949,242.914979757085,4,1,1,80,1,0
405268,-100,4,1,1,80,0,1
420815,-100,4,1,1,80,0,0
444135,-100,4,1,1,80,0,1
459681,-100,4,1,1,80,0,0
478325,-100,4,1,1,60,0,0
478568,-100,4,1,1,40,0,0

[Colours]
Combo1 : 3,79,135
Combo2 : 36,101,27
Combo3 : 234,117,0
Combo4 : 238,140,255
Combo5 : 132,87,60
Combo6 : 255,0,0

[HitObjects]
57,254,381949,2,0,B|102:271|102:271|152:250,1,100,0|0
265,280,382191,1,8
293,288,382252,1,0
323,288,382313,1,0
351,278,382374,1,0
372,257,382434,2,0,B|407:218|407:218|377:176,1,100,0|0
399,80,382677,1,8
369,74,382738,1,0
339,77,382799,1,0
310,86,382859,1,0
283,101,382920,6,0,B|240:133|240:133|189:111,1,100
95,49,383163,1,8
79,74,383224,1,0
71,103,383285,1,0
68,132,383345,1,0
68,162,383406,2,0,B|101:199|101:199|90:252|89:252,1,100
88,278,383588,1,0
113,294,383649,2,0,B|163:319|163:319|212:292,1,100,8|0
311,347,383892,6,0,B|325:290|325:290|294:244,1,100
410,204,384135,1,8
416,175,384195,1,0
419,145,384256,1,0
417,114,384317,1,0
407,85,384378,2,0,B|382:33|382:33|329:24,1,100
254,111,384621,1,8
243,83,384681,1,0
225,58,384742,1,0
202,38,384803,1,0
176,23,384863,6,0,B|148:69|148:69|90:69,1,100
33,257,385106,1,8
231,290,385228,1,0
361,137,385350,1,0
384,157,385411,1,0
402,182,385471,1,0
414,209,385532,1,0
418,238,385592,2,0,B|427:288|427:288|470:320,1,100,8|0
295,211,385835,6,0,B|282:157|282:157|235:139,1,100
160,50,386078,1,8
131,60,386139,1,0
108,80,386200,1,0
91,104,386260,1,0
76,130,386321,2,0,B|54:176|54:176|74:227,1,100
109,336,386564,1,8
138,331,386625,1,0
162,314,386685,1,0
182,291,386746,1,0
197,265,386807,6,0,B|216:216|216:216|260:194,1,100
350,272,387050,2,0,B|380:314,3,50,8|0|0|0
397,336,387293,2,0,B|448:320|448:320|480:269,1,100
479,251,387475,1,0
488,222,387536,1,8
468,104,387657,1,0
365,42,387778,5,0
330,71,387839,1,0
287,87,387900,1,0
242,93,387961,1,0
197,90,388021,1,8
152,95,388082,1,0
109,109,388143,1,0
73,136,388204,1,0
45,170,388264,1,0
49,270,388386,1,0
146,354,388507,1,8
306,356,388629,1,0
385,313,388750,5,4
385,313,388993,1,4
484,156,389114,2,0,B|488:150|448:249,1,100,0|4
448,248,389479,1,0
328,39,389722,6,0,B|293:76|293:76|293:153|293:153|271:179,1,150,2|0
258,192,389965,2,0,B|217:236|217:236|148:236,1,100,8|0
129,96,390208,1,0
15,208,390329,1,0
76,356,390451,1,8
234,372,390572,1,0
331,275,390693,6,0,B|363:317|363:317|420:317|420:317|449:345,1,150
470,365,390936,2,0,B|510:329|510:329|510:268,1,100,8|0
510,252,391119,2,0,B|511:197,1,50
429,63,391301,1,0
370,167,391422,1,8
282,84,391544,1,0
195,166,391665,6,0,B|162:128,1,50
100,282,391847,2,0,B|74:328,1,50,0|8
213,280,392029,1,0
310,350,392151,1,0
424,316,392272,1,0
452,280,392333,1,0
479,244,392394,1,8
343,206,392515,1,0
343,206,392637,5,0
290,177,392880,5,0
239,144,393123,5,0
189,110,393366,5,0
140,75,393608,6,0,B|99:108|99:108|99:173|99:173|66:195,1,150
47,208,393851,2,0,B|46:272|46:272|73:299,1,100,8|0
176,357,394094,1,0
243,297,394216,1,0
345,357,394337,1,8
450,298,394459,1,0
481,43,394580,6,0,B|463:146|463:146|420:175,1,150
414,199,394823,2,0,B|385:155|385:155|326:135,1,100,8|0
340,139,395005,1,0
340,139,395066,1,0
226,177,395187,1,0
320,40,395309,1,8
268,307,395430,1,0
361,273,395552,6,0,B|408:320,1,50
155,304,395734,2,0,B|116:335,1,50,0|8
27,164,395916,1,0
50,202,395977,1,0
89,223,396038,1,0
164,130,396159,1,0
225,177,396280,1,8
331,83,396402,1,0
443,43,396523,6,0,B|479:85|479:85|480:136,1,100
455,333,396766,2,0,B|434:306|434:306|434:241,1,100,8|0
331,82,397009,2,0,B|367:124|367:124|368:175,1,100
343,372,397252,2,0,B|321:344|321:344|321:279,1,100,8|0
227,203,397495,6,0,B|116:204,1,100
81,204,397677,1,0
35,204,397738,1,8
123,70,397859,1,0
123,345,397981,1,0
162,103,398102,1,0
160,312,398224,2,0,B|224:312|224:312|264:344,1,100,8|0
348,103,398467,6,0,B|347:156|347:156|374:199,1,100
404,227,398649,1,0
434,259,398710,1,8
434,119,398831,2,0,B|434:59|434:59|410:26|409:26,1,100
256,190,399195,1,8
121,357,399438,6,0,B|85:316|85:316|84:260,1,100
86,224,399621,1,0
86,179,399681,1,8
151,77,399803,1,0
266,45,399924,1,0
437,184,400046,1,0
381,79,400167,1,8
249,279,400289,1,0
249,279,400410,6,0,B|220:309|232:364|287:367|320:327,1,150
318,328,400653,1,8
353,213,400774,1,0
311,99,400896,1,0
196,64,401017,1,0
168,99,401078,1,0
139,134,401139,1,8
112,168,401200,1,0
80,200,401260,1,0
48,232,401321,1,0
16,264,401382,6,0,B|71:325|71:325|195:326,1,200,0|8
493,116,401868,2,0,B|438:55|438:55|314:54,1,200,0|8
184,172,402353,5,0
268,204,402475,1,0
309,221,402536,1,0
349,239,402596,1,8
479,344,402718,2,0,B|479:298|479:298|430:277,1,100
492,113,403082,6,0,B|444:133|444:133|390:102,1,100,8|0
283,33,403325,1,4
283,33,403446,1,0
60,123,403689,2,0,B|61:67,2,50
60,243,403932,1,0
60,288,403993,1,0
60,333,404054,1,8
296,334,404297,2,0,B|348:334|348:334|391:307,1,100
388,308,404479,1,0
388,308,404540,1,8
329,45,404661,1,0
176,68,405025,6,0,B|143:111|143:111|152:167,1,100,0|0
336,316,405268,2,0,B|369:273|369:273|360:217,1,100,0|0
352,182,405451,1,0
342,138,405511,1,8
285,41,405633,1,0
191,314,405754,1,0
472,190,405997,1,8
472,190,406058,1,0
472,190,406119,1,0
430,368,406240,2,0,B|454:271,1,100
427,29,406483,2,0,B|402:139,1,100,8|0
404,126,406665,1,0
404,126,406726,1,0
227,159,406969,6,0,B|172:157|172:157|140:126,1,100,8|0
116,247,407212,2,0,B|88:280|88:280|89:348|88:331,1,100
88,332,407394,1,0
88,332,407455,1,8
221,304,407576,2,0,B|256:342|256:342|322:342,1,100
398,342,407819,1,0
398,342,407880,1,0
398,342,407940,1,8
445,264,408062,5,0
469,225,408123,1,0
492,187,408183,1,0
449,34,408305,1,0
427,73,408365,1,0
404,112,408426,1,8
359,190,408548,2,0,B|332:236|332:236|272:236,1,100
88,332,408912,5,8
24,229,409034,1,0
55,51,409155,2,0,B|56:100|56:100|95:133,1,100
132,158,409337,1,0
168,184,409398,1,8
195,276,409519,1,0
449,362,409641,2,0,B|432:310|432:310|320:272,1,150
341,279,409884,1,8
324,40,410005,5,0
380,168,410127,1,0
468,60,410248,1,0
314,123,410370,1,8
452,143,410491,1,0
407,10,410612,1,0
138,89,410855,5,8
31,163,410977,1,0
68,277,411098,1,0
104,292,411341,5,0
141,307,411584,5,0
176,324,411827,5,0
335,330,412070,6,0,B|428:330|428:330|479:295,1,150,4|0
474,297,412313,1,8
429,187,412434,2,0,B|448:166|448:166|449:88,1,100
216,48,412799,5,8
88,120,412920,1,0
216,192,413042,1,0
144,259,413163,1,0
162,300,413224,1,0
181,340,413285,2,0,B|198:362|198:362|273:362,1,100,8|0
336,200,413527,2,0,B|336:291|336:291|383:332,1,150
380,329,413770,1,8
450,231,413892,2,0,B|489:198|489:198|490:135,1,100
444,37,414135,2,0,B|402:75|402:75|402:132,1,100,0|8
336,200,414378,2,0,B|295:163|295:163|295:101,1,100
122,67,414742,5,8
85,93,414803,1,0
54,125,414863,1,0
36,166,414924,1,0
30,210,414985,2,0,B|34:268|34:268|65:306,1,100
93,330,415167,1,0
133,349,415228,1,8
212,212,415349,2,0,B|211:294|211:294|237:323,1,100
306,379,415592,2,0,B|306:303|306:303|324:280,1,100,0|8
411,271,415835,1,0
504,179,415957,1,0
469,54,416078,1,0
340,28,416200,1,8
247,118,416321,1,0
280,243,416442,1,0
22,279,416685,5,8
139,335,416807,1,0
234,248,416928,1,0
170,134,417050,1,0
170,134,417110,1,0
170,134,417171,1,8
41,154,417293,1,0
41,154,417414,1,0
129,235,417536,2,0,B|164:245|164:245|218:213,1,100,0|8
306,140,417778,1,0
307,140,417839,1,0
307,140,417900,2,0,B|355:121|355:121|386:71,1,100
484,240,418143,2,0,B|435:260|435:260|423:315,1,100,8|0
307,362,418386,1,0
187,312,418507,5,0
142,303,418568,1,0
97,295,418629,1,8
37,183,418750,1,0
129,53,418872,2,0,B|172:87|172:87|281:92,1,150
383,331,419114,2,0,B|340:297|340:297|231:292,1,150,8|0
117,319,419357,2,0,B|151:276|151:276|156:167,1,150
395,65,419599,2,0,B|361:108|361:108|356:217,1,150,8|0
356,203,419843,5,0
113,110,419965,1,0
261,303,420086,1,8
276,68,420208,1,0
117,255,420329,1,0
232,191,420572,1,4
395,62,420815,6,0,B|396:118|396:118|425:153,1,100
476,260,421058,1,8
439,286,421119,1,0
402,311,421179,1,0
361,331,421240,1,0
318,345,421301,2,0,B|272:363|272:363|220:362,1,100
113,308,421544,1,8
92,268,421604,1,0
81,223,421665,1,0
77,177,421726,1,0
87,132,421787,6,0,B|113:83|113:83|171:67,1,100
266,24,422029,1,8
279,67,422090,1,0
311,97,422151,1,0
354,110,422212,1,0
398,115,422272,2,0,B|448:122|448:122|476:164,1,100
497,203,422455,1,0
484,245,422515,2,0,B|461:300|461:300|413:317,1,100,8|0
223,366,422758,6,0,B|275:343|275:343|301:294,1,100
183,259,423001,1,8
140,275,423062,1,0
94,271,423123,1,0
60,241,423183,1,0
54,196,423244,2,0,B|52:146|52:146|89:106,1,100
185,40,423487,1,8
229,32,423548,1,0
273,29,423608,1,0
318,25,423669,1,0
363,26,423730,6,0,B|415:28|415:28|444:73,1,100
493,240,423973,1,8
306,306,424094,1,0
343,180,424216,1,0
298,177,424276,1,0
253,183,424337,1,0
214,206,424398,1,0
186,241,424459,2,0,B|160:302|160:302|120:317,1,100,8|0
54,219,424702,6,0,B|45:148|45:148|71:123,1,100
140,35,424944,1,8
181,53,425005,1,0
224,64,425066,1,0
268,69,425127,1,0
312,68,425187,2,0,B|359:78|359:78|407:58,1,100
499,135,425430,1,8
497,180,425491,1,0
483,223,425552,1,0
459,260,425612,1,0
423,288,425673,6,0,B|379:319|379:319|326:310,1,100
221,356,425916,1,8
181,333,425977,1,0
151,298,426038,1,0
137,255,426098,1,0
133,209,426159,1,0
203,112,426280,1,0
243,132,426341,1,0
287,139,426402,1,8
404,114,426523,1,0
459,260,426645,5,0
404,253,426706,1,0
349,257,426766,1,0
295,269,426827,1,0
242,287,426888,1,8
187,295,426949,1,0
132,294,427009,1,0
78,280,427070,1,0
31,250,427131,1,0
105,116,427252,1,0
175,164,427374,1,8
265,43,427495,1,0
384,31,427617,6,0,B|400:117|400:117|457:155,1,150,4|0
452,151,427859,1,12
480,344,427981,2,0,B|467:280|467:280|432:255,1,100,0|4
438,259,428345,1,12
285,73,428588,6,0,B|286:166|286:166|244:209,1,150
246,321,428831,2,0,B|245:227|245:227|201:180,1,150,8|0
187,163,429074,1,0
73,238,429195,1,0
127,63,429317,1,8
132,338,429438,1,0
247,320,429560,2,0,B|281:288|281:288|339:288|339:288|374:256,1,150
390,161,429803,2,0,B|390:246|390:246|448:297,1,150,8|0
462,307,430046,1,0
492,216,430167,1,0
492,95,430289,1,8
390,160,430410,1,0
361,43,430531,6,0,B|324:84|324:84|256:82|256:82|231:105,1,150
225,197,430774,2,0,B|226:104|226:104|181:57,1,150,8|0
169,45,431017,1,0
80,126,431139,1,0
150,345,431260,1,8
306,283,431382,1,0
305,283,431503,6,0,B|351:251|351:251|359:129,1,150
207,101,431746,2,0,B|160:132|160:132|152:254,1,150,8|0
307,117,431989,2,0,B|305:60|305:60|208:-12,1,150
205,267,432232,2,0,B|206:323|206:323|303:396,1,150,8|0
364,320,432475,6,0,B|420:312|420:312|474:223,1,150
486,190,432718,2,0,B|478:113|478:113|444:81,1,100,8|0
428,67,432900,1,0
396,34,432961,1,0
308,116,433082,1,0
168,35,433204,1,8
167,200,433325,1,0
32,226,433446,2,0,B|136:226|136:226|173:262,1,150
149,332,433689,2,0,B|193:264|193:264|268:264,1,150,8|0
307,266,433932,1,0
346,151,434054,1,0
422,317,434175,1,8
225,100,434297,1,0
117,47,434418,6,0,B|73:107|73:107|120:164,1,150
121,165,434661,1,8
88,281,434783,1,0
132,284,434843,1,0
175,296,434904,1,0
284,343,435025,1,0
404,347,435147,1,8
484,258,435268,1,0
376,204,435390,6,0,B|329:148|329:148|333:60,1,150
387,95,435633,2,0,B|312:129|312:129|239:128,1,150,8|0
199,88,435876,2,0,B|224:172|224:172|177:231,1,150
183,281,436119,2,0,B|139:208|139:208|65:200,1,150,8|0
30,200,436361,5,0
37,59,436483,1,0
81,68,436544,1,0
118,91,436604,1,8
218,202,436726,1,0
269,140,436847,1,0
328,278,436969,1,0
428,167,437090,1,8
47,311,437333,2,0,B|92:281|92:281|150:282,1,100
183,281,437515,1,0
228,280,437576,1,8
326,159,437697,1,0
222,26,437819,1,0
180,31,438062,5,8
39,76,438305,6,0,B|1:128|1:128|23:164,1,100
45,195,438487,1,0
72,230,438548,1,8
141,132,438669,1,0
335,77,438791,1,0
214,26,438912,1,0
223,221,439034,1,8
247,338,439155,2,0,B|304:312|304:312|349:324,1,100
380,341,439337,1,0
425,342,439398,1,0
503,238,439519,1,8
417,139,439641,1,0
497,37,439762,1,0
335,77,439884,5,0
301,106,439944,1,0
258,120,440005,1,8
92,49,440248,2,0,B|40:143|40:143|65:182,1,150
49,268,440491,2,0,B|112:176|112:176|168:159,1,150,8|0
221,121,440734,2,0,B|162:227|162:227|177:270,1,150
188,329,440977,2,0,B|214:270|214:270|268:246,1,100,8|0
289,243,441159,1,0
332,230,441220,1,0
448,202,441341,2,0,B|476:173|461:127|420:127,1,100,0|8
306,85,441584,1,0
264,102,441645,1,0
222,119,441706,1,0
88,94,441949,5,8
45,179,442070,1,0
81,292,442191,1,0
81,292,442313,1,8
316,340,442556,1,0
439,346,442677,2,0,B|427:275|427:275|362:230,1,150,0|0
362,231,442920,1,0
112,21,443163,2,0,B|144:115|144:115|249:153,1,200,4|0
238,149,443527,1,0
213,321,443892,6,0,B|149:356|149:356|114:356,1,100
29,278,444135,1,0
54,161,444256,1,0
89,132,444317,1,0
129,111,444378,1,8
224,183,444499,1,0
298,41,444621,2,0,B|340:75,1,50
505,21,444803,2,0,B|456:44,1,50,0|8
429,158,444985,1,0
456,193,445046,1,0
457,238,445107,1,0
396,330,445228,1,0
310,224,445350,1,8
205,367,445471,1,0
20,274,445593,1,0
108,34,445774,5,0
108,34,445835,2,0,B|73:89|73:89|87:134,1,100,8|0
85,344,446078,2,0,B|149:265|149:265|135:216,1,150
135,218,446321,1,8
211,139,446442,2,0,B|256:172|256:172|312:159,1,100
345,50,446685,1,0
384,72,446746,1,0
416,103,446807,1,8
426,222,446928,1,0
420,266,446989,1,0
398,305,447050,1,0
260,344,447171,1,0
300,233,447293,1,8
127,356,447414,1,0
114,127,447536,5,0
114,127,447778,1,8
157,91,447900,1,0
197,51,448021,2,0,B|252:58|252:58|280:92|280:92|330:96,1,150
366,47,448264,2,0,B|369:148|369:148|404:185,1,150,8|0
426,222,448507,1,0
424,342,448629,2,0,B|370:322|370:322|318:341,1,100,0|8
207,334,448872,1,0
87,338,448993,1,0
232,222,449114,1,0
188,56,449236,1,8
144,152,449357,1,0
303,67,449479,1,0
426,222,449722,5,8
359,321,449843,1,0
244,357,449965,1,0
203,356,450208,5,0
162,355,450451,5,0
122,354,450693,5,0
49,245,450936,5,0
137,163,451058,1,0
172,135,451119,1,0
207,107,451179,1,8
324,135,451301,1,0
303,17,451422,1,0
137,163,451665,6,0,B|175:208|175:208|224:208,1,100,8|0
443,252,451908,2,0,B|350:252|350:252|301:292,1,150
287,345,452151,2,0,B|287:280|287:280|261:250,1,100,8|0
264,88,452394,1,0
442,114,452637,1,8
442,158,452697,1,0
442,203,452758,1,0
444,323,452880,1,0
287,345,453001,1,0
320,277,453123,1,8
145,298,453244,1,0
28,144,453366,1,0
28,144,453608,6,0,B|93:139|93:139|132:110,1,100,8|0
231,16,453851,2,0,B|231:115|231:115|270:153,1,150
267,150,454094,1,8
384,55,454216,1,0
405,93,454276,1,0
427,132,454337,1,0
483,238,454459,2,0,B|483:303|483:303|452:335,1,100,0|8
342,295,454702,1,0
297,294,454762,1,0
251,294,454823,1,0
91,292,454944,1,0
164,149,455066,1,8
98,106,455187,1,0
332,137,455309,1,0
332,137,455552,6,0,B|367:176|367:176|428:176,1,100,8|0
491,268,455795,2,0,B|452:317|452:317|352:319,1,150
335,353,456038,2,0,B|296:282|296:282|222:281,1,150,8|0
182,283,456280,1,0
180,283,456523,1,8
115,344,456645,1,0
131,136,456766,1,0
53,84,456888,1,0
353,80,457009,1,8
294,29,457131,1,0
327,236,457252,1,0
327,236,457495,5,8
397,308,457617,1,0
488,92,457738,1,0
408,100,457981,5,0
328,110,458224,5,0
248,120,458467,5,0
101,55,458710,5,0
56,268,458831,1,0
127,172,458953,1,8
10,146,459074,1,0
235,280,459195,1,0
235,280,459438,2,0,B|284:301,2,50,8|0|0
348,240,459681,5,0
380,202,459803,1,0
413,164,459924,1,0
446,126,460046,1,0
479,89,460167,1,0
510,49,460289,1,0
465,21,460410,5,10
365,33,460471,1,2
267,47,460531,1,2
191,113,460653,5,0
162,121,460774,1,0
132,127,460896,1,0
104,137,461017,1,0
75,147,461139,1,0
46,157,461260,1,0
27,260,461382,5,10
117,298,461442,1,2
209,337,461503,1,2
315,351,461625,5,0
339,319,461746,1,0
362,286,461868,1,0
384,253,461989,1,0
406,220,462110,1,0
428,186,462232,1,0
455,88,462353,5,10
356,70,462414,1,2
257,52,462475,1,2
145,99,462596,5,0
72,195,462718,2,0,B|17:206,2,50,0|0|8
101,229,462900,2,0,B|93:283,2,50
145,234,463082,1,0
189,224,463143,1,0
232,211,463204,1,0
276,215,463264,1,0
313,239,463325,1,8
336,277,463386,1,0
366,309,463446,2,0,B|416:326,1,50
456,308,463568,5,0
493,282,463629,1,0
508,240,463689,1,0
501,195,463750,1,0
478,155,463811,1,8
441,128,463872,1,0
398,114,463932,2,0,B|375:162,2,50
356,95,464114,2,0,B|321:136,2,50
314,75,464297,2,0,B|280:37,1,50,8|0
235,31,464418,2,0,B|180:52,1,50
142,54,464540,6,0,B|124:7,2,50
102,76,464722,1,0
73,111,464783,2,0,B|70:165,3,50,8|0|0|0
60,204,465025,1,0
65,248,465086,1,0
86,288,465147,1,0
121,316,465208,1,0
163,329,465268,1,8
208,331,465329,1,0
253,331,465390,1,0
297,322,465451,1,0
334,298,465511,6,0,B|387:300,1,50
419,271,465633,2,0,B|404:221,1,50
407,178,465754,2,0,B|464:166,2,50,8|0|0
392,135,465936,1,0
372,94,465997,2,0,B|405:48,2,50
329,78,466179,2,0,B|277:67,1,50,0|8
234,67,466301,1,0
192,82,466361,1,0
157,110,466422,1,0
129,145,466483,5,0
117,188,466544,1,0
116,232,466604,1,0
122,276,466665,1,0
150,310,466726,1,8
201,313,466787,1,0
239,290,466847,1,0
255,247,466908,1,0
244,203,466969,1,0
207,178,467029,1,0
161,179,467090,1,0
116,186,467151,1,0
72,172,467212,1,8
39,137,467272,1,0
35,91,467333,1,0
60,53,467394,1,0
101,34,467455,6,0,B|153:39,3,50
195,36,467697,2,0,B|240:8,1,50,8|0
276,33,467819,1,0
318,47,467880,1,0
362,47,467940,2,0,B|407:13,2,50
397,76,468123,2,0,B|442:105,1,50,0|8
461,142,468244,1,0
473,185,468305,1,0
474,230,468366,1,0
452,268,468426,6,0,B|482:312,2,50
409,284,468608,1,0
365,296,468669,2,0,B|310:296,3,50,8|0|0|0
273,314,468912,1,0
227,315,468973,1,0
182,308,469034,1,0
140,293,469094,1,0
97,276,469155,1,8
66,242,469216,1,0
47,201,469276,1,0
47,155,469337,1,0
70,116,469398,6,0,B|32:72,2,50
110,95,469580,2,0,B|167:80,1,50,0|8
204,80,469702,2,0,B|198:136,2,50
245,62,469884,2,0,B|292:88,3,50
333,79,470127,2,0,B|379:101,3,50,8|0|0|0
423,101,470370,6,0,B|443:160,7,50,0|0|0|0|8|0|0|0
438,192,470855,2,0,B|424:244,7,50,0|0|0|0|8|0|0|0
405,280,471341,6,0,B|355:304,1,50
318,322,471463,2,0,B|284:285,1,50
240,296,471584,2,0,B|201:336,1,50,8|0
162,349,471706,2,0,B|126:306,1,50
91,286,471827,2,0,B|116:228,3,50
86,201,472070,2,0,B|28:182,2,50,8|0|0
112,164,472252,2,0,B|121:111,1,50
147,77,472374,6,0,B|204:66,3,50,0|0|0|8
238,53,472617,2,0,B|279:13,2,50
273,81,472799,1,0
478,255,473163,6,0,B|432:274,3,50
397,303,473406,2,0,B|412:361,2,50,0|0|8
352,298,473588,2,0,B|303:302,1,50
266,330,473710,2,0,B|211:317,1,50
172,317,473831,2,0,B|160:368,2,50
133,293,474013,2,0,B|86:318,2,50,8|0|0
117,250,474195,2,0,B|120:201,1,50
211,44,474499,2,0,B|277:89|277:89|353:65,1,150,8|0
464,168,475106,5,0
444,208,475167,1,0
450,252,475228,2,0,B|440:300,3,50
399,320,475471,2,0,B|346:351,3,50,8|0|0|0
313,330,475714,2,0,B|280:286,3,50
240,304,475957,2,0,B|184:333|184:332,3,50,8|0|0|0
150,321,476200,2,0,B|150:373,2,50
106,307,476382,1,0
75,274,476442,2,0,B|47:230|47:230|79:183,1,100,8|0
180,26,476685,6,0,B|202:116|202:116|314:137,1,200,0|8
405,60,477050,5,0
424,99,477110,1,0
443,139,477171,2,0,B|468:188,3,50
456,227,477414,2,0,B|429:279|429:278,3,50,8|0|0|0
425,315,477657,2,0,B|367:336,3,50
333,324,477900,2,0,B|280:310,1,50,8|0
239,309,478021,2,0,B|146:356|146:356|48:308,1,200
48,144,478386,2,0,B|144:184|144:184|248:128,1,200
