osu file format v9

[General]
AudioFilename: Senbonzakura.mp3
AudioLeadIn: 500
PreviewTime: 57290
Countdown: 0
SampleSet: Normal
StackLeniency: 0.7
Mode: 0
LetterboxInBreaks: 0

[Editor]
DistanceSpacing: 2
BeatDivisor: 4
GridSize: 8

[Metadata]
Title:Senbonzakura (Short Ver.)
Artist:Hatsune Miku
Creator:NatsumeRin
Version:eveless
Source:Kurousa-P
Tags:vocaloid vocaloid2 eveless goodbye

[Difficulty]
HPDrainRate:6
CircleSize:4
OverallDifficulty:6
ApproachRate:7
SliderMultiplier:1.6
SliderTickRate:1

[Events]
//Background and Video events
0,0,"BG.jpg"
Video,0,"PV.flv"
//Break Periods
2,20575,30384
2,82912,92722
//Storyboard Layer 0 (Background)
//Storyboard Layer 1 (Fail)
//Storyboard Layer 2 (Pass)
//Storyboard Layer 3 (Foreground)
//Storyboard Sound Samples
//Background Colour Transformations
3,100,163,162,255

[TimingPoints]
1674,389.61038961039,4,1,1,80,1,0
6738,-100,4,2,1,60,0,0
7615,-100,4,1,1,70,0,0
7712,-100,4,1,1,60,0,0
7810,-100,4,1,1,50,0,0
7907,-100,4,2,2,70,0,0
8102,-100,4,2,1,70,0,0
14141,-100,4,2,2,70,0,0
31284,-100,4,1,1,60,0,0
32842,-100,4,2,2,70,0,0
33232,-100,4,2,1,70,0,0
38297,-100,4,1,1,70,0,0
39076,-100,4,2,2,75,0,0
39271,-100,4,2,1,70,0,0
45310,-100,4,2,2,70,0,0
50764,-133.333333333333,4,2,1,40,0,0
51154,-133.333333333333,4,2,1,30,0,0
51544,-100,4,2,2,70,0,0
57777,-100,4,2,2,80,0,1
57972,-100,4,2,1,80,0,1
62842,-100,4,2,2,80,0,1
63037,-100,4,2,1,80,0,1
64011,-100,4,2,2,80,0,1
64206,-100,4,2,1,80,0,1
68686,-100,4,2,2,80,0,1
70245,-100,4,2,1,80,0,1
76479,-100,4,2,2,80,0,1
76771,-100,4,2,1,80,0,1
79596,-100,4,2,2,80,0,1
81933,-100,4,2,2,65,0,1
82518,-100,4,2,2,58,0,1
82712,-100,4,2,2,50,0,0
93622,-100,4,1,1,50,0,0
95180,-100,4,2,1,50,0,0
100635,-100,4,1,1,50,0,0
101511,-100,4,2,1,65,0,0
106868,-100,4,1,1,65,0,0
107648,-100,4,2,2,65,0,0
108037,-100,4,2,1,65,0,0
112323,-100,4,2,2,65,0,0
112518,-100,4,2,1,65,0,0
113102,-100,4,2,2,65,0,0
113492,-100,4,2,1,65,0,0
113881,-100,4,2,2,75,0,0
114271,-100,4,2,1,75,0,0
116998,-100,4,2,2,75,0,0
120115,-100,4,2,2,75,0,1
145050,-100,4,2,2,60,0,0

[Colours]
Combo1 : 0,0,183
Combo2 : 153,153,0
Combo3 : 217,0,217
Combo4 : 162,0,0

[HitObjects]
304,88,1674,1,4
408,196,1966,1,2
304,88,2258,1,0
384,48,2453,5,0
320,177,2745,1,2
384,48,3037,1,0
447,114,3232,5,0
320,177,3524,1,2
384,48,3816,1,0
304,88,4011,2,0,B|394:104|407:200,1,160,0|2
257,243,4790,5,0
304,88,5083,1,2
257,243,5375,1,0
169,215,5570,5,0
329,186,5862,1,2
169,215,6154,1,0
149,130,6349,5,4
213,63,6738,1,2
304,88,7128,1,8
241,155,7518,1,2
241,155,7615,1,0
241,155,7712,1,0
241,155,7810,1,0
242,155,7907,6,0,B|221:244,1,80,4|2
102,310,8297,2,0,B|159:299|134:230,1,80,0|2
48,144,8686,2,0,B|15:192|81:223,1,80,0|2
302,222,9076,2,0,B|198:238,1,80,0|2
376,280,9466,6,0,B|464:264,1,80,0|2
368,88,9855,2,0,B|345:130|377:162,1,80,0|2
488,152,10245,5,2
368,88,10440,2,0,B|328:56,2,40,2|0|2
456,64,10829,1,2
211,134,11024,6,0,B|248:160|288:136,1,80,0|2
148,70,11414,1,0
120,154,11609,1,2
40,192,11803,6,0,B|19:147|56:104,1,80,0|2
120,154,12193,1,0
111,242,12388,1,2
85,326,12583,6,0,B|-3:366,1,80,0|2
168,360,12972,2,0,B|172:311|224:296,1,80,2|2
258,209,13362,2,0,B|302:234,1,40
319,213,13557,2,0,B|363:237,1,40,0|2
384,240,13751,2,0,B|373:293|312:304,1,80,2|2
472,240,14141,6,0,B|440:192|480:144,1,80,4|2
494,87,14531,1,0
494,87,14725,1,2
390,126,14920,6,0,B|342:138|302:86,1,80,0|2
416,47,15310,1,0
416,47,15505,1,2
304,96,15699,6,0,B|194:104,1,80,0|2
126,206,16089,2,0,B|158:172|222:182,1,80,2|0
256,272,16479,5,2
288,192,16674,2,0,B|343:175,2,40,2|0|2
340,293,17063,1,2
216,343,17258,5,4
288,192,17648,1,2
136,125,18037,1,4
64,276,18427,1,2
64,276,18622,1,4
175,235,18816,5,4
24,160,19011,2,0,B|48:112,2,40,2|0|2
136,125,19401,1,2
176,235,19596,2,0,B|246:259|296:200,1,120,2|0
284,194,19985,2,0,B|242:247|276:295,1,80,4|0
374,143,20375,5,4
272,104,31284,5,4
256,288,31576,1,2
208,160,31868,5,8
334,49,32063,2,0,B|367:79|363:145|312:169,1,120,2|0
336,171,32453,2,0,B|272:226|292:320,1,160,8|4
407,268,33232,5,8
171,345,33622,1,2
76,301,33816,1,0
163,243,34011,2,0,B|263:243,1,80,10|0
336,128,34401,5,0
72,208,34790,1,8
105,47,35083,1,0
105,47,35180,2,0,B|121:135,1,80,2|0
213,163,35570,2,0,B|204:109|253:75,1,80,8|2
295,213,35959,5,0
64,120,36349,1,8
136,256,36641,1,0
136,256,36738,2,0,B|128:160,1,80,2|0
322,127,37128,2,0,B|330:31,1,80,10|0
432,32,37518,5,4
360,256,37907,1,8
120,304,38297,5,2
192,80,38686,1,10
360,256,39076,6,0,B|326:194|232:216,1,120,4|0
239,222,39466,2,0,B|63:222,1,160,8|2
0,224,40050,1,0
75,161,40245,1,10
61,64,40440,1,0
233,43,40635,6,0,B|163:68|169:163,1,120
177,153,41024,2,0,B|134:243,1,80,8|0
160,344,41414,1,2
224,272,41609,1,0
184,344,41803,1,10
272,272,41998,1,0
210,344,42193,6,0,B|352:344,1,120,0|0
352,320,42583,2,0,B|376:256|429:232|506:257,1,160,8|2
455,346,43362,1,10
479,250,43751,5,2
360,168,44141,1,8
224,218,44531,1,2
87,174,44920,1,8
32,352,45310,6,0,B|137:349|140:236,1,160,4|8
8,112,46089,2,0,B|-28:204|50:269,1,160,0|8
139,256,46868,6,0,B|240:235,1,80
269,158,47258,2,0,B|355:146,1,80,8|0
474,46,47648,2,0,B|442:86|362:99|314:30,1,160,0|8
349,147,48427,6,0,B|297:232,1,80
202,331,48816,2,0,B|257:285|236:191|186:179,1,160,8|0
118,370,49596,1,8
30,351,49985,5,4
80,184,50375,1,8
54,266,50570,1,0
80,184,50764,2,0,B|119:63,1,119.999996423721,2|8
288,218,51544,6,0,B|207:252|208:370,1,160,4|8
402,148,52323,2,0,B|377:54|258:52,1,160,0|8
247,150,53102,6,0,B|295:230,1,80
294,325,53492,2,0,B|199:276,1,80,8|0
156,350,53881,2,0,B|100:286|4:334,1,160,0|8
9,331,54466,1,8
90,215,54661,6,0,B|42:140,1,80,0|4
448,40,55245,2,0,B|416:136,1,80,4|8
328,357,55829,1,8
247,216,56219,6,0,B|159:184|71:224,1,160,4|8
9,247,56803,1,8
264,136,57777,5,4
356,111,57972,2,0,B|404:183|348:239|300:247,1,160,2|0
204,354,58557,2,0,B|156:302|183:239|232:220,1,160,2|0
330,352,59336,5,0
456,352,59725,1,2
391,306,59920,2,0,B|309:306,1,80,0|2
59,306,60505,1,0
128,264,60699,1,2
120,184,60894,5,0
48,227,61089,2,0,B|15:151|64:99|129:94,1,160,2|0
368,200,61674,2,0,B|401:276|352:328|287:333,1,160,2|2
313,327,62258,1,2
488,336,62453,6,0,B|400:360,1,80,0|2
313,327,62842,2,0,B|224:360,1,80,4|10
150,309,63232,2,0,B|78:341|22:285|38:229,1,160,2|0
35,243,63816,1,2
120,224,64011,6,0,B|83:110,2,120,4|2|0
253,159,64790,2,0,B|297:235|413:207,1,160,2|2
392,211,65375,1,2
248,344,65570,6,0,B|328:280,1,80,0|2
145,307,65959,2,0,B|201:218,1,80,0|2
40,320,66349,2,0,B|71:168,1,120,0|2
73,173,66738,5,8
93,87,66933,1,2
240,48,67128,2,0,B|181:62|157:147|196:197,1,160,0|2
336,352,67907,2,0,B|367:300|324:223|261:215,1,160,0|2
215,289,68686,6,0,B|143:345,1,80,4|2
34,366,69076,2,0,B|82:334|66:278,1,80,4|2
33,224,69466,1,4
173,87,69855,1,2
241,135,70050,1,0
253,53,70245,6,0,B|299:109|264:181,1,120,4|2
266,189,70635,2,0,B|237:248|273:292,1,80,8|0
160,352,71024,2,0,B|136:264,1,80,2|0
112,195,71414,1,10
392,72,71803,6,0,B|352:152,1,80,0|2
432,208,72193,2,0,B|352:248,1,80,8|2
304,320,72583,2,0,B|248:288|168:328,1,120,2|0
160,328,72972,2,0,B|120:344|72:328,1,80,8|2
207,221,73362,6,0,B|207:149|275:129,1,120,2|0
284,136,73751,2,0,B|232:155|204:98,1,80,8|0
266,54,74141,1,2
304,220,74531,1,10
258,290,74725,1,0
177,311,74920,6,0,B|123:298|86:346,1,80,0|2
12,299,75310,1,8
12,299,75407,1,8
12,299,75505,1,8
12,299,75602,1,8
12,299,75699,2,0,B|58:275|40:203,1,80,8|0
27,106,76089,1,10
144,152,76284,1,2
264,111,76479,6,0,B|308:71|308:71|393:74,1,120,4|0
387,83,76868,2,0,B|479:87,1,80,10|0
344,168,77258,1,2
188,54,77648,1,10
250,131,77842,1,2
306,213,78037,6,0,B|260:235|274:301,1,80,0|2
311,342,78427,2,0,B|314:291|250:270,1,80,8|2
196,283,78816,2,0,B|238:311|288:266,1,80,2|0
119,251,79206,1,10
88,176,79401,1,2
97,101,79596,6,0,B|35:124|34:214|74:242,1,160,0|4
415,283,80375,2,0,B|477:260|478:170|438:142,1,160,0|4
256,192,81154,5,4
176,216,81349,1,0
176,297,81544,1,2
253,323,81738,1,0
311,260,81933,2,0,B|418:212|382:138|371:164|428:152,1,160,8|0
499,123,82518,1,8
470,38,82712,5,4
280,136,93622,5,4
394,67,93914,1,2
424,200,94206,1,0
344,224,94401,5,2
360,144,94596,1,0
424,200,94790,1,0
293,96,95180,6,0,B|165:96,1,120,4|0
146,74,95570,2,0,B|128:112|128:112|80:112,1,80,8|0
11,113,95959,1,2
56,184,96154,1,0
114,254,96349,2,0,B|37:221,1,80,10|2
156,330,96738,6,0,B|185:296|266:303|284:359,1,120
279,338,97128,2,0,B|359:338,1,80,8|0
455,336,97518,1,2
456,240,97712,2,0,B|456:192,2,40,2|0|0
458,112,98102,1,2
368,32,98297,6,0,B|388:104|328:144,1,120
313,148,98686,2,0,B|276:187|305:244,1,80,8|0
366,292,99076,1,2
366,292,99174,1,0
366,292,99271,1,2
209,267,99466,2,0,B|219:320|144:350,1,80,0|2
88,352,99855,5,4
168,144,100245,1,10
281,336,100635,1,2
376,136,101024,1,10
456,344,101414,6,0,B|439:272|376:256,1,120,4|0
366,255,101803,1,8
260,231,101998,1,0
105,326,102193,2,0,B|120:277|169:270,1,80,2|0
232,128,102583,2,0,B|227:89|178:74,1,80,2|0
29,117,102972,6,0,B|54:179|141:181,1,120
138,181,103362,1,8
232,128,103557,1,0
355,214,103751,2,0,B|315:182|347:134,1,80,2|0
450,274,104141,2,0,B|444:329|370:330,1,80,10|0
268,301,104531,6,0,B|196:273|140:325,1,120
136,324,104920,2,0,B|94:342|49:304,1,80,8|0
20,219,105310,1,2
20,219,105407,1,0
20,219,105505,1,2
35,134,105699,1,8
107,87,105894,1,2
194,92,106089,5,4
136,160,106479,1,10
48,144,106868,1,2
32,56,107258,1,10
107,87,107648,6,0,B|144:160|144:160|96:248,1,160,4|8
405,297,108427,2,0,B|368:224|368:224|416:136,1,160,0|8
376,24,109206,6,0,B|328:116,1,80
240,72,109596,2,0,B|248:160,1,80,8|0
146,159,109985,2,0,B|194:223|162:311,1,160,0|8
72,344,110764,6,0,B|64:290|105:257,1,80
280,168,111154,2,0,B|288:222|247:255,1,80,8|0
178,269,111544,1,0
371,149,111933,1,8
384,368,112323,5,4
341,300,112518,1,0
264,267,112712,1,8
178,269,112907,1,0
178,269,113005,1,0
178,269,113102,1,4
32,331,113297,2,0,B|79:340|114:311,1,80,0|8
114,41,113881,6,0,B|91:89|115:160|194:185,1,160,4|8
266,172,114466,1,0
440,185,114661,2,0,B|435:131|379:82|298:100,1,160,0|8
267,173,115245,1,0
280,264,115440,6,0,B|349:308,1,80
139,267,115829,2,0,B|208:311,1,80,8|0
0,280,116219,2,0,B|144:368,1,160,0|8
136,363,116803,1,0
72,189,116998,6,0,B|40:93,1,80,0|4
448,232,117583,2,0,B|402:322,1,80,4|8
270,55,118167,1,8
270,55,118557,5,4
280,137,118751,1,8
257,218,118946,1,8
187,264,119141,1,8
192,88,120115,5,4
112,56,120310,2,0,B|88:248,1,160,0|2
256,296,120894,2,0,B|280:104,1,160,0|2
288,48,121479,1,0
174,185,121674,6,0,B|184:232|230:257,1,80,0|2
192,89,122063,2,0,B|166:53|112:56,1,80,2|0
264,152,122453,2,0,B|356:194|428:114,1,160,0|2
447,58,123037,1,2
367,58,123232,5,0
291,82,123427,2,0,B|237:244,1,160,2|0
316,230,124011,2,0,B|194:343,1,160,2|2
166,259,124596,1,0
306,343,124790,6,0,B|410:335,1,80,4|0
166,259,125180,2,0,B|62:251,1,80,4|0
306,343,125570,2,0,B|464:328,1,160,4|2
418,261,126154,1,2
360,200,126349,6,0,B|333:137|246:149,1,120,4|2
246,156,126738,1,0
93,112,126933,2,0,B|160:170,1,80,2|0
125,340,127518,1,2
198,308,127712,1,0
342,276,127907,6,0,B|287:273|272:352,1,80,0|2
236,231,128297,2,0,B|222:177|259:140,1,80,0|2
229,66,128686,2,0,B|341:70|334:199,1,160,0|2
404,216,129271,1,0
432,304,129466,5,4
199,307,129855,1,2
314,106,130245,1,4
81,130,130635,1,2
81,130,131024,6,0,B|40:224,1,80,4|2
81,130,131414,2,0,B|21:64,1,80,4|2
81,130,131803,2,0,B|171:165|251:90,1,160,4|2
288,40,132388,1,0
392,192,132583,6,0,B|369:148|296:138|256:174,1,120,4|2
266,181,132972,2,0,B|334:106,1,80,0|2
400,40,133362,1,0
488,304,133751,1,2
408,336,133946,1,0
328,304,134141,6,0,B|232:328,1,80,0|2
403,247,134531,2,0,B|469:168,1,80,0|2
320,216,134920,2,0,B|232:96,1,120
231,94,135310,1,2
143,84,135505,1,0
127,173,135699,6,0,B|68:167|38:108|63:61,1,120,0|2
55,61,136089,1,0
15,140,136284,1,2
88,352,136479,2,0,B|31:343|16:238|80:208,1,160,0|2
184,280,137258,5,0
240,344,137453,1,2
208,180,137648,5,4
261,245,137842,1,0
227,89,138037,6,0,B|135:64|100:146|107:193,1,160,4|0
42,233,138622,1,2
40,104,138816,6,0,B|48:174|148:179,1,120,4|2
150,178,139206,2,0,B|198:167|229:210,1,80,0|2
382,310,139596,2,0,B|294:270|318:174,1,160,0|2
467,340,140375,5,0
451,252,140570,1,2
433,164,140764,1,2
380,235,140959,1,0
328,305,141154,2,0,B|290:331|229:312|229:242,1,120,2|0
221,253,141544,2,0,B|129:280,1,80,2|0
36,347,141933,5,4
60,119,142323,1,2
72,320,142712,1,4
192,64,143102,1,2
112,296,143492,5,4
144,208,143686,1,10
230,173,143881,1,2
322,187,144076,1,8
376,264,144271,2,0,B|384:352|288:376|264:336,1,160,2|8
205,262,145050,6,0,B|157:358,1,80,2|0
112,79,145635,2,0,B|72:168,1,80,0|2
320,184,146219,2,0,B|345:137,1,40,0|2
457,86,146511,2,0,B|477:46,1,40,0|2
418,155,146803,5,2
312,336,147193,1,0
384,304,147388,1,2
184,208,147777,1,2
184,208,147875,1,0
109,236,148070,1,0
109,236,148167,6,0,B|24:264,1,80,2|2
280,104,148751,2,0,B|195:132,2,80,2|0|2
408,56,149433,1,0
408,56,149531,1,2
360,168,149725,5,2
360,256,149920,2,0,B|392:296,2,40,2|0|4
292,316,150310,2,0,B|288:358,2,40,2|0|2
200,320,150699,1,2
120,288,150894,2,0,B|40:304,1,80,0|2
216,176,151284,5,4
