osu file format v9

[General]
AudioFilename: Senbonzakura.mp3
AudioLeadIn: 500
PreviewTime: 57290
Countdown: 0
SampleSet: Normal
StackLeniency: 0.7
Mode: 0
LetterboxInBreaks: 0

[Editor]
DistanceSpacing: 0.8
BeatDivisor: 4
GridSize: 8

[Metadata]
Title:Senbonzakura (Short Ver.)
Artist:Hatsune Miku
Creator:NatsumeRin
Version:Rin
Source:Kurousa-P
Tags:vocaloid vocaloid2 eveless goodbye

[Difficulty]
HPDrainRate:6
CircleSize:4
OverallDifficulty:8
ApproachRate:8
SliderMultiplier:2.24
SliderTickRate:1

[Events]
//Background and Video events
0,0,"BG.jpg"
Video,0,"PV.flv"
//Break Periods
2,82912,94430
//Storyboard Layer 0 (Background)
//Storyboard Layer 1 (Fail)
//Storyboard Layer 2 (Pass)
//Storyboard Layer 3 (Foreground)
//Storyboard Sound Samples
//Background Colour Transformations
3,100,163,162,255

[TimingPoints]
1674,389.61038961039,4,1,1,80,1,0
1966,-100,4,1,1,65,0,0
2453,-100,4,1,1,80,0,0
2745,-100,4,1,1,65,0,0
3232,-100,4,1,1,80,0,0
3524,-100,4,1,1,65,0,0
4011,-100,4,1,1,80,0,0
5083,-100,4,1,1,65,0,0
5570,-100,4,1,1,80,0,0
5862,-100,4,1,1,65,0,0
6349,-100,4,2,2,80,0,0
7907,-100,4,2,1,90,0,0
8297,-100,4,2,1,80,0,0
8686,-100,4,2,1,90,0,0
9076,-100,4,2,1,80,0,0
9466,-100,4,2,1,90,0,0
9855,-100,4,2,1,80,0,0
10245,-100,4,2,1,90,0,0
11414,-100,4,2,1,80,0,0
11803,-100,4,2,1,90,0,0
12193,-100,4,2,1,80,0,0
12583,-100,4,2,1,90,0,0
14531,-100,4,2,1,80,0,0
14920,-100,4,2,1,90,0,0
15310,-100,4,2,1,80,0,0
15699,-100,4,2,1,90,0,0
16089,-100,4,2,1,80,0,0
16479,-100,4,2,1,90,0,0
20764,-100,4,2,1,80,0,0
21154,-100,4,2,1,90,0,0
21544,-100,4,2,1,80,0,0
21933,-100,4,2,1,90,0,0
22323,-100,4,2,1,80,0,0
22712,-100,4,2,1,90,0,0
23881,-100,4,2,1,80,0,0
24271,-100,4,2,1,90,0,0
24661,-100,4,2,1,80,0,0
25050,-100,4,2,1,90,0,0
26998,-100,4,2,1,80,0,0
27388,-100,4,2,1,90,0,0
27777,-100,4,2,1,80,0,0
28167,-100,4,2,1,90,0,0
28557,-100,4,2,1,80,0,0
28946,-100,4,2,1,90,0,0
31284,-100,4,1,1,80,0,0
32842,-133.333333333333,4,2,2,90,0,0
50375,-133.333333333333,4,1,1,60,0,0
50472,-133.333333333333,4,1,1,50,0,0
50764,-133.333333333333,4,2,2,90,0,0
50959,-133.333333333333,4,1,1,50,0,0
51154,-133.333333333333,4,1,1,60,0,0
51251,-133.333333333333,4,1,1,40,0,0
51544,-133.333333333333,4,2,2,90,0,0
57339,-166.666666666667,4,2,2,90,0,0
57583,-133.333333333333,4,2,2,20,0,0
57777,-100,4,2,1,90,0,1
67420,-100,4,2,1,60,0,1
67518,-100,4,2,1,90,0,1
67810,-100,4,2,1,60,0,1
67907,-100,4,2,1,90,0,1
68199,-100,4,2,1,60,0,1
68297,-100,4,2,1,90,0,1
68589,-100,4,2,1,60,0,1
68686,-100,4,2,1,90,0,1
69661,-100,4,1,1,50,0,1
70050,-100,4,1,1,40,0,1
70148,-100,4,1,1,40,0,0
70245,-100,4,2,1,90,0,1
79888,-100,4,2,1,60,0,1
79985,-100,4,2,1,90,0,1
80277,-100,4,2,1,60,0,1
80375,-100,4,2,1,90,0,1
80667,-100,4,2,1,60,0,1
80764,-100,4,2,1,90,0,1
81057,-100,4,2,1,60,0,1
81154,-100,4,2,1,90,0,1
82712,-100,4,2,1,90,0,0
95180,-133.333333333333,4,2,2,90,0,0
112712,-133.333333333333,4,1,1,60,0,0
112810,-133.333333333333,4,1,1,50,0,0
113102,-133.333333333333,4,2,2,90,0,0
113297,-133.333333333333,4,1,1,50,0,0
113492,-133.333333333333,4,1,1,60,0,0
113589,-133.333333333333,4,1,1,40,0,0
113881,-133.333333333333,4,2,2,90,0,0
119628,-166.666666666667,4,2,2,90,0,0
119920,-166.666666666667,4,2,2,20,0,0
120115,-100,4,2,2,90,0,1
129758,-100,4,2,2,60,0,1
129855,-100,4,2,2,90,0,1
130148,-100,4,2,2,60,0,1
130245,-100,4,2,2,90,0,1
130537,-100,4,2,2,60,0,1
130635,-100,4,2,2,90,0,1
130927,-100,4,2,2,60,0,1
131024,-100,4,2,2,90,0,1
131998,-100,4,1,1,50,0,1
132388,-100,4,1,1,40,0,1
132485,-100,4,1,1,40,0,0
132583,-100,4,2,2,90,0,1
142225,-100,4,2,2,60,0,1
142323,-100,4,2,2,90,0,1
142615,-100,4,2,2,60,0,1
142712,-100,4,2,2,90,0,1
143005,-100,4,2,2,60,0,1
143102,-100,4,2,2,90,0,1
143394,-100,4,2,2,60,0,1
143492,-100,4,2,2,90,0,1
145050,-100,4,2,1,80,0,0

[Colours]
Combo1 : 0,0,183
Combo2 : 153,153,0
Combo3 : 217,0,217
Combo4 : 162,0,0

[HitObjects]
224,112,1674,1,4
256,216,1966,1,2
152,192,2258,1,0
256,88,2453,5,0
272,256,2745,1,2
120,192,3037,1,0
288,104,3232,5,0
232,272,3524,1,2
112,136,3816,1,0
192,72,4011,5,0
256,368,4401,1,2
328,304,4790,5,0
400,240,5083,1,2
312,208,5375,1,0
352,336,5570,5,0
432,216,5862,1,2
280,208,6154,1,0
384,352,6349,6,0,B|448:360|488:304,1,112,6|8
464,272,6641,1,2
440,240,6738,2,0,B|480:192|464:136,1,112,0|10
328,16,7128,2,0,B|400:16|432:72,1,112,0|10
360,256,7518,2,0,B|288:256|256:200,1,112,10|0
80,160,7907,6,0,B|144:160|184:112,1,112,2|8
160,248,8297,2,0,B|152:304,3,56,2|0|10|0
179,116,8686,6,0,B|240:128|288:88,1,112,2|8
232,256,9076,2,0,B|248:320,3,56,2|0|10|0
284,90,9466,6,0,B|344:112|400:88,1,112,2|8
296,232,9855,2,0,B|352:280,3,56,2|0|10|0
328,160,10245,6,0,B|400:152|448:224,1,112,4|8
428,198,10505,1,2
428,198,10570,1,2
428,198,10635,2,0,B|456:256|416:304,1,112,0|8
296,232,11024,6,0,B|232:224|200:160,1,112,2|8
72,232,11414,2,0,B|16:256,3,56,2|0|10|0
206,171,11803,6,0,B|184:112|232:64,1,112,2|8
64,160,12193,2,0,B|0:152,3,56,2|0|10|0
136,192,12583,5,2
280,136,12777,1,8
200,264,12972,1,2
192,112,13167,1,8
288,232,13362,1,2
312,264,13459,1,0
344,288,13557,1,10
384,296,13654,1,8
424,288,13751,2,0,B|464:240|432:176,1,112,0|8
376,96,14141,6,0,B|312:96|272:48,1,112,2|8
280,184,14531,2,0,B|320:240,3,56,2|0|10|0
276,52,14920,6,0,B|216:64|168:32,1,112,2|8
208,208,15310,2,0,B|216:264,3,56,2|0|10|0
169,32,15699,6,0,B|112:64|56:48,1,112,2|8
136,200,16089,2,0,B|112:264,3,56,2|0|10|0
176,120,16479,6,0,B|240:128|264:192,1,112,4|8
260,184,16738,1,2
260,184,16803,1,0
260,184,16868,2,0,B|272:248|344:272,1,112,0|8
456,296,17258,1,2
416,176,17453,5,8
384,152,17550,1,2
344,136,17648,1,0
144,136,17842,5,8
176,112,17939,1,2
216,96,18037,1,0
376,80,18232,5,8
344,56,18329,1,2
304,40,18427,1,0
264,32,18524,1,2
224,40,18622,1,10
184,56,18719,1,0
152,80,18816,2,0,B|112:128|136:184,1,112,4|0
140,190,19076,1,2
144,195,19141,1,2
148,200,19206,2,0,B|172:264|139:319,1,112,8|0
312,248,19596,6,0,B|280:192|320:136,1,112,2|8
352,112,19888,1,0
400,104,19985,2,0,B|432:160|392:216,1,112,0|8
216,256,20375,6,0,B|152:272|104:232,1,112,2|8
288,232,20764,2,0,B|344:240,3,56,2|0|10|0
168,216,21154,6,0,B|104:200|80:136,1,112,2|8
232,280,21544,2,0,B|256:352,3,56,2|0|10|0
144,160,21933,6,0,B|96:120|112:56,1,112,2|8
160,280,22323,2,0,B|120:352,3,56,2|0|10|0
256,208,22712,6,0,B|320:192|368:224,1,112,4|8
364,221,22972,1,2
364,221,23037,1,2
364,221,23102,2,0,B|415:255|479:239,1,112,0|8
312,24,23492,6,0,B|288:80|320:136,1,112,2|8
416,80,23881,2,0,B|472:72,3,56,2|0|10|0
272,96,24271,6,0,B|272:160|320:192,1,112,2|8
432,152,24661,2,0,B|496:160,3,56,2|0|10|0
256,176,25050,5,2
424,232,25245,1,8
328,88,25440,1,2
320,264,25635,1,8
432,128,25829,1,2
424,88,25927,1,0
400,56,26024,1,10
368,32,26122,1,8
328,24,26219,2,0,B|264:24|240:80,1,112,2|8
112,176,26609,6,0,B|176:176|208:232,1,112,2|8
96,312,26998,2,0,B|32:328,3,56,2|0|10|0
184,168,27388,6,0,B|240:200|248:256,1,112,2|8
80,240,27777,2,0,B|24:224,3,56,2|0|10|0
256,192,28167,6,0,B|288:240|264:304,1,112,2|8
112,176,28557,2,0,B|56:128,3,56,2|0|10|0
176,296,28946,6,0,B|216:344|296:336,1,112,4|8
283,336,29206,1,2
290,333,29271,1,2
297,331,29336,2,0,B|360:312|416:352,1,112,0|8
384,216,29725,5,2
424,200,29823,1,0
448,160,29920,1,10
440,112,30018,1,0
416,80,30115,5,2
400,120,30212,1,0
416,168,30310,1,10
456,192,30407,1,0
496,208,30505,6,0,B|520:144|472:96,1,112,0|10
344,72,30894,2,0,B|320:136|368:184,1,112,2|8
416,264,31284,5,2
96,264,31576,1,2
256,328,31868,1,0
256,200,32063,1,6
256,200,32842,6,0,B|400:160,1,125.999996244908,8|2
392,88,33232,2,0,B|248:128,1,125.999996244908,8|2
200,144,33622,1,0
160,256,33816,1,2
272,296,34011,1,8
312,184,34206,1,2
128,184,34401,6,0,B|8:232,1,125.999996244908,8|2
40,304,34790,2,0,B|160:256,1,125.999996244908,8|2
232,224,35180,1,0
360,296,35375,1,2
232,368,35570,1,8
360,296,35764,1,2
232,224,35959,6,0,B|288:96,1,125.999996244908,8|2
368,104,36349,2,0,B|312:232,1,125.999996244908,8|2
280,296,36738,1,0
184,144,36933,1,2
280,296,37128,1,10
184,144,37323,1,2
144,232,37518,5,10
320,216,37907,1,8
192,304,38297,1,10
272,136,38686,1,8
248,376,39076,6,0,B|392:344,1,125.999996244908,8|2
280,288,39466,2,0,B|424:256,1,125.999996244908,8|2
488,240,39855,1,0
424,136,40050,1,2
320,192,40245,1,8
384,296,40440,1,2
496,160,40635,6,0,B|480:16,1,125.999996244908,8|0
408,112,41024,2,0,B|400:16,1,83.999997496605,8|2
416,224,41414,1,0
240,176,41609,1,2
304,88,41803,1,8
312,264,41998,1,2
216,320,42193,6,0,B|88:344,1,125.999996244908,8|2
120,256,42583,2,0,B|0:280,1,83.999997496605,8|2
192,192,42972,1,0
280,208,43167,1,2
368,184,43362,1,8
416,112,43557,1,2
424,24,43751,5,10
448,112,44141,1,8
432,208,44531,1,10
360,280,44920,1,8
256,304,45310,6,0,B|128:272,1,125.999996244908,8|2
96,264,45699,1,8
32,160,45894,1,2
32,160,45992,1,0
32,160,46089,2,0,B|120:136,1,83.999997496605,8|2
184,40,46479,2,0,B|280:56,1,83.999997496605,10|0
376,32,46868,5,8
464,104,47063,2,0,B|480:144,2,41.9999987483025,0|2|8
360,144,47453,1,2
416,240,47648,1,8
416,240,47745,1,2
352,320,47940,1,0
352,320,48037,1,10
256,352,48232,1,0
256,352,48329,1,0
256,352,48427,6,0,B|152:320,1,83.999997496605,8|2
144,160,48816,2,0,B|248:192,1,83.999997496605,10|0
96,256,49206,1,10
272,96,49498,1,2
272,96,49596,1,8
368,40,49790,1,0
464,88,49985,6,0,B|448:184,1,83.999997496605,8|0
432,288,50375,1,8
408,296,50472,1,8
384,304,50570,1,0
360,312,50667,1,0
336,320,50764,6,0,B|352:224,1,83.999997496605,8|0
345,203,51057,1,0
326,174,51154,1,8
297,156,51251,1,0
263,150,51349,1,0
230,159,51446,1,0
208,184,51544,6,0,B|104:216,1,83.999997496605,8|2
48,280,51933,1,8
104,368,52128,1,2
104,368,52225,1,2
104,368,52323,2,0,B|208:336,1,83.999997496605,8|2
312,344,52712,2,0,B|352:256,1,83.999997496605,10|0
472,288,53102,5,8
488,160,53297,1,0
472,128,53394,1,2
456,96,53492,2,0,B|368:72,1,83.999997496605,8|2
240,32,53881,2,0,B|248:72,1,41.9999987483025,10|0
192,280,54174,2,0,B|184:240,1,41.9999987483025,2|8
160,152,54466,1,2
264,176,54661,5,10
80,224,54855,1,10
80,224,55245,1,10
192,280,55440,1,0
264,176,55635,1,2
264,176,55732,1,2
264,176,55829,2,0,B|368:176,1,83.999997496605,8|0
424,144,56219,5,2
344,256,56414,1,0
232,176,56609,1,2
312,64,56803,1,2
312,64,57339,6,0,B|280:32|232:40,1,84.0000020027161
144,160,57777,6,0,B|168:208|128:288|64:296,1,168,12|2
32,304,58167,1,8
176,352,58362,1,2
216,336,58459,1,0
256,328,58557,2,0,B|312:320|368:352,2,112,8|2|8
184,224,59141,1,2
320,216,59336,5,10
136,152,59531,1,0
248,312,59725,1,10
256,120,59920,1,0
136,272,60115,2,0,B|192:280|248:248|264:184,1,168,10|2
322,147,60505,2,0,B|370:123|434:139,1,112,8|2
376,296,60894,6,0,B|328:320|256:320|200:296,1,168,8|2
168,280,61284,1,8
88,184,61479,1,2
88,184,61576,1,0
88,184,61674,1,8
144,80,61868,1,2
144,80,61966,1,0
144,80,62063,1,8
248,48,62258,1,0
352,56,62453,5,10
296,144,62648,1,0
280,248,62842,1,10
320,344,63037,1,2
320,344,63232,2,0,B|384:368,1,56,8|0
488,240,63524,2,0,B|424:216,1,56,2|8
368,128,63816,1,2
320,232,64011,6,0,B|312:288|232:336|168:312,1,168,12|2
152,312,64401,1,8
200,176,64596,1,2
336,160,64790,2,0,B|416:200,2,56,8|0|2
224,104,65180,1,10
240,240,65375,5,0
240,240,65472,1,0
240,240,65570,1,10
152,120,65764,1,0
296,96,65959,1,10
232,152,66154,1,0
72,88,66349,2,0,B|24:120|16:200|56:240,1,168,10|2
40,304,66738,2,0,B|80:352|144:336,1,112,8|2
264,344,67128,6,0,B|432:280,1,168,10|0
448,192,67518,2,0,B|280:256,1,168,10|0
192,208,67907,2,0,B|360:144,1,168,10|0
376,56,68297,2,0,B|208:120,1,168,10|0
160,64,68686,5,10
296,128,68881,1,0
248,264,69076,1,10
384,328,69271,1,0
496,232,69466,2,0,B|520:168|480:120,1,112,8|0
463,98,69758,1,0
436,78,69855,1,8
402,72,69953,1,0
369,78,70050,1,0
342,98,70148,1,0
320,128,70245,6,0,B|296:184|208:200|160:160,1,168,8|2
136,144,70635,1,8
224,56,70829,1,2
104,16,71024,1,8
104,16,71122,1,2
16,104,71316,1,2
16,104,71414,1,8
48,232,71609,1,2
136,144,71803,5,10
224,272,71998,1,0
72,288,72193,1,10
152,328,72388,1,0
288,208,72583,2,0,B|328:168|416:168|456:208,1,168,10|2
480,224,72972,1,8
376,320,73167,1,2
248,264,73362,6,0,B|192:304|72:280|40:216,1,224,10|8
120,136,73946,1,2
216,64,74141,2,0,B|248:112|232:176,1,112,10|0
224,216,74433,1,0
200,256,74531,1,8
96,312,74725,1,2
192,368,74920,5,10
312,352,75115,1,0
408,288,75310,1,10
448,184,75505,1,0
448,184,75699,2,0,B|320:88,1,112,8|0
328,96,75992,1,2
296,72,76089,2,0,B|232:48|184:88,1,112,10|0
264,224,76479,6,0,B|208:240|128:208|120:152,1,168,12|2
112,120,76868,1,8
32,224,77063,1,2
40,256,77161,1,0
48,288,77258,1,8
152,280,77453,1,2
160,312,77551,1,0
168,344,77648,1,8
272,336,77842,1,2
320,248,78037,5,10
496,240,78232,1,0
368,328,78427,1,10
224,256,78622,1,0
352,168,78816,2,0,B|296:176|232:144|232:80,1,168,10|2
168,120,79206,2,0,B|112:136|56:104,1,112,8|2
128,32,79596,6,0,B|104:232,1,168,10|0
232,104,79985,2,8,B|144:280,1,168,10|0
328,192,80375,2,0,B|185:327,1,168,10|0
400,304,80764,2,0,B|219:382,1,168,10|0
168,376,81154,5,10
64,256,81349,1,0
192,304,81544,1,10
320,272,81738,1,0
392,160,81933,2,0,B|440:112|416:56|416:56|352:32|304:80,2,224,10|8|4
80,112,95180,6,0,B|120:272,1,125.999996244908,10|2
184,224,95570,2,0,B|192:272|152:320|88:304,1,125.999996244908,8|2
48,272,95959,1,0
136,160,96154,1,2
232,288,96349,1,8
296,144,96544,1,2
416,256,96738,6,0,B|440:112,1,125.999996244908,10|2
488,72,97128,2,0,B|456:40|384:48|368:96,1,125.999996244908,8|2
360,152,97518,1,0
440,288,97712,1,2
304,368,97907,1,8
440,288,98102,1,2
288,248,98297,6,0,B|112:200,1,167.99999499321,10|10
288,96,98979,1,2
288,96,99076,2,0,B|336:88|368:120,1,83.999997496605,0|2
184,104,99466,2,0,B|136:112|104:80,1,83.999997496605,10|0
312,48,99855,5,10
384,96,100245,1,8
432,168,100635,1,10
448,248,101024,1,8
432,328,101414,6,0,B|256:376,1,167.99999499321,10|10
80,272,102096,1,2
80,272,102193,2,0,B|120:240|176:264,1,83.999997496605,0|2
136,144,102583,2,0,B|184:136|224:168,1,83.999997496605,8|2
232,40,102972,6,0,B|352:160,1,167.99999499321,10|10
280,352,103654,1,2
280,352,103751,2,0,B|232:360|200:312,1,83.999997496605,0|2
408,240,104141,2,0,B|416:288|376:320,1,83.999997496605,10|0
304,240,104531,6,0,B|120:240,1,167.99999499321,10|10
376,112,105212,1,2
376,112,105310,2,0,B|344:80|296:88,1,83.999997496605,0|2
72,88,105699,2,0,B|104:56|152:64,1,83.999997496605,8|2
232,40,106089,5,10
224,112,106479,1,8
216,184,106868,1,10
208,256,107258,1,8
200,328,107648,6,0,B|80:368,1,125.999996244908,10|2
40,352,108037,1,8
8,232,108232,1,2
24,200,108329,1,0
40,168,108427,2,0,B|136:136,1,83.999997496605,8|2
280,192,108816,2,0,B|184:224,1,83.999997496605,10|0
264,56,109206,5,8
384,120,109401,1,2
416,136,109498,1,0
448,152,109596,2,0,B|480:240,1,83.999997496605,8|2
416,336,109985,1,8
416,336,110083,1,2
328,256,110277,1,0
328,256,110375,1,10
216,304,110570,1,2
216,304,110667,1,0
216,304,110764,6,0,B|120:304,1,83.999997496605,8|0
80,200,111154,1,10
168,120,111349,1,0
272,176,111544,2,0,B|312:320,1,125.999996244908,10|2
320,336,111933,1,8
424,368,112128,1,2
472,272,112323,6,0,B|440:168,1,83.999997496605,8|0
472,64,112712,1,8
440,80,112810,1,8
408,96,112907,1,0
376,112,113005,1,0
344,128,113102,6,0,B|256:96,1,83.999997496605,8|0
241,89,113394,1,0
216,84,113492,1,8
191,88,113589,1,0
169,101,113686,1,0
154,122,113784,1,0
152,144,113881,6,0,B|168:248,1,83.999997496605,8|2
208,344,114271,2,0,B|168:368|128:344,1,83.999997496605,8|0
80,232,114661,1,10
240,176,114855,1,0
264,208,114953,1,2
288,240,115050,2,0,B|344:320,1,83.999997496605,8|2
448,336,115440,5,8
504,240,115635,1,2
432,160,115829,1,8
328,200,116024,1,0
336,312,116219,1,10
344,88,116511,1,2
344,88,116609,2,0,B|240:112,1,83.999997496605,8|2
192,40,116998,5,10
240,192,117193,1,10
240,192,117583,1,10
152,136,117777,1,0
192,40,117972,1,2
192,40,118070,1,2
192,40,118167,2,0,B|144:24|104:48,1,83.999997496605,8|0
56,120,118557,5,2
200,144,118751,1,0
110,44,118946,1,2
96,200,119141,1,2
96,200,119677,6,0,B|136:176|128:120,1,84.0000020027161
144,168,120115,6,0,B|120:216|160:296|224:304,1,168,12|2
256,312,120505,1,8
368,264,120700,1,2
384,216,120797,1,0
360,176,120895,2,0,B|296:168|248:200,2,112,8|2|8
472,200,121479,1,2
400,264,121674,5,10
432,104,121869,1,0
288,160,122063,1,10
336,312,122258,1,0
368,176,122453,2,0,B|328:144|232:152|216:200,1,168,10|2
200,232,122843,2,0,B|160:288|88:280,1,112,8|2
256,328,123232,6,0,B|304:352|376:352|432:328,1,168,8|2
456,312,123622,1,8
488,192,123817,1,2
488,192,123914,1,0
488,192,124012,1,8
408,96,124206,1,2
408,96,124304,1,0
408,96,124401,1,8
288,56,124596,1,0
160,56,124791,5,10
216,144,124986,1,0
232,248,125180,1,10
192,344,125375,1,2
192,344,125570,2,0,B|128:368,1,56,8|0
24,240,125862,2,0,B|88:216,1,56,2|8
144,128,126154,1,2
192,232,126349,6,0,B|200:288|280:336|344:312,1,168,12|2
360,312,126739,1,8
312,176,126934,1,2
176,160,127128,2,0,B|96:152,2,56,8|0|2
288,104,127518,1,10
272,240,127713,5,0
272,240,127810,1,0
272,240,127908,1,10
360,120,128102,1,0
216,168,128297,1,10
360,216,128492,1,0
272,96,128687,2,0,B|224:56|136:80|128:144,1,168,10|2
104,200,129076,2,0,B|88:264|144:304,1,112,8|2
360,288,129466,6,0,B|192:352,1,168,10|0
216,264,129856,2,0,B|384:200,1,168,10|0
384,120,130245,2,0,B|227:179,1,168,10|0
240,96,130635,2,0,B|396:36,1,168,10|0
464,64,131024,5,10
368,160,131219,1,0
272,64,131414,1,10
232,192,131609,1,0
120,128,131804,2,0,B|88:152|80:208|112:240,1,112,8|0
127,252,132096,1,0
159,261,132193,1,8
192,261,132291,1,0
223,250,132388,1,0
246,225,132486,1,0
256,192,132583,6,0,B|280:144|368:128|416:176,1,168,8|2
440,192,132973,1,8
352,296,133167,1,2
224,256,133362,1,8
224,256,133460,1,2
200,120,133654,1,2
200,120,133752,1,8
288,16,133947,1,2
144,56,134141,5,10
264,160,134336,1,0
216,24,134531,1,10
120,128,134726,1,0
208,224,134921,2,0,B|240:256|328:256|368:208,1,168,10|2
392,184,135310,1,8
280,112,135505,1,2
384,288,135700,6,0,B|336:336|216:336|168:288,1,224,10|8
104,184,136284,1,2
208,104,136479,1,10
208,104,136576,2,0,B|264:128|264:200,1,112
256,264,136868,2,0,B|240:320|168:336,1,112,8|2
72,272,137258,5,10
168,232,137453,1,0
272,224,137648,1,10
376,240,137843,1,0
376,240,138037,2,0,B|448:136,1,112,8|0
464,112,138330,1,2
488,72,138427,2,0,B|424:48|376:88,1,112,10|0
184,208,138817,6,0,B|240:224|320:192|328:136,1,168,12|2
336,104,139206,1,8
224,48,139401,1,2
216,80,139499,1,0
208,112,139596,1,8
88,120,139791,1,2
80,152,139889,1,0
72,184,139986,1,8
112,304,140180,1,2
192,216,140375,5,10
48,256,140570,1,0
152,360,140765,1,10
109,194,140960,1,0
72,336,141154,2,0,B|104:368|200:368|232:320,1,168,10|2
296,296,141544,2,0,B|344:256|408:280,1,112,8|2
360,360,141934,6,0,B|328:168,1,168,10|0
216,312,142323,2,0,B|284:129,1,168,10|0
112,200,142712,2,0,B|262:76,1,168,10|0
88,48,143102,2,0,B|280:16,1,168,10|0
312,72,143492,5,10
192,152,143687,1,0
344,152,143882,1,10
224,72,144076,1,0
400,72,144271,2,0,B|465:54|502:103|502:103|464:160|504:208,2,224,10|8|6
376,80,145245,5,2
352,88,145440,1,2
328,96,145635,1,0
304,104,145829,1,2
280,112,146024,1,2
256,120,146219,5,2
248,160,146316,1,0
240,200,146414,1,0
96,152,146609,5,2
120,160,146804,1,2
144,168,146999,1,0
168,176,147193,1,2
192,184,147388,1,2
216,192,147583,1,2
240,200,147777,5,2
256,240,147875,1,0
272,280,147972,1,0
416,232,148167,5,2
392,240,148362,1,0
368,248,148557,1,2
344,256,148751,1,0
320,264,148946,1,2
296,272,149141,1,2
272,280,149336,5,2
248,320,149433,1,0
224,360,149531,1,0
80,312,149725,6,0,B|144:336|184:288,1,112,0|2
206,251,150018,1,0
214,207,150115,1,2
196,165,150212,1,0
159,138,150310,1,2
144,95,150407,1,2
160,53,150505,2,0,B|124:23,3,37.3333333333333,0|2|2|0
202,41,150797,5,2
244,56,150894,1,2
260,97,150992,1,0
256,141,151089,1,2
227,175,151186,1,0
183,186,151284,1,4
