osu file format v9

[General]
AudioFilename: Senbonzakura.mp3
AudioLeadIn: 500
PreviewTime: 57290
Countdown: 0
SampleSet: Soft
StackLeniency: 0.7
Mode: 0
LetterboxInBreaks: 0

[Editor]
DistanceSpacing: 1.2
BeatDivisor: 2
GridSize: 8

[Metadata]
Title:Senbonzakura (Short Ver.)
Artist:Hatsune Miku
Creator:NatsumeRin
Version:Normal
Source:Kurousa-P
Tags:vocaloid vocaloid2 eveless goodbye

[Difficulty]
HPDrainRate:3
CircleSize:3
OverallDifficulty:3
ApproachRate:5
SliderMultiplier:1.28
SliderTickRate:1

[Events]
//Background and Video events
0,0,"BG.jpg"
Video,0,"PV.flv"
//Break Periods
2,82912,93980
//Storyboard Layer 0 (Background)
//Storyboard Layer 1 (Fail)
//Storyboard Layer 2 (Pass)
//Storyboard Layer 3 (Foreground)
//Storyboard Sound Samples
//Background Colour Transformations
3,100,163,162,255

[TimingPoints]
1674,389.61038961039,4,1,1,80,1,0
1966,-100,4,1,1,65,0,0
2453,-100,4,1,1,80,0,0
2745,-100,4,1,1,65,0,0
3232,-100,4,1,1,80,0,0
3524,-100,4,1,1,65,0,0
4011,-100,4,1,1,80,0,0
5083,-100,4,1,1,65,0,0
5570,-100,4,1,1,80,0,0
5862,-100,4,1,1,65,0,0
6349,-100,4,2,2,80,0,0
7907,-100,4,2,1,90,0,0
8297,-100,4,2,1,80,0,0
8686,-100,4,2,1,90,0,0
9076,-100,4,2,1,80,0,0
9466,-100,4,2,1,90,0,0
9855,-100,4,2,1,80,0,0
10245,-100,4,2,1,90,0,0
11414,-100,4,2,1,80,0,0
11803,-100,4,2,1,90,0,0
12193,-100,4,2,1,80,0,0
12583,-100,4,2,1,90,0,0
14531,-100,4,2,1,80,0,0
14920,-100,4,2,1,90,0,0
15310,-100,4,2,1,80,0,0
15699,-100,4,2,1,90,0,0
16089,-100,4,2,1,80,0,0
16479,-100,4,2,1,90,0,0
20764,-100,4,2,1,80,0,0
21154,-100,4,2,1,90,0,0
21544,-100,4,2,1,80,0,0
21933,-100,4,2,1,90,0,0
22323,-100,4,2,1,80,0,0
22712,-100,4,2,1,90,0,0
23881,-100,4,2,1,80,0,0
24271,-100,4,2,1,90,0,0
24661,-100,4,2,1,80,0,0
25050,-100,4,2,1,90,0,0
26998,-100,4,2,1,80,0,0
27388,-100,4,2,1,90,0,0
27777,-100,4,2,1,80,0,0
28167,-100,4,2,1,90,0,0
28557,-100,4,2,1,80,0,0
28946,-100,4,2,1,90,0,0
31284,-100,4,1,1,80,0,0
32842,-100,4,2,2,90,0,0
50764,-100,4,1,1,75,0,0
50959,-100,4,1,1,60,0,0
51154,-100,4,1,1,75,0,0
51349,-100,4,1,1,65,0,0
51544,-100,4,2,2,90,0,0
57339,-100,4,2,2,90,0,0
57583,-100,4,2,2,40,0,0
57777,-100,4,2,1,90,0,1
70050,-100,4,2,1,40,0,1
70148,-100,4,1,1,20,0,0
70245,-100,4,2,1,90,0,1
82712,-100,4,2,1,90,0,0
95180,-100,4,2,2,90,0,0
113492,-100,4,1,1,75,0,0
113881,-100,4,2,2,90,0,0
119628,-100,4,2,2,90,0,0
119920,-100,4,2,2,40,0,0
120115,-100,4,2,2,90,0,1
132388,-100,4,2,1,40,0,1
132485,-100,4,1,1,20,0,0
132583,-100,4,2,2,90,0,1
145050,-100,4,2,1,80,0,0

[Colours]
Combo1 : 0,0,183
Combo2 : 153,153,0
Combo3 : 217,0,217
Combo4 : 162,0,0

[HitObjects]
64,168,1674,2,0,B|32:216|56:272,2,96,0|2|0
128,216,2453,2,0,B|128:280|176:304,2,96,0|2|0
208,224,3232,2,0,B|240:272|304:264,2,96,0|2|0
272,176,4011,1,0
400,80,4401,1,2
488,208,4790,6,0,B|504:264|464:312,2,96,0|2|0
432,152,5570,2,0,B|368:136|320:192,2,96,0|2|0
412,228,6349,1,4
312,344,6738,1,2
160,328,7128,1,0
96,192,7518,1,2
128,40,7907,6,0,B|176:40|224:72|232:120,1,128,0|2
328,224,8686,2,0,B|312:264|256:288|208:272,1,128,0|2
72,312,9466,2,0,B|40:280|48:216|96:176,1,128,0|2
216,128,10245,2,0,B|368:128,1,128,4|0
424,128,10829,1,0
472,192,11024,6,0,B|496:232|480:288|440:312,1,128,0|2
296,336,11803,2,0,B|272:296|288:240|328:216,1,128,0|2
432,112,12583,2,0,B|288:112,1,128,0|2
224,112,13167,1,0
160,160,13362,2,0,B|144:208|80:232|32:208,1,128,2|0
144,80,14141,6,0,B|160:32|224:8|272:40,1,128,0|2
384,96,14920,2,0,B|416:136|408:200|360:232,1,128,0|2
248,288,15699,2,0,B|200:296|144:264|144:200,1,128,0|2
288,160,16479,2,0,B|440:160,1,128,4|0
352,304,17258,5,0
216,368,17648,1,2
152,232,18037,1,0
288,160,18427,1,2
344,16,18816,2,0,B|392:16|432:48|440:96,2,128,2|0|4
176,272,20375,6,0,B|120:312|40:288,1,128,0|2
96,144,21154,2,0,B|88:72|144:24,1,128,0|2
256,128,21933,2,0,B|320:152|336:224,1,128,0|2
256,352,22712,1,4
408,352,23102,1,0
408,352,23297,1,0
408,352,23492,6,0,B|464:320|464:240,1,128,0|2
360,128,24271,2,0,B|304:160|304:240,1,128,0|2
440,160,25050,1,0
336,48,25440,2,0,B|256:88,1,64,2|0
240,144,25829,2,0,B|240:192|208:240|152:248,1,128,2|0
40,160,26609,6,0,B|40:112|72:64|128:56,1,128,0|2
264,56,27388,2,0,B|304:40|368:48|400:88,1,128,0|2
448,216,28167,2,0,B|488:240|504:304|480:344,1,128,0|2
336,304,28946,2,0,B|192:304,1,128,4|0
64,352,29725,5,0
160,232,30115,1,2
304,176,30505,1,0
456,192,30894,1,2
392,56,31284,2,0,B|352:16|288:24,2,96
448,112,32063,1,0
248,344,32842,6,0,B|96:344,1,128,8|8
184,200,33622,1,8
64,104,34011,1,8
120,56,34206,1,0
192,40,34401,6,0,B|344:72,1,128,8|8
400,192,35180,1,8
328,328,35570,1,8
264,288,35764,1,0
240,216,35959,6,0,B|96:184,1,128,8|8
216,72,36738,2,0,B|128:56,2,64,8|0|8
368,104,37518,5,8
400,256,37907,1,8
288,360,38297,1,8
152,296,38686,1,8
136,144,39076,6,0,B|248:48,2,128,8|8|8
264,232,40245,1,8
336,200,40440,1,0
416,208,40635,6,0,B|488:320,2,128,8|8|8
312,96,41803,1,8
240,80,41998,1,0
176,120,42193,6,0,B|104:232,1,128,8|8
192,352,42972,2,0,B|264:240,1,128,8|8
176,120,43751,5,10
312,48,44141,1,8
424,152,44531,1,10
344,280,44920,1,8
192,248,45310,6,0,B|168:288|112:304|56:288,1,128,12|8
104,144,46089,2,0,B|128:104|184:88|240:104,1,128,8|8
272,240,46868,5,8
416,184,47258,2,0,B|496:184,2,64,8|0|8
368,40,48037,1,8
232,104,48427,6,0,B|176:144|88:112,1,128,8|8
40,80,49011,1,0
40,160,49206,1,8
112,296,49596,1,8
256,248,49985,6,0,B|408:248,1,128,8|8
488,136,50764,2,0,B|424:96,3,64,0|0|8|0
368,64,51544,6,0,B|312:104|240:80,1,128,8|8
104,136,52323,2,0,B|40:160|32:232,1,128,8|8
184,264,53102,5,8
336,240,53492,2,0,B|424:240,2,64,8|0|8
240,120,54271,1,8
392,96,54661,5,8
392,96,54855,1,8
488,216,55245,1,8
456,288,55440,2,0,B|408:336|336:312,1,128,0|8
208,224,56219,6,0,B|160:176|88:192,1,128,2|2
16,216,56803,1,2
144,48,57339,6,0,B|232:80,1,80
296,96,57777,6,0,B|360:72|424:104,1,128,8|8
488,240,58557,2,0,B|424:264|360:232,1,128,8|8
240,152,59336,1,8
144,272,59725,2,0,B|88:344,2,64,8|0|8
168,120,60505,1,8
288,216,60894,6,0,B|344:248|416:224,1,128,8|8
480,88,61674,2,0,B|424:56|352:80,1,128,8|8
224,160,62453,1,8
264,304,62842,1,8
200,344,63037,1,0
128,360,63232,2,0,B|56:368|16:304,1,128,8|8
48,160,64011,5,8
160,56,64401,1,8
312,40,64790,2,0,B|384:48|416:112,1,128,8|8
392,264,65570,1,8
240,248,65959,1,8
168,112,66349,1,8
80,240,66738,1,8
136,296,66933,1,0
208,320,67128,6,0,B|280:336|336:280,1,128,8|8
344,136,67907,2,0,B|272:120|216:176,1,128,8|8
136,296,68686,1,8
152,144,69076,2,0,B|88:144,2,64,8|0|8
296,80,69855,2,0,B|384:80,1,64,8|0
440,80,70245,6,0,B|480:144|440:208,1,128,8|8
336,304,71024,1,8
288,160,71414,1,8
176,264,71803,2,0,B|120:304|48:272,1,128,8|8
24,200,72388,1,0
72,136,72583,1,8
216,192,72972,1,8
272,48,73362,6,0,B|336:80|400:56,1,128,8|8
504,168,74141,1,8
352,208,74531,1,8
224,128,74920,2,0,B|144:128,2,64,8|0|8
376,128,75699,1,8
248,208,76089,1,8
320,344,76479,6,0,B|256:384|192:352,1,128,8|8
64,288,77258,2,0,B|136:296|184:232,1,128,8|8
72,128,78037,1,8
200,40,78427,2,0,B|280:88,1,64,8|0
328,104,78816,2,0,B|400:88|456:136,1,128,8|8
480,280,79596,5,8
360,368,79985,1,8
216,320,80375,1,8
200,168,80764,1,8
112,40,81154,2,0,B|56:80,1,64,8|0
48,152,81544,2,0,B|16:216|64:272,2,128,8|8|8
48,152,82712,5,4
24,144,95180,5,8
88,280,95570,1,8
240,248,95959,2,0,B|400:248,1,128,8|8
440,216,96544,1,0
472,144,96738,5,8
360,40,97128,1,8
216,104,97518,2,0,B|152:240,1,128,8|8
176,296,98102,1,0
240,344,98297,5,8
392,344,98686,1,8
472,216,99076,2,0,B|432:136,3,64,8|0|8|0
408,88,99855,5,8
264,32,100245,1,8
112,64,100635,1,8
32,192,101024,1,8
56,344,101414,6,0,B|224:368,1,128,8|8
328,312,102193,1,8
264,168,102583,1,8
328,120,102777,1,0
408,128,102972,6,0,B|504:224,1,128,8|8
408,344,103751,1,8
296,240,104141,1,8
232,288,104336,1,0
152,296,104531,6,0,B|32:216,1,128,8|8
144,104,105310,2,0,B|264:184,1,128,8|8
184,40,106089,5,10
336,72,106479,1,8
456,168,106868,1,10
488,320,107258,1,8
384,208,107648,6,0,B|312:184|256:224,1,128,12|8
160,336,108427,2,0,B|88:352|40:304,1,128,8|8
16,152,109206,5,8
104,24,109596,1,8
160,80,109790,1,0
232,112,109985,2,0,B|296:136|360:96,1,128,8|8
480,184,110764,6,0,B|408:184|376:248,1,128,8|8
352,320,111349,1,0
288,368,111544,2,0,B|224:392|160:352,1,128,8|8
80,224,112323,5,8
176,104,112712,2,0,B|128:48,2,64,8|0|8
320,40,113492,2,0,B|344:112,1,64,8|0
408,136,113881,6,0,B|456:192|432:272,1,128,8|8
304,336,114661,2,0,B|256:280|280:200,1,128,8|8
312,144,115245,1,0
280,72,115440,5,8
200,200,115829,1,8
352,216,116219,1,8
200,200,116609,2,0,B|128:240,1,64,8|0
72,264,116998,5,8
72,264,117193,1,8
40,112,117583,1,8
112,80,117777,2,0,B|176:48|240:72,1,128,0|8
272,216,118557,6,0,B|344:232|400:184,1,128,2|2
448,136,119141,1,2
392,336,119677,6,0,B|304:360,1,80
240,328,120115,6,0,B|176:352|112:304,1,128,8|8
80,160,120894,2,0,B|144:136|208:184,1,128,8|8
312,288,121674,1,8
448,216,122063,1,8
416,144,122258,1,0
448,72,122453,2,0,B|392:32|312:56,1,128,8|8
200,144,123232,6,0,B|144:176|72:160,2,128,8|8|8
336,208,124401,1,8
216,296,124790,1,8
80,232,125180,2,0,B|32:288,2,64,8|0|8
104,80,125959,1,8
104,80,126349,6,0,B|176:96|232:48,1,128,12|8
376,96,127128,2,0,B|448:88|504:144,1,128,8|8
392,248,127907,1,8
256,312,128297,1,8
152,200,128686,1,8
232,72,129076,2,0,B|160:48,1,64,8|0
96,72,129466,6,0,B|24:96|24:184,1,128,8|8
136,272,130245,2,0,B|160:344|240:352,1,128,8|8
376,320,131024,1,8
320,176,131414,2,0,B|328:112,2,64,8|0|8
168,200,132193,2,0,B|152:120,1,64,8|0
176,64,132583,6,0,B|232:16|312:48,1,128,8|8
408,152,133362,1,8
264,200,133751,1,8
376,304,134141,2,0,B|336:360|256:352,1,128,8|8
184,344,134725,1,0
112,312,134920,2,0,B|48:280|40:200,1,128,8|8
88,64,135699,5,8
232,112,136089,1,8
368,32,136479,2,0,B|440:40|480:112,1,128,8|8
480,256,137258,2,0,B|504:336,2,64,8|0|8
352,320,138037,2,0,B|216:320,1,128,8|8
88,264,138816,6,0,B|120:200|96:128,1,128,12|8
216,40,139596,1,8
360,80,139985,1,8
448,208,140375,2,0,B|392:256|320:232,1,128,8|8
256,200,140959,1,0
192,152,141154,2,0,B|120:128|64:176,1,128,8|8
152,304,141933,5,8
288,368,142323,1,8
392,256,142712,1,8
320,120,143102,1,8
168,144,143492,2,0,B|88:144,1,64,8|0
104,64,143881,2,0,B|176:64,1,64,8|0
240,104,144271,2,0,B|280:128|336:80|384:112,1,128,8|8
464,224,145050,5,2
464,224,145440,1,2
464,224,145829,1,2
464,224,146219,2,0,B|384:264,1,64,2|0
336,288,146609,5,2
336,288,146998,1,2
336,288,147388,1,2
336,288,147777,2,0,B|256:304,1,64,2|0
200,320,148167,5,2
200,320,148557,1,2
200,320,148946,1,2
200,320,149336,2,0,B|112:320,1,64,2|0
56,320,149725,6,0,B|24:288|24:224|64:192,1,128
256,144,150505,2,0,B|288:176|288:240|248:272,2,128,2|0|4
