osu file format v9

[General]
AudioFilename: Senbonzakura.mp3
AudioLeadIn: 500
PreviewTime: 57290
Countdown: 0
SampleSet: Normal
StackLeniency: 0.7
Mode: 0
LetterboxInBreaks: 0

[Editor]
DistanceSpacing: 1
BeatDivisor: 2
GridSize: 8

[Metadata]
Title:Senbonzakura (Short Ver.)
Artist:Hatsune Miku
Creator:NatsumeRin
Version:Easy
Source:Kurousa-P
Tags:vocaloid vocaloid2 eveless goodbye

[Difficulty]
HPDrainRate:1
CircleSize:3
OverallDifficulty:2
ApproachRate:3
SliderMultiplier:0.8
SliderTickRate:1

[Events]
//Background and Video events
0,0,"BG.jpg"
Video,0,"PV.flv"
//Break Periods
2,82912,93740
//Storyboard Layer 0 (Background)
//Storyboard Layer 1 (Fail)
//Storyboard Layer 2 (Pass)
//Storyboard Layer 3 (Foreground)
//Storyboard Sound Samples
//Background Colour Transformations
3,100,163,162,255

[TimingPoints]
1674,389.61038961039,4,1,1,80,1,0
7907,-100,4,2,1,90,0,0
31284,-100,4,1,1,70,0,0
31674,-100,4,1,1,5,0,0
32063,-100,4,1,1,70,0,0
32842,-100,4,1,1,80,0,0
43751,-100,4,2,1,90,0,0
45310,-100,4,1,1,80,0,0
55050,-100,4,1,1,5,0,0
55245,-100,4,1,1,80,0,0
56219,-100,4,2,1,90,0,0
57777,-100,4,1,1,90,0,1
70148,-100,4,1,1,90,0,0
70245,-100,4,1,1,90,0,1
82712,-100,4,2,1,90,0,0
95180,-100,4,1,1,80,0,0
106089,-100,4,2,1,80,0,0
107648,-100,4,1,1,80,0,0
117388,-100,4,1,1,5,0,0
117583,-100,4,1,1,80,0,0
118557,-100,4,2,2,90,0,0
120115,-100,4,1,1,90,0,1
132485,-100,4,1,1,90,0,0
132583,-100,4,1,1,90,0,1
145050,-100,4,2,1,80,0,0

[Colours]
Combo1 : 0,0,183
Combo2 : 153,153,0
Combo3 : 217,0,217
Combo4 : 162,0,0

[HitObjects]
40,152,1674,1,2
112,296,2453,1,0
272,296,3232,1,2
344,152,4011,2,0,B|448:152,1,80,0|2
480,208,4790,5,2
384,336,5570,1,0
232,296,6349,2,0,B|136:296,3,80,2|0|0|0
72,296,7907,5,2
112,144,8686,1,2
240,48,9466,1,2
400,32,10245,2,0,B|472:80,1,80,4|0
432,152,11024,6,0,B|400:240|480:320,2,160,2|2|2
384,88,12972,1,0
304,88,13362,2,0,B|208:88,1,80,2|0
144,88,14141,5,2
64,224,14920,1,2
144,360,15699,1,2
224,224,16479,2,0,B|312:224,1,80,4|0
376,264,17258,5,0
456,120,18037,1,2
320,40,18816,2,0,B|232:40,2,80,2|0|4
280,192,20375,5,2
168,80,21154,1,2
24,152,21933,1,2
56,312,22712,1,4
128,344,23102,1,0
208,328,23492,6,0,B|256:312|328:328|368:368,2,160,2|2|2
152,264,25440,1,0
192,192,25829,2,0,B|288:176,1,80,2|0
336,128,26609,6,0,B|376:152|456:136|480:88,1,160,2|2
328,48,28167,2,0,B|288:24|208:40|184:88,1,160,2|2
160,160,29336,1,0
208,224,29725,5,4
360,272,30505,1,0
328,112,31284,2,0,B|384:96|448:112|480:168,1,160,6|0
440,312,32842,6,0,B|264:312,1,160
224,160,34401,2,0,B|392:160,1,160
248,240,35959,6,0,B|72:240,1,160
24,192,37128,1,0
48,112,37518,1,0
200,64,38297,1,0
248,216,39076,6,0,B|304:376,1,160
432,280,40635,2,0,B|376:120,1,160,0|0
248,216,42193,1,0
192,272,42583,1,0
112,288,42972,1,0
72,136,43751,6,0,B|112:104|192:104|232:144,1,160,2|4
360,64,45310,6,0,B|432:216,1,160
344,344,46868,1,0
264,360,47258,1,0
200,312,47648,1,0
56,248,48427,6,0,B|104:272|176:256|208:200,2,160
32,88,50764,2,0,B|120:104,1,80,8|0
184,136,51544,6,0,B|224:104|304:104|344:144,1,160
416,272,53102,2,0,B|376:304|296:304|256:264,1,160
208,216,54271,1,0
128,216,54661,2,0,B|0:216,2,120
168,144,56219,6,0,B|192:120|256:120|280:144,1,120,2|2
368,320,57777,5,0
464,192,58557,1,0
408,40,59336,2,0,B|328:40,1,80
264,96,60115,1,0
104,96,60894,5,0
184,232,61674,1,0
24,232,62453,2,0,B|64:312,1,80
128,344,63232,1,0
280,304,64011,6,0,B|320:336|408:320|432:256,1,160
464,120,65570,2,0,B|424:88|336:104|320:160,1,160
288,224,66738,1,0
216,256,67128,6,0,B|176:288|96:280|64:240,1,160
8,96,68686,2,0,B|48:64|128:72|160:112,1,160
200,176,69855,1,0
280,176,70245,6,0,B|384:176,2,80
320,328,71803,1,0
400,312,72193,1,0
464,264,72583,1,0
416,112,73362,6,0,B|368:136|288:104|272:56,1,160
120,48,74920,1,0
48,88,75310,1,0
8,160,75699,1,0
120,280,76479,6,0,B|144:240|224:216|272:240,1,160
400,320,78037,2,0,B|496:288,2,80
328,352,79206,1,0
248,336,79596,6,0,B|200:368|120:352|96:296,1,160
56,160,81154,2,0,B|104:128|184:144|208:200,1,160
360,160,82712,1,4
72,312,95180,6,0,B|248:312,1,160
288,160,96739,2,0,B|120:160,1,160
264,240,98297,6,0,B|440:240,1,160
488,192,99466,1,0
464,112,99856,1,0
312,64,100635,1,0
264,216,101414,6,0,B|208:376,1,160
80,280,102973,2,0,B|136:120,1,160,0|0
264,216,104531,1,0
320,272,104921,1,0
400,288,105310,1,0
440,136,106089,6,0,B|400:104|320:104|288:144,1,160,2|4
152,64,107648,6,0,B|80:216,1,160
168,344,109206,1,0
248,360,109596,1,0
312,312,109986,1,0
456,248,110765,6,0,B|408:272|336:256|304:200,2,160
480,88,113102,2,0,B|392:104,1,80,8|0
328,136,113882,6,0,B|288:104|208:104|168:144,1,160
96,272,115440,2,0,B|136:304|216:304|256:264,1,160
304,216,116609,1,0
384,216,116999,2,0,B|512:216,2,120
344,144,118557,6,0,B|320:120|256:120|232:144,1,120,2|2
144,320,120115,5,0
48,192,120895,1,0
104,40,121674,2,0,B|184:40,1,80
248,96,122453,1,0
408,96,123232,5,0
328,232,124012,1,0
488,232,124791,2,0,B|448:312,1,80
384,344,125570,1,0
232,304,126349,6,0,B|192:336|104:320|80:256,1,160
48,120,127908,2,0,B|88:88|176:104|192:160,1,160
224,224,129076,1,0
296,256,129466,6,0,B|336:288|416:280|448:240,1,160
504,96,131024,2,0,B|464:64|384:72|352:112,1,160
312,176,132193,1,0
232,176,132583,6,0,B|128:176,2,80
192,328,134141,1,0
112,312,134531,1,0
48,264,134921,1,0
96,112,135700,6,0,B|144:136|224:104|240:56,1,160
392,48,137258,1,0
464,88,137648,1,0
504,160,138037,1,0
392,280,138817,6,0,B|368:240|288:216|240:240,1,160
112,320,140375,2,0,B|16:288,2,80
184,352,141544,1,0
264,336,141934,6,0,B|312:368|392:352|416:296,1,160
456,160,143492,2,0,B|408:128|328:144|304:200,1,160
184,88,145050,5,6
184,88,145829,2,0,B|272:136,1,80,2|0
320,168,146609,5,2
320,168,147388,2,0,B|320:272,1,80,2|0
320,328,148167,5,2
320,328,148946,2,0,B|232:376,1,80,2|0
176,344,149725,6,0,B|128:368|48:344|32:288,1,160,0|2
144,184,151284,1,4
