osu file format v9

[General]
AudioFilename: Hatsune Miku-Sen bon sakura.mp3
AudioLeadIn: 500
PreviewTime: 119462
Countdown: 0
SampleSet: Normal
StackLeniency: 0.2
Mode: 0
LetterboxInBreaks: 1

[Editor]
Bookmarks: 1605,7838,19916,32773,45241,57319,69786,82643
DistanceSpacing: 1.4
BeatDivisor: 4
GridSize: 8

[Metadata]
Title:Senbonzakura
Artist:Hatsune Miku
Creator:Gundam
Version:Shore
Source:Kurousa-P
Tags:vocaloid vocaloid2 lkx_shore eikkaleyd

[Difficulty]
HPDrainRate:4
CircleSize:4
OverallDifficulty:6
ApproachRate:8
SliderMultiplier:2.5
SliderTickRate:0.5

[Events]
//Background and Video events
0,0,"Shore.jpg"
//Break Periods
//Storyboard Layer 0 (Background)
//Storyboard Layer 1 (Fail)
//Storyboard Layer 2 (Pass)
//Storyboard Layer 3 (Foreground)
//Storyboard Sound Samples
//Background Colour Transformations
3,100,245,135,245

[TimingPoints]
1650,389.61038961039,4,1,1,80,1,0
1650,-100,4,1,1,80,0,0
7449,-200,4,1,1,80,0,0
7838,-100,4,2,1,80,0,0
31215,-100,4,1,1,80,0,0
32481,-133.333333333333,4,2,2,80,0,0
37449,-100,4,2,1,80,0,0
38810,-133.333333333333,4,2,2,80,0,0
43682,-100,4,2,1,80,0,0
45046,-100,4,2,2,80,0,0
53812,-200,4,2,2,80,0,0
54981,-100,4,2,2,80,0,0
57319,-90.9090909090909,4,1,1,80,0,1
67059,-100,4,2,1,80,0,1
68617,-100,4,2,1,80,0,1
70176,-100,4,2,2,80,0,1
82643,-100,4,1,1,80,0,0

[Colours]
Combo1 : 0,128,64
Combo2 : 225,225,9
Combo3 : 255,128,255
Combo4 : 128,128,255
Combo5 : 128,0,64

[HitObjects]
112,104,1650,1,0
200,272,1942,2,0,B|304:256|304:136,1,187.5,2|0
176,168,2429,1,0
264,336,2721,2,0,B|376:320|376:200,1,187.5,2|0
376,80,3208,5,0
240,208,3500,1,2
376,80,3792,1,0
224,72,3987,2,0,B|224:176|64:128|64:240,1,250,0|8
344,296,4766,5,0
464,104,5059,1,2
344,296,5351,1,0
448,256,5546,5,0
328,112,5839,1,2
264,288,6131,1,0
360,208,6325,5,0
264,176,6714,1,0
168,160,7104,1,0
72,152,7494,6,0,B|72:232|72:232|104:288,1,125,0|4
208,304,8078,1,2
344,296,8273,2,0,B|360:320|384:320|400:336,3,62.5
424,264,8662,2,0,B|456:208|440:136,1,125,0|2
288,88,9052,2,0,B|272:72|248:72|232:48,3,62.5
208,120,9442,6,0,B|144:128|120:200,1,125,0|2
192,352,9831,1,0
208,328,9929,1,0
224,304,10026,1,0
248,288,10124,1,0
272,280,10220,2,0,B|344:280|368:216,1,125,4|0
376,200,10481,1,0
384,184,10546,1,0
392,168,10611,2,0,B|400:96|488:96,1,125,0|0
208,88,11000,5,0
120,264,11195,1,2
208,88,11390,2,0,B|208:64|176:64|176:32,3,62.5
128,96,11779,2,0,B|80:160|136:240,1,125,0|2
232,312,12169,1,0
256,320,12266,1,0
280,312,12364,1,0
304,320,12461,1,0
328,312,12559,5,0
464,248,12753,2,0,B|496:192|464:128,1,125,0|2
464,128,13143,1,2
112,96,13338,1,4
96,120,13435,1,0
88,144,13533,1,0
88,168,13630,1,0
96,192,13727,6,0,B|112:256|176:280,1,125
312,352,14117,1,0
256,208,14312,1,2
408,136,14507,2,0,B|408:112|440:104|440:64,3,62.5
360,80,14896,2,0,B|320:112|336:184|280:208,1,125,0|2
104,248,15286,2,0,B|104:280|72:288|72:320,3,62.5
152,304,15675,6,0,B|184:288|176:200|224:184,1,125,0|2
160,40,16065,1,0
184,40,16162,1,0
208,56,16260,1,0
232,72,16357,1,0
256,72,16455,1,4
336,280,16650,1,0
336,280,16714,1,0
336,280,16779,1,0
336,280,16844,2,0,B|296:344|216:312,1,125
104,232,17234,5,0
104,80,17429,1,0
128,88,17526,1,0
144,104,17624,1,0
304,112,17818,1,0
344,120,17916,1,0
368,152,18013,1,0
424,288,18208,1,0
384,312,18305,1,0
336,320,18403,1,0
288,312,18500,1,0
240,304,18598,6,0,B|200:248|112:256,1,125,0|4
80,112,18987,1,0
80,112,19052,1,0
80,112,19117,1,0
80,112,19182,1,0
176,288,19377,2,0,B|256:296|280:224,1,125,2|0
72,272,19961,1,0
72,272,20156,1,0
72,272,20351,6,0,B|144:272|184:208,1,125,0|2
240,80,20740,1,0
256,96,20838,1,0
280,104,20935,1,0
296,128,21033,1,0
320,136,21130,1,0
176,216,21325,2,0,B|152:288|216:328,1,125,2|0
240,320,21617,1,0
264,328,21714,1,0
288,320,21812,1,0
312,328,21909,5,0
416,216,22104,1,2
336,160,22299,1,0
288,152,22396,1,0
240,152,22494,1,0
192,168,22591,1,0
152,192,22688,1,4
80,264,22883,2,0,B|64:288|80:304|64:328,3,41.6666666666667
88,152,23273,6,0,B|128:96|224:96,1,125
200,248,23662,1,2
344,304,23857,2,0,B|352:328|376:320|392:344,3,62.5
408,272,24247,2,0,B|456:224|432:144,1,125,0|2
304,80,24637,2,0,B|280:64|296:48|272:24,3,62.5
224,80,25026,6,0,B|152:88|112:144,1,125,0|2
120,296,25416,1,2
248,224,25611,1,2
408,64,25805,1,0
424,88,25903,1,0
432,112,26000,1,0
440,136,26098,1,0
440,160,26195,1,0
368,304,26390,1,4
216,280,26585,6,0,B|88:240,1,125,0|2
168,88,26974,1,0
192,96,27072,1,0
216,104,27169,1,0
240,112,27266,1,0
264,120,27364,1,0
344,232,27559,1,2
152,280,27753,1,0
160,256,27851,1,0
168,232,27948,1,0
176,208,28045,1,0
184,184,28143,5,0
320,120,28338,2,0,B|448:176,1,125,2|0
440,192,28630,1,0
448,216,28727,1,0
456,240,28825,1,0
464,264,28922,1,4
320,296,29117,1,0
320,296,29182,1,0
320,296,29247,1,0
320,296,29312,2,0,B|320:248|232:272|232:208,1,125
112,128,29701,5,0
144,104,29799,1,0
176,88,29896,1,0
208,80,29994,1,0
248,72,30091,1,0
288,80,30188,1,0
328,88,30286,1,0
360,104,30383,1,0
392,128,30481,2,0,B|360:200|424:240,1,125,0|8
288,304,30870,2,0,B|320:232|256:192,1,125,0|8
144,96,31260,5,0
64,304,31552,1,8
256,192,31844,1,0
144,96,32039,1,0
288,64,32234,1,0
336,56,32331,1,0
384,64,32429,1,4
424,208,32818,5,0
312,280,33111,1,0
312,280,33208,2,0,B|296:160|176:176,1,187.499994412065,8|0
192,304,33792,1,2
88,256,33987,1,8
88,144,34182,1,2
256,64,34377,6,0,B|384:152,1,140.624995809049
280,160,34766,2,0,B|352:192|352:272,1,140.624995809049,8|0
352,312,35156,1,0
232,256,35351,1,2
112,304,35546,1,8
112,176,35740,5,2
208,88,35935,2,0,B|216:64|264:40|328:40|352:64,1,140.624995809049
360,88,36325,2,0,B|336:176|424:224,1,140.624995809049,8|0
360,208,36714,2,0,B|256:168,1,93.7499972060324,0|0
264,272,37104,1,8
144,224,37299,1,0
96,104,37494,5,2
64,192,37883,1,2
88,280,38273,1,2
160,336,38662,1,2
328,328,39052,6,0,B|392:328|392:264,1,93.7499972060324
392,240,39344,1,0
392,200,39442,2,0,B|392:136|328:136,1,93.7499972060324,8|0
192,168,39831,1,0
80,272,40026,1,2
192,168,40221,1,8
296,272,40416,1,2
408,120,40611,6,0,B|376:48|288:72,1,140.624995809049
304,120,41000,2,0,B|296:208|192:224,1,140.624995809049,8|0
160,216,41390,1,0
232,64,41585,1,2
160,216,41779,1,8
328,216,41974,1,2
192,112,42169,6,0,B|104:120|104:208,1,140.624995809049
104,224,42559,1,8
144,304,42753,2,0,B|240:304,1,93.7499972060324
408,304,43143,1,0
408,304,43240,1,0
408,304,43338,2,0,B|464:288|464:224,1,93.7499972060324,8|0
464,144,43727,5,2
352,120,44117,1,2
280,208,44507,1,2
392,240,44896,1,2
88,64,45286,5,0
88,64,45383,1,0
144,232,45578,1,0
144,232,45675,2,0,B|192:312|288:248,1,125,8|0
288,144,46065,2,0,B|272:264|352:328,1,187.5
376,336,46455,1,8
376,336,46844,5,0
432,232,47039,1,0
376,112,47234,1,8
376,336,47429,1,0
432,232,47624,2,0,B|376:168|256:304|176:208,1,250,0|8
80,56,48403,5,0
80,56,48500,1,0
80,56,48598,2,0,B|56:96|104:152|64:208,1,125,0|8
128,296,48987,1,0
208,200,49182,1,0
208,200,49279,1,0
280,96,49474,2,0,B|312:112|320:152,1,62.5,0|8
424,88,49766,6,0,B|464:144|432:216,1,125
424,232,50059,1,0
408,248,50156,1,0
384,256,50253,1,0
360,256,50351,1,8
336,256,50448,1,0
312,248,50546,1,0
288,240,50643,1,0
272,224,50740,1,8
120,96,51130,1,4
96,296,51520,6,0,B|208:312|248:200,1,187.5
192,200,51909,2,0,B|152:128|224:96,1,125,8|0
400,96,52299,1,0
400,96,52396,1,0
432,264,52591,2,0,B|416:296|376:296,1,62.5,0|8
256,304,53078,5,0
120,272,53273,1,0
120,272,53370,1,0
120,272,53468,2,0,B|56:240|40:144,1,125,8|0
120,96,53857,2,0,B|152:72|152:72|192:112|240:80,1,125,0|8
344,152,54442,1,0
360,272,54637,5,2
248,224,54831,1,2
248,224,55221,1,0
176,88,55416,6,0,B|112:136|144:280|72:328,2,250,0|8|0
296,128,56390,1,0
424,208,56585,1,0
440,248,56682,1,0
432,288,56779,1,4
136,304,57364,6,0,B|192:240|56:120|112:40,1,274.999991804362,8|0
272,40,57948,1,0
312,48,58046,1,0
336,80,58143,1,8
224,200,58338,1,0
392,192,58533,1,0
416,224,58630,1,0
432,264,58727,1,0
424,304,58825,1,0
392,336,58922,1,8
224,328,59117,6,0,B|136:320|120:240,1,137.499995902181
224,160,59507,1,0
328,248,59701,1,8
224,328,59896,1,0
120,248,60091,2,0,B|88:160|264:136|200:8,1,274.999991804362,0|8
352,64,60675,1,0
472,176,60870,5,0
352,288,61065,1,0
312,272,61162,1,0
280,248,61260,2,0,B|232:248|232:248|192:208|152:248,1,137.499995902181,8|0
32,280,61650,2,0,B|32:112|176:248|176:48,1,274.999991804362,0|8
168,240,62234,1,0
264,184,62429,5,0
160,272,62624,1,0
280,144,62818,1,8
320,272,63013,1,0
104,152,63208,1,0
304,64,63598,1,8
304,64,63792,1,0
304,64,63987,6,0,B|368:80|416:184|392:256,1,206.249993853271
328,216,64377,2,0,B|288:216|288:216|280:264|216:280,1,137.499995902181,8|0
72,280,64766,2,0,B|0:248|32:168|96:152|144:216|144:216|200:136,1,274.999991804362,0|8
304,64,65351,1,0
384,40,65546,5,0
432,112,65740,1,0
376,168,65935,1,8
296,144,66130,1,0
296,144,66325,2,0,B|240:128|184:152|152:200|168:264,1,206.249993853271
232,240,66714,2,0,B|280:240|280:240|280:288|360:304,1,137.499995902181,8|0
408,120,67104,5,2
328,112,67494,1,2
256,144,67883,1,2
200,208,68273,1,2
200,208,68662,5,2
344,288,68857,1,0
200,208,69052,1,0
392,184,69247,1,0
200,112,69442,2,0,B|88:160|112:288,1,187.5,8|0
112,288,69831,1,4
408,320,70221,5,0
456,176,70416,1,0
456,176,70513,1,0
456,176,70611,2,0,B|432:112|352:112|328:184|328:184|272:120,1,250,8|0
136,80,71195,1,0
120,112,71292,1,0
104,144,71390,1,8
184,272,71585,1,0
248,192,71779,5,0
344,224,71974,1,0
344,328,72169,1,8
248,352,72364,1,0
184,272,72559,1,0
320,128,72948,1,8
320,128,73046,1,0
320,128,73143,1,0
408,176,73338,6,0,B|360:264|360:264|376:336|288:336,1,187.5
304,288,73727,2,0,B|224:296|200:208,1,125,8|0
216,128,74117,2,0,B|136:88|80:184,1,125
88,176,74409,1,0
80,200,74507,1,8
168,320,74701,1,0
296,232,74896,5,0
168,304,75091,1,0
296,248,75286,1,8
168,288,75481,1,0
296,264,75675,2,0,B|352:312|408:264|408:264|432:328,1,187.5
472,280,76065,2,0,B|488:152,1,125,8|0
272,80,76455,6,0,B|192:112|192:112|160:176|104:136,1,187.5
200,208,76844,2,0,B|224:336,1,125,8|0
408,200,77234,1,4
408,200,77818,1,0
296,104,78013,5,0
272,256,78208,2,0,B|224:320|144:296,1,125,0|8
128,152,78598,1,0
88,304,78792,1,0
80,280,78890,1,0
72,256,78987,2,0,B|72:192|72:192|32:160|72:128,1,125,0|8
184,56,79377,6,0,B|248:56|248:56|256:96|312:96,1,125,0|2
384,128,79961,1,2
416,224,80351,1,2
352,304,80740,1,2
352,304,81130,5,0
272,152,81325,1,0
120,72,81520,1,8
192,232,81714,1,0
352,304,81909,2,0,B|424:304|424:240|424:240|424:144,1,187.5
376,104,82299,2,0,B|312:104|312:104|272:104|256:160,1,125,8|0
264,240,82688,1,4
