osu file format v9

[General]
AudioFilename: Hatsune Miku-Sen bon sakura.mp3
AudioLeadIn: 500
PreviewTime: 119462
Countdown: 0
SampleSet: Soft
StackLeniency: 0.7
Mode: 0
LetterboxInBreaks: 0

[Editor]
Bookmarks: 163682
DistanceSpacing: 1
BeatDivisor: 2
GridSize: 4

[Metadata]
Title:Senbonzakura
Artist:Hatsune Miku
Creator:Gundam
Version:Normal
Source:Kurousa-P
Tags:vocaloid vocaloid2 lkx_shore eikkaleyd

[Difficulty]
HPDrainRate:5
CircleSize:3
OverallDifficulty:5
ApproachRate:6
SliderMultiplier:0.799999999999999
SliderTickRate:1

[Events]
//Background and Video events
0,0,"gundam.JPG"
//Break Periods
2,82109,94106
2,144447,162677
//Storyboard Layer 0 (Background)
//Storyboard Layer 1 (Fail)
//Storyboard Layer 2 (Pass)
//Storyboard Layer 3 (Foreground)
//Storyboard Sound Samples
//Background Colour Transformations

[TimingPoints]
1650,389.61038961039,4,2,0,60,1,0
31260,-100,4,1,0,70,0,0
32818,-100,4,2,0,70,0,0
45286,-100,4,1,0,70,0,0
46844,-100,4,2,0,70,0,0
48403,-100,4,1,0,70,0,0
49961,-100,4,2,0,70,0,0
54637,-100,4,1,0,70,0,0
55416,-100,4,2,0,70,0,0
57753,-100,4,1,0,70,0,1
69637,-100,4,2,0,70,0,0
70221,-100,4,1,0,70,0,1
81909,-100,4,1,0,70,0,0
95156,-100,4,2,0,70,0,0
106065,-100,4,1,0,70,0,0
107624,-100,4,2,0,70,0,0
120091,-100,4,1,0,70,0,1
131779,-100,4,1,0,70,0,0
132559,-100,4,2,0,70,0,1
144247,-100,4,1,0,70,0,0
176195,-100,4,2,0,70,0,0
179312,-100,4,1,0,50,0,0
180870,-100,4,2,0,70,0,0
201130,-100,4,1,0,70,0,1
213598,-100,4,1,0,70,0,0

[Colours]
Combo1 : 255,150,0
Combo2 : 5,240,5
Combo3 : 5,5,240
Combo4 : 240,5,5

[HitObjects]
64,136,1650,1,0
120,288,2429,1,2
280,288,3208,1,0
400,176,3987,2,6,B|304:176,1,79.9999999999999,6|0
352,104,4766,5,0
200,56,5546,1,2
56,120,6325,1,4
120,176,6714,2,2,B|192:232,1,79.9999999999999,0|2
256,192,7494,1,0
320,144,7883,5,0
360,128,8078,1,0
392,112,8273,1,0
472,88,8662,2,2,B|496:176|424:248,1,160,2|0
296,320,10221,1,2
256,320,10416,1,0
216,320,10611,1,0
136,304,11000,6,2,B|56:224|160:144,1,160,0|2
192,112,12169,1,0
256,56,12559,1,0
288,80,12753,1,0
320,104,12948,1,0
352,128,13143,1,0
384,152,13338,2,2,B|456:152,2,40,2|0|0
408,232,14117,6,0,B|408:328|288:344,2,160,0|2|0
328,216,16065,1,0
256,192,16455,1,2
176,56,17234,5,0
128,120,17624,1,0
88,192,18013,1,2
192,312,18792,2,2,B|280:312,2,79.9999999999999,0|0|2
344,264,20351,6,2,B|424:192|344:96,2,160,0|2|0
224,152,22688,1,2
184,152,22883,1,0
144,152,23078,1,0
64,152,23468,5,0
136,296,24247,1,2
256,184,25026,1,0
288,160,25221,1,0
312,128,25416,1,0
344,104,25611,1,0
384,80,25805,2,2,B|432:104,2,40,2|0|0
384,160,26585,6,2,B|416:248|320:312,1,160,0|2
176,296,28143,1,0
128,144,28922,2,0,B|176:112,1,40,2|0
200,104,29312,1,0
280,88,29701,5,0
352,128,30091,1,0
416,168,30481,1,2
400,328,31260,2,0,B|304:328|272:224,1,160,0|2
256,80,32818,6,0,B|160:64|120:160,1,160,0|2
64,296,34377,1,0
144,280,34766,1,0
224,264,35156,2,0,B|280:288,2,40,2|0|0
296,232,35935,5,0
368,200,36325,1,0
360,120,36714,2,0,B|344:64,3,40,2|0|0|0
320,56,37494,2,0,B|240:96,3,79.9999999999999,0|0|2|0
176,120,39052,5,4
120,176,39442,1,0
72,240,39831,2,0,B|120:312|224:320,1,160,2|0
288,320,41000,1,0
368,312,41390,1,2
400,240,41779,1,0
432,168,42169,6,0,B|496:104|448:48|368:48,1,160,0|2
336,200,43727,2,0,B|320:112,3,79.9999999999999,0|0|2|0
288,48,45286,5,0
208,64,45675,1,0
144,112,46065,1,2
88,168,46455,1,0
104,248,46844,2,2,B|216:328|352:304,1,240,0|2
400,264,48403,5,0
432,192,48792,1,0
408,112,49182,1,2
344,72,49572,1,0
336,152,49961,2,2,B|264:232,2,79.9999999999999,0|0|2
232,256,51520,6,0,B|176:184,3,79.9999999999999,0|0|2|0
104,216,53078,2,0,B|96:152|128:112|208:96,1,160,0|2
264,88,54247,5,0
304,72,54442,1,0
352,88,54637,1,0
384,112,54831,1,0
440,216,55416,2,2,B|384:288,2,79.9999999999999,2|0|0
168,64,57753,6,0,B|88:104|88:216,1,160,12|2
208,304,59312,2,0,B|288:304,2,79.9999999999999,8|0|2
264,152,60870,5,8
320,96,61260,1,0
376,40,61650,2,0,B|488:80|432:200,1,160,2|8
424,200,62624,1,0
408,240,62818,1,0
384,272,63013,1,0
368,304,63208,1,2
208,304,63987,6,0,B|136:240,1,79.9999999999999,8|0
88,192,64766,1,2
176,56,65546,2,0,B|216:80,1,40,8|0
248,96,65935,2,0,B|288:120,1,40
320,136,66325,1,2
448,224,67104,5,8
392,288,67494,1,0
320,320,67883,1,2
240,328,68273,1,0
160,312,68662,2,0,B|96:256,2,79.9999999999999,8|0|2
112,160,70221,6,0,B|144:72|264:72,1,160,12|2
392,72,71779,2,0,B|376:128,1,40,8|0
368,144,72169,1,0
344,216,72559,1,2
224,336,73338,6,0,B|127:333|98:230,1,160,8|2
264,232,74896,1,8
256,192,75091,1,0
228,164,75286,1,0
200,192,75481,1,0
192,232,75675,1,2
208,72,76455,6,0,B|112:72,2,79.9999999999999,8|0|2
360,104,78013,1,8
408,168,78403,1,0
448,240,78792,1,2
304,312,79572,6,8,B|208:304,1,79.9999999999999
144,296,80351,1,2
144,296,80740,1,0
184,232,81130,2,0,B|152:192,1,40
144,160,81520,2,0,B|160:104,1,40
184,96,81909,1,6
144,112,95156,6,0,B|176:208,1,79.9999999999999
208,256,95935,1,2
240,280,96130,1,0
280,288,96325,1,0
320,288,96520,1,0
360,272,96714,2,0,B|424:208|416:120,1,160,0|2
264,80,98273,6,0,B|176:64|120:160,1,160,0|2
128,224,99442,1,0
144,304,99831,2,0,B|208:256,3,79.9999999999999,0|0|2|0
232,336,101390,6,0,B|320:360|376:272,1,160,0|2
416,216,102559,1,0
456,144,102948,2,0,B|400:72|296:104,1,160,0|2
232,104,104117,1,0
160,152,104507,5,0
88,296,105286,1,2
248,296,106065,5,0
328,272,106455,1,0
384,216,106844,1,2
416,144,107234,1,0
344,104,107624,6,0,B|272:48|184:104,1,160,0|2
160,168,108792,1,0
120,240,109182,2,0,B|200:296,2,79.9999999999999,0|0|2
272,280,110740,6,0,B|344:240,1,79.9999999999999
416,200,111520,2,0,B|376:120,1,79.9999999999999,2|0
336,64,112299,2,0,B|256:40|184:104,1,160,0|2
112,240,113857,6,0,B|200:280,3,79.9999999999999,0|0|2|0
264,288,115416,5,0
336,264,115805,1,0
400,216,116195,1,2
312,80,116974,5,0
152,112,117753,2,0,B|72:168|120:272,1,160,2|0
112,253,118727,1,0
112,253,118922,1,0
112,253,119117,1,0
256,112,120091,6,0,B|344:120|384:208,1,160,8|2
256,312,121650,2,0,B|200:312,1,40,8|0
200,280,122039,1,0
168,248,122234,2,0,B|104:248,1,40,0|2
248,96,123208,6,0,B|336:96,2,79.9999999999999,8|0|2
104,176,124766,2,0,B|112:264|208:312,1,160,8|2
352,288,126325,6,0,B|416:224|392:128,1,160,8|2
240,104,127883,1,8
200,120,128078,1,0
168,136,128273,1,0
144,168,128468,1,0
120,200,128662,1,2
224,304,129442,5,8
296,272,129831,1,0
356,220,130221,1,2
392,148,130611,1,0
376,68,131000,2,0,B|296:36|216:64,1,160,8|2
112,168,132559,6,0,B|80:264|200:312,1,160,8|2
320,296,134117,1,8
344,264,134312,1,0
352,224,134507,1,0
368,184,134701,1,0
376,144,134896,1,2
240,80,135675,6,0,B|168:120,2,79.9999999999999,8|0|2
96,152,137234,1,8
136,224,137624,1,0
184,288,138013,1,2
344,312,138792,6,0,B|464:312|464:192,1,160,8|2
360,104,140351,2,0,B|328:16|200:48,1,160,8|2
80,96,141909,6,0,B|120:168,1,79.9999999999999,8|0
160,232,142688,1,2
200,296,143078,1,0
280,296,143468,2,0,B|336:296,4,40,8|0|0|0|2
392,96,163727,6,0,B|432:136,1,40,0|0
392,152,164117,2,0,B|360:184,1,40,0|0
396,204,164507,2,0,B|428:236,1,40,2|0
392,256,164896,2,0,B|360:288,1,40,0|0
328,296,165286,2,0,B|264:304|216:280|184:216,1,160,0|2
120,80,166844,6,0,B|168:80,1,40
200,80,167234,2,0,B|240:80,1,40
280,80,167624,2,0,B|328:80,1,40,2|0
360,80,168013,2,0,B|408:80,1,40
440,88,168403,2,0,B|424:176,2,79.9999999999999,0|0|2
416,248,169961,6,0,B|328:248,1,79.9999999999999
288,312,170740,2,0,B|200:312,1,79.9999999999999,2|0
128,312,171520,1,0
80,248,171909,1,0
112,176,172299,1,2
248,88,173078,6,0,B|336:88,1,79.9999999999999
376,152,173857,2,0,B|288:152,1,79.9999999999999,2|0
320,232,174637,2,0,B|296:272|240:280,1,79.9999999999999
176,264,175416,1,2
176,104,176195,6,0,B|256:64|336:112,1,160,0|2
328,272,177753,2,0,B|256:328|176:264,1,160,0|2
88,136,179312,5,0
88,136,179507,1,0
88,136,179701,1,0
168,120,180091,1,2
168,120,180481,1,0
248,104,180870,2,0,B|336:96|400:168,1,160,0|2
368,320,182429,6,0,B|272:296,1,79.9999999999999
212,280,183208,1,2
136,256,183598,1,0
60,228,183987,2,0,B|-4:132|108:68,1,160,0|2
240,80,185546,5,0
272,104,185740,1,0
376,168,186325,2,0,B|424:248|336:328,1,160,2|0
56,200,188662,6,0,B|72:112|192:104,1,160,0|2
328,88,190221,1,0
344,120,190416,1,0
368,160,190611,2,0,B|416:232,1,79.9999999999999,0|2
280,312,191779,6,0,B|208:256,1,79.9999999999999
152,216,192559,1,2
80,72,193338,2,0,B|152:16|248:72,1,160,0|2
368,144,194896,6,0,B|448:200,2,79.9999999999999,0|0|2
312,296,196455,2,0,B|240:352|152:296,1,160,0|2
144,144,198013,6,0,B|232:112,1,79.9999999999999
296,120,198792,2,0,B|376:152,1,79.9999999999999,2|0
328,216,199572,1,0
288,224,199766,1,0
248,232,199961,1,0
208,224,200156,1,0
168,216,200351,1,2
64,96,201130,6,0,B|248:96,1,160,0|2
296,240,202688,1,0
256,240,202883,1,0
216,240,203078,1,0
176,240,203273,1,0
136,240,203468,1,2
264,136,204247,6,0,B|352:112|432:200,1,160,0|2
336,320,205805,2,0,B|280:304,1,40
256,296,206195,1,0
224,280,206390,1,0
184,264,206585,1,2
64,160,207364,5,0
112,96,207753,1,0
168,40,208143,1,2
328,56,208922,2,0,B|416:96|384:216,1,160,0|2
304,328,210481,6,0,B|224:296,3,79.9999999999999,0|0|2|0
256,192,212039,12,4,213598
