osu file format v9

[General]
AudioFilename: Hatsune Miku - Sayounara.mp3
AudioLeadIn: 0
PreviewTime: 101430
Countdown: 0
SampleSet: Soft
StackLeniency: 0.7
Mode: 0
LetterboxInBreaks: 1

[Editor]
Bookmarks: 16406,59345,116654
DistanceSpacing: 1
BeatDivisor: 4
GridSize: 8

[Metadata]
Title:Sayounara
Artist:Hatsune Miku
Creator:Holoaz
Version:Holo
Source:VOCALOID
Tags:BellP banvi

[Difficulty]
HPDrainRate:6
CircleSize:5
OverallDifficulty:7
ApproachRate:7
SliderMultiplier:1.6
SliderTickRate:1

[Events]
//Background and Video events
0,0,"BG.jpg"
//Break Periods
2,44765,58441
2,131183,144411
2,175959,187396
2,220735,230381
//Storyboard Layer 0 (Background)
//Storyboard Layer 1 (Fail)
//Storyboard Layer 2 (Pass)
//Storyboard Layer 3 (Foreground)
//Storyboard Sound Samples
//Background Colour Transformations
3,100,163,162,255

[TimingPoints]
2028,447.761194029851,4,2,0,50,1,0
16248,-200,4,2,2,50,0,0
30576,-100,4,2,2,50,0,0
73561,-200,4,2,1,50,0,0
87890,-100,4,2,1,50,0,0
100871,-100,4,2,1,32,0,0
101542,-100,4,2,1,38,0,0
101766,-100,4,2,1,44,0,0
101990,-100,4,2,1,50,0,0
102214,-100,4,2,1,59,0,0
102326,-100,4,2,1,59,0,1
102327,-100,4,2,1,59,0,0
116542,-100,4,2,1,50,0,0
158184,-100,4,2,1,32,0,0
158856,-100,4,2,1,38,0,0
159080,-100,4,2,1,44,0,0
159304,-100,4,2,1,50,0,0
159528,-100,4,2,1,59,0,0
159639,-100,4,2,1,59,0,1
159640,-100,4,2,1,59,0,0
175759,-100,4,2,1,0,0,0
188184,-100,4,2,1,50,0,0
202625,-100,4,2,1,50,0,1
202626,-100,4,2,1,50,0,0
220535,-100,4,2,1,0,0,0
231169,-200,4,2,1,50,0,0

[Colours]
Combo1 : 255,128,255
Combo2 : 255,255,255
Combo3 : 180,180,180

[HitObjects]
64,96,16356,2,0,B|120:80|192:64|264:64|312:64,1,240
448,136,18147,2,0,B|392:152|320:168|248:168|200:168,1,240
64,224,19938,2,0,B|120:240|192:256|264:256|312:256,1,240
448,312,21729,2,0,B|392:328|320:344|248:344|200:344,1,240
64,288,23520,6,0,B|112:280|144:256,1,80,0|2
264,160,24416,2,0,B|224:128|184:120,1,80,0|2
56,200,25311,2,0,B|104:184|144:184,1,80,0|2
248,304,26207,2,0,B|288:272|304:240,1,80,0|2
400,120,27102,2,0,B|352:96|320:88,3,80
256,192,28893,12,2,30236
96,88,30684,6,0,B|144:80|208:80|264:80,1,160,4|0
336,80,31356,1,0
408,120,31580,2,0,B|392:168|360:200,1,80
288,200,32028,2,0,B|256:232|248:272,1,80,2|0
192,328,32475,2,0,B|144:312|120:272,3,80
80,216,33371,2,0,B|120:184|136:144,1,80
136,72,33819,2,0,B|192:40|224:32,1,80,2|0
280,64,34266,6,0,B|272:104|224:168|160:208,1,160
120,232,34938,1,0
72,296,35162,2,0,B|112:328|144:336,1,80
216,336,35610,2,0,B|272:328|304:296,1,80,2|0
368,312,36057,1,0
352,232,36281,5,0
440,144,36505,1,0
352,56,36729,1,0
264,144,36953,1,0
168,56,37177,1,0
88,56,37401,6,0,B|64:112|64:160|64:168,1,80,2|0
56,208,37848,2,0,B|112:256|168:280|200:288,1,160
272,288,38520,1,0
352,272,38744,2,0,B|392:280|432:312,2,80,0|0|2
304,208,39416,1,0
224,224,39639,2,0,B|176:208|152:176,3,80
96,128,40535,2,0,B|144:80|240:72|280:72,1,160,0|2
320,64,41207,1,0
400,64,41430,5,2
400,320,41878,1,2
112,320,42326,1,2
112,64,42774,1,2
256,192,43222,12,4,44565
432,88,59341,6,0,B|392:112|368:144,1,80
376,216,59789,2,0,B|344:256|304:272,1,80,2|0
240,280,60236,1,0
208,296,60348,1,0
168,304,60460,1,0
128,296,60572,1,0
96,280,60684,1,2
48,128,61132,6,0,B|96:96|144:96,1,80
176,160,61580,2,0,B|224:160|272:144,1,80,2|0
304,80,62028,1,0
336,104,62139,1,0
352,144,62251,1,0
336,184,62363,1,0
304,208,62475,1,2
168,296,62923,6,0,B|232:336|264:336,1,80
312,304,63371,2,0,B|368:304|408:320,1,80,2|0
448,256,63819,2,0,B|448:208|416:160,3,80,0|0|2|0
376,120,64714,2,0,B|336:96|296:96,1,80
232,136,65162,2,0,B|176:128|136:104,1,80,2|0
80,96,65610,2,0,B|80:160|144:216|192:248,1,160,0|2
400,160,66505,6,0,B|376:104|336:88,1,80
328,208,66953,2,0,B|312:248|296:280,1,80,2|0
256,176,67401,2,0,B|216:144|176:144,1,80
104,136,67848,1,2
72,160,67960,1,0
56,200,68072,1,0
40,280,68296,6,0,B|88:304|128:304,1,80
120,224,68744,2,0,B|176:216|208:200,1,80,2|0
208,128,69192,2,0,B|272:136|344:192|352:216,1,160,0|2
368,240,69751,1,0
408,256,69863,1,0
448,240,69975,1,0
472,208,70087,6,0,B|472:160|440:128,1,80
368,160,70535,2,0,B|320:112|272:112,1,80,2|0
224,120,70983,2,0,B|248:192|312:248|344:264,1,160,0|2
384,288,71654,1,0
312,328,71878,5,2
272,320,71990,1,0
240,296,72102,1,2
88,112,72550,5,2
112,80,72662,1,0
152,64,72774,1,2
392,112,73222,5,2
424,136,73333,1,0
440,176,73445,1,2
424,256,73669,6,0,B|392:288|328:304|264:312,1,160,0|8
120,296,75013,1,0
40,160,75460,2,0,B|72:120|136:104|184:96,1,160,0|8
344,96,76804,1,0
208,176,77251,2,0,B|160:192|136:208,1,80
24,320,78147,2,0,B|72:352|112:352,1,80,8|0
256,328,79042,2,0,B|320:296|352:248|368:200,1,160,0|8
432,72,80386,1,0
272,96,80833,6,0,B|208:104|184:120,2,80,0|0|8
408,184,82177,1,0
320,320,82625,2,0,B|256:320|192:296|160:272,1,160,0|8
104,128,83968,1,0
264,128,84416,2,0,B|248:88|216:56,2,80,0|0|8
416,184,85759,1,0
256,192,86207,2,0,B|272:256|320:296|368:320,1,160,0|8
424,168,87550,1,0
288,88,87998,6,0,B|248:72|184:64,1,80
136,104,88445,2,0,B|120:160|120:200,1,80,2|0
136,264,88893,2,0,B|192:296|272:304|304:304,1,160,0|2
368,280,89565,1,0
328,216,89789,2,0,B|280:184|240:176,1,80
264,104,90236,2,0,B|208:112|176:136,1,80,2|0
136,64,90684,2,0,B|96:120|96:168,1,80
80,216,91132,1,2
80,216,91356,1,0
80,296,91580,6,0,B|128:312|184:312,1,80
208,248,92028,2,0,B|256:240|296:240,1,80,2|0
368,224,92475,2,0,B|424:208|440:192,3,80,0|0|2|0
480,120,93371,2,0,B|416:80|312:80,1,160,0|2
168,56,94266,5,0
56,168,94714,1,2
136,168,94938,1,8
96,240,95162,2,0,B|144:296|248:312,1,160,0|2
320,304,95833,1,0
392,264,96057,2,0,B|440:232|456:200,1,80
408,144,96505,2,0,B|376:120|320:112,1,80,2|0
264,160,96953,2,0,B|208:168|160:192|120:240,1,160,0|2
104,312,97625,1,0
48,256,97848,2,0,B|48:200|64:120|104:80,1,160,0|2
144,48,98520,1,0
224,40,98744,6,0,B|272:48|312:80,1,80
264,144,99192,2,0,B|312:168|368:168,1,80,2|0
424,168,99639,2,0,B|448:208|448:248,3,80,0|0|2|0
448,320,100535,5,2
312,232,100983,1,2
288,72,101430,1,8
216,104,101654,1,8
152,152,101878,1,8
104,216,102102,1,8
80,288,102326,6,0,B|152:320|248:328,1,160,4|8
312,328,102998,1,2
384,288,103222,1,0
408,256,103333,1,2
416,216,103445,1,0
336,224,103669,2,0,B|288:200|232:192,1,80,8|0
184,176,104117,5,0
64,96,104341,1,2
200,40,104565,1,8
112,152,104789,1,2
88,296,105013,1,2
448,112,105460,6,0,B|400:120|368:144,1,80,8|0
400,216,105908,2,0,B|360:248|304:272|256:280,1,160,2|8
176,288,106580,1,2
104,264,106804,1,0
72,240,106916,1,2
56,200,107028,1,0
136,192,107251,2,0,B|168:160|200:144,1,80,8|0
264,96,107699,5,2
376,184,107923,1,2
432,56,108147,1,8
488,184,108371,1,2
376,272,108595,1,0
336,272,108707,5,2
296,272,108819,1,0
216,256,109042,1,8
176,248,109154,1,0
144,224,109266,1,8
128,192,109378,1,0
128,152,109490,6,0,B|128:120|184:80,1,80,4|0
216,152,109938,2,0,B|272:144|320:152,1,80,8|0
368,184,110386,2,0,B|400:240|400:272,3,80,2|0|8|0
368,328,111281,5,2
240,312,111505,1,2
136,232,111729,1,8
72,120,111953,1,2
56,40,112177,6,0,B|96:32|184:40|224:56,1,160,2|8
288,80,112848,1,2
224,128,113072,2,0,B|192:160|176:208,1,80,2|0
224,264,113520,2,0,B|280:280|328:272,1,80,8|0
352,208,113968,2,0,B|328:160|304:120,1,80,2|0
264,200,114416,1,8
256,192,114863,12,8,116207
80,104,116654,6,0,B|136:96|184:96,1,80
216,152,117102,2,0,B|224:200|216:248,1,80,2|0
136,224,117550,1,0
144,264,117662,1,0
160,304,117774,1,0
200,320,117886,1,0
240,328,117998,1,2
432,168,118445,6,0,B|384:144|344:144,1,80
368,224,118893,2,0,B|336:256|288:264,1,80,2|0
272,184,119341,1,0
232,192,119453,1,0
192,208,119565,1,0
176,248,119677,1,0
168,288,119789,1,2
32,168,120236,6,0,B|56:128|96:104,1,80
160,72,120684,2,0,B|208:56|240:56,1,80,2|0
320,56,121132,2,0,B|376:48|416:32,2,80,0|0|2
272,120,121804,1,0
208,168,122028,2,0,B|168:184|128:216,1,80
136,288,122475,2,0,B|168:328|208:344,1,80,2|0
248,280,122923,1,0
288,264,123035,1,0
312,232,123147,1,0
328,192,123259,1,0
328,152,123371,1,2
160,64,123819,6,0,B|112:96|96:144,1,80
104,200,124266,2,0,B|160:224|208:224,1,80,2|0
264,224,124714,2,0,B|328:232|360:248,2,80,0|0|2
224,152,125386,1,0
272,88,125610,2,0,B|320:80|376:80,1,80
416,128,126057,2,0,B|432:200|416:240,1,80,2|0
376,272,126505,1,0
344,296,126617,1,0
304,312,126729,1,0
264,312,126841,1,0
224,304,126953,1,2
256,232,127177,5,0
176,240,127401,2,0,B|112:232|72:208,1,80
32,176,127848,2,0,B|80:144|136:136,1,80,2|0
184,144,128296,2,0,B|192:192|224:232,1,80
288,256,128744,2,0,B|352:256|400:240,1,80,2|0
424,192,129192,5,2
440,152,129304,1,0
440,112,129416,1,2
192,48,129863,5,2
152,56,129975,1,0
120,80,130087,1,2
240,304,130535,5,2
280,296,130647,1,0
312,272,130759,1,2
256,192,130983,5,4
96,288,145311,6,0,B|144:280|184:264,1,80
232,208,145759,1,2
312,224,145983,1,0
384,200,146207,2,0,B|448:176|480:144,1,80
440,88,146654,2,0,B|416:48|384:32,1,80,2|0
328,88,147102,1,0
272,144,147326,1,0
248,64,147550,2,0,B|192:88|176:120,1,80,2|0
112,72,147998,2,0,B|104:120|120:168,1,80
48,192,148445,2,0,B|88:240|128:248,1,80,2|0
192,256,148893,5,0
176,176,149117,1,0
120,232,149341,2,0,B|96:280|96:312,1,80,2|0
168,344,149789,1,0
248,320,150013,1,0
312,272,150236,2,0,B|352:240|392:200|416:152,1,160,2|0
256,120,151132,6,0,B|192:96|160:96,1,80,2|0
104,120,151580,1,0
176,264,152028,1,2
240,312,152251,1,8
168,344,152475,2,0,B|120:336|72:304,1,80
48,248,152923,2,0,B|72:192|96:168,1,80,2|0
136,112,153371,2,0,B|112:64|88:48,2,80,0|0|2
168,184,154042,1,0
216,120,154266,6,0,B|272:96|312:96,1,80
352,152,154714,2,0,B|304:192|272:208,3,80,2|0|0|0
216,240,155610,2,0,B|152:272|144:296,1,80,2|0
80,328,156057,2,0,B|48:288|40:256,1,80
64,184,156505,2,0,B|104:152|152:144,1,80,2|0
96,80,156953,2,0,B|152:72|240:80|264:96,1,160,0|2
336,112,157625,1,0
400,168,157848,5,2
248,216,158296,1,2
136,336,158744,1,8
80,280,158968,1,8
56,208,159192,1,8
56,128,159416,1,8
64,48,159639,6,0,B|136:48|168:56,1,80,4|0
160,128,160087,2,0,B|216:136|248:136,1,80,8|0
304,88,160535,1,0
336,112,160647,1,2
352,152,160759,1,0
304,216,160983,2,0,B|320:280|344:296,1,80,8|0
408,328,161430,5,0
456,192,161654,1,2
312,168,161878,1,8
232,288,162102,1,2
104,216,162326,1,2
368,96,162774,6,0,B|320:64|272:48,1,80,8|0
240,112,163222,2,0,B|184:128|128:176|112:208,1,160,2|8
96,280,163893,1,2
168,312,164117,1,0
208,304,164229,1,2
240,288,164341,1,0
280,216,164565,2,0,B|320:192|376:176,1,80,8|0
424,144,165013,5,2
312,48,165236,1,2
200,144,165460,1,8
344,128,165684,1,2
432,240,165908,5,0
304,312,166132,1,2
200,216,166356,1,8
336,256,166580,1,2
224,344,166804,6,0,B|168:344|120:328,1,80,4|0
96,272,167251,2,0,B|96:216|128:184,1,80,8|0
176,248,167699,2,0,B|232:208|248:192,3,80,2|0|8|0
304,160,168595,5,2
416,96,168819,1,2
456,216,169042,1,8
352,296,169266,1,2
280,328,169490,6,0,B|224:336|168:344|112:336,1,160,2|8
64,280,170162,1,2
96,208,170386,2,0,B|136:176|192:168,1,80,2|0
128,104,170833,2,0,B|176:96|224:104,1,80,8|0
232,24,171281,2,0,B|288:64|304:96,1,80,2|0
352,128,171729,2,0,B|320:184|248:240|224:248,1,160,8|0
384,304,172625,5,8
432,240,172848,1,8
352,224,173072,2,0,B|280:200|248:200,1,80,2|0
280,120,173520,2,0,B|208:144|192:176,1,80,8|0
256,192,173968,12,0,175759
96,280,188296,6,0,B|152:264|192:248,1,80
232,304,188744,2,0,B|288:280|320:248,1,80,2|0
368,216,189192,2,0,B|304:176|280:168,3,80,0|0|2|0
224,200,190087,2,0,B|176:192|136:176,1,80
80,136,190535,2,0,B|128:104|184:96,1,80,2|0
232,88,190983,1,0
312,80,191207,1,0
288,152,191430,1,2
368,144,191654,1,0
424,200,191878,6,0,B|384:240|336:256,1,80
280,240,192326,2,0,B|232:272|208:296,1,80,2|0
272,344,192774,2,0,B|320:336|352:320,3,80,0|0|2|0
408,264,193669,2,0,B|400:200|376:160,1,80
312,160,194117,2,0,B|320:112|360:64,2,80,2|0|0
224,296,195013,5,2
96,200,195460,2,0,B|120:160|160:128,1,80
80,96,195908,2,0,B|144:56|184:56,1,80,2|0
216,104,196356,2,0,B|256:72|280:40,2,80,0|0|2
192,184,197028,1,0
272,160,197251,2,0,B|312:144|384:136,1,80
432,152,197699,1,2
392,224,197923,1,0
312,248,198147,1,0
256,48,198595,5,2
256,48,198819,1,0
256,48,199042,1,2
72,192,199490,1,2
256,336,199938,1,2
440,192,200386,1,2
296,120,200833,5,8
264,136,200945,1,0
240,168,201057,1,8
272,240,201281,1,8
272,240,201393,1,8
216,296,201617,1,8
296,320,201841,1,8
336,312,201953,1,8
368,296,202065,1,8
392,264,202177,1,4
312,40,202625,6,0,B|256:48|216:64,1,80,2|0
184,120,203072,2,0,B|248:152|288:152,1,80,8|0
336,176,203520,1,2
328,216,203632,1,0
296,240,203744,1,2
224,272,203968,2,0,B|176:288|136:288,1,80,8|2
80,240,204416,5,0
64,96,204639,1,2
208,120,204863,1,8
160,256,205087,1,2
280,176,205311,2,0,B|320:144|384:120|432:104,1,160,2|8
496,152,205983,5,2
472,232,206207,2,0,B|408:264|344:272|304:280,1,160,2|8
240,272,206878,1,2
176,224,207102,2,0,B|232:184|248:144,1,80,2|0
216,88,207550,2,0,B|280:72|320:72,1,80,8|0
376,88,207998,5,2
336,224,208222,1,2
208,160,208445,1,8
120,272,208669,1,2
80,136,208893,1,0
104,104,209005,5,2
136,80,209117,1,0
200,128,209341,1,8
232,104,209453,1,0
272,96,209565,1,8
312,96,209677,1,0
352,104,209789,6,0,B|392:128|408:168,1,80,4|0
336,208,210236,2,0,B|368:240|392:288,1,80,8|0
352,344,210684,1,0
312,336,210796,1,2
288,304,210908,1,0
216,344,211132,1,8
192,312,211244,1,0
176,272,211356,1,2
176,232,211468,1,0
184,192,211580,6,0,B|200:144|232:128,1,80,2|0
296,176,212028,2,0,B|328:144|336:80,1,80,8|0
384,200,212475,1,2
408,168,212587,1,0
424,136,212699,1,2
440,96,212811,1,0
448,56,212923,5,8
448,56,213147,1,0
448,56,213371,1,2
448,328,213819,1,8
64,328,214266,1,2
64,56,214714,1,8
208,128,215162,5,2
248,128,215274,1,0
288,136,215386,1,2
320,152,215498,1,0
352,176,215610,1,8
376,208,215722,1,2
384,248,215833,1,2
312,288,216057,6,0,B|256:304|216:304,1,80,2|0
232,224,216505,2,0,B|184:216|144:192,1,80,8|0
256,192,216953,12,0,220535
416,96,231281,6,0,B|368:80|288:80|240:80,1,160,4|0
104,136,232625,1,2
128,296,233072,2,0,B|176:312|248:312|288:320,1,160
424,232,234416,1,2
416,72,234863,2,0,B|384:120|352:136,1,80
200,128,235759,2,0,B|160:168|152:200,1,80,0|2
272,304,236654,2,0,B|320:288|352:264,2,80
112,304,237998,1,2
56,152,238445,6,0,B|104:112|200:88|216:88,1,160
360,80,239789,1,2
464,200,240236,2,0,B|416:256|336:288|320:288,1,160
168,280,241580,1,2
144,120,242028,2,0,B|248:64|376:120,1,240,0|2
368,280,243819,2,0,B|264:336|136:280,1,240,0|2
96,128,245610,6,0,B|152:112|256:104,1,160
416,104,246953,1,2
472,256,247401,2,0,B|424:232|392:224|352:216|312:216,1,160
160,216,248744,1,2
296,304,249192,2,0,B|336:288|368:256,3,80,0|0|0|2
320,104,250983,2,0,B|272:112|232:136,3,80,0|0|0|2
144,256,252774,6,0,B|208:256|312:240,1,160
456,200,254117,1,2
344,88,254565,2,0,B|264:80|176:96,1,160
48,176,255908,1,2
176,72,256356,2,0,B|240:72|328:80|384:136|404:169,1,240,0|2
336,304,258147,2,0,B|272:304|184:296|128:240|108:209,1,240,0|2
256,192,259938,5,4
