osu file format v9

[General]
AudioFilename: sayonara goodbye.mp3
AudioLeadIn: 1500
PreviewTime: 41108
Countdown: 0
SampleSet: Normal
StackLeniency: 0.7
Mode: 1
LetterboxInBreaks: 0

[Editor]
DistanceSpacing: 1.5
BeatDivisor: 4
GridSize: 4

[Metadata]
Title:Sayonara Goodbye
Artist:Hatsune Miku
Creator:j e a n
Version:Taiko
Source:NoboruP
Tags:Project Diva Vocaloid Vocaloid2

[Difficulty]
HPDrainRate:5
CircleSize:4
OverallDifficulty:4
ApproachRate:5
SliderMultiplier:1.6
SliderTickRate:2

[Events]
//Background and Video events
0,0,"Hatsune_Miku_WP_by_suezelin.png"
//Break Periods
//Storyboard Layer 0 (Background)
//Storyboard Layer 1 (Fail)
//Storyboard Layer 2 (Pass)
//Storyboard Layer 3 (Foreground)
//Storyboard Sound Samples
//Background Colour Transformations
3,100,163,162,255

[TimingPoints]
850,387.096774193548,4,1,0,81,1,0
41108,-100,4,1,2,85,0,1
59688,-100,4,1,2,80,0,0
84462,-100,4,1,2,85,0,1
102269,-100,4,1,2,90,0,0
135559,-100,4,1,2,90,0,1
160237,-100,4,1,2,90,0,0
160333,-100,4,1,2,100,0,1
172333,-100,4,1,2,100,0,0

[Colours]
Combo1 : 248,211,171
Combo2 : 154,250,190
Combo3 : 175,211,254
Combo4 : 250,247,175
Combo5 : 255,113,113

[HitObjects]
136,48,850,1,4
136,288,1237,1,0
264,84,1624,1,0
176,168,1817,1,0
396,268,2204,1,0
176,168,2591,1,0
264,84,2785,1,0
244,324,3172,1,0
20,244,3559,1,4
144,40,3946,1,0
80,144,4140,1,0
200,132,4333,1,8
192,252,4527,1,0
328,200,4720,1,0
336,80,4914,1,0
432,152,5108,1,8
456,268,5301,1,0
336,304,5495,1,0
216,312,5688,1,0
156,312,5785,1,0
96,308,5882,1,8
72,192,6075,1,0
164,116,6269,1,8
208,228,6462,1,0
288,112,6656,1,0
308,232,6849,1,8
436,140,7043,1,0
356,228,7237,1,0
452,296,7430,1,8
340,340,7624,1,0
272,292,7817,1,0
152,308,8011,1,0
452,296,8204,1,8
340,340,8398,1,0
240,92,8591,1,0
360,80,8785,1,0
360,140,8882,1,0
380,196,8979,1,8
320,300,9172,1,0
152,308,9366,1,0
100,276,9462,1,0
68,224,9559,1,8
108,112,9753,1,0
160,140,9849,1,0
220,144,9946,1,8
280,136,10043,1,0
340,136,10140,1,0
292,244,10333,1,0
452,296,10527,1,8
340,340,10721,1,0
412,72,10914,1,0
292,72,11108,1,0
452,296,11301,1,8
340,340,11495,1,8
92,240,11688,1,0
212,240,11882,1,0
272,240,11979,1,0
332,240,12075,1,8
260,336,12269,1,0
380,320,12462,1,8
436,88,12849,1,8
228,44,13237,1,8
272,84,13333,1,8
328,108,13430,1,8
380,136,13527,1,0
384,172,13624,1,0
184,268,13817,1,8
180,148,14011,1,0
280,212,14204,1,0
236,324,14398,1,8
352,288,14591,1,8
384,172,14785,1,0
280,112,14979,1,0
452,296,15172,1,8
340,340,15366,1,0
36,240,15559,1,8
144,292,15753,1,0
192,184,15946,1,8
260,284,16140,1,8
316,300,16237,1,8
372,316,16333,1,0
472,280,16720,1,0
312,100,17108,1,0
196,124,17301,1,0
256,228,17495,1,8
136,220,17688,1,0
112,276,17785,1,0
108,336,17882,1,0
228,340,18075,1,0
348,324,18269,1,8
380,208,18462,1,0
292,124,18656,1,0
180,76,18849,1,0
72,132,19043,1,8
184,180,19237,1,0
240,196,19333,1,0
296,220,19430,1,8
184,260,19624,1,0
64,272,19817,1,8
176,316,20011,1,0
236,332,20108,1,0
296,304,20204,1,8
360,204,20398,1,0
408,168,20495,1,0
468,164,20591,1,8
392,68,20785,1,4
276,100,20979,1,0
160,124,21172,1,4
184,244,21366,1,0
84,180,21559,1,4
60,296,21753,1,8
120,288,21849,1,0
236,320,22043,1,0
296,308,22140,1,8
380,224,22333,1,0
324,116,22527,1,4
224,52,22720,1,0
180,92,22817,1,0
140,136,22914,1,8
24,164,23108,1,0
96,260,23301,1,0
216,272,23495,1,0
300,356,23688,1,8
340,244,23882,1,0
456,212,24075,1,0
436,92,24269,1,0
380,116,24366,1,0
320,120,24462,1,8
200,116,24656,1,0
84,144,24849,1,0
116,260,25043,1,0
228,212,25237,1,8
316,296,25430,1,0
404,212,25624,1,0
380,96,25817,1,0
468,180,26011,1,8
436,296,26204,1,8
316,308,26398,1,0
196,316,26591,1,8
92,252,26785,1,8
116,132,26979,1,0
224,80,27172,1,0
260,316,27559,1,0
424,140,27946,1,0
328,216,28140,1,8
216,260,28333,1,0
328,216,28527,1,0
60,104,28720,1,4
124,204,28914,1,4
124,324,29108,1,8
272,136,29495,1,0
376,192,29688,1,0
320,208,29785,1,0
268,240,29882,1,8
196,144,30075,1,0
80,176,30269,1,0
84,296,30462,1,0
204,288,30656,1,8
260,312,30753,1,0
380,328,30946,1,0
436,308,31043,1,8
420,188,31237,1,0
372,152,31333,1,0
320,120,31430,1,8
264,104,31527,1,8
204,100,31624,1,0
144,100,31720,1,0
84,116,31817,1,8
64,236,32011,1,0
176,192,32204,1,8
188,320,32591,1,0
308,316,32785,1,0
368,304,32882,1,0
428,288,32979,1,8
392,172,33172,1,0
312,80,33366,1,0
192,84,33559,1,0
140,112,33656,1,0
136,172,33753,1,8
176,224,33849,1,0
228,252,33946,1,0
120,304,34140,1,0
240,316,34333,1,0
300,328,34430,1,0
360,316,34527,1,8
392,200,34720,1,0
288,140,34914,1,4
180,84,35108,1,0
72,136,35301,1,8
112,252,35495,1,0
232,236,35688,1,0
256,292,35785,1,8
376,300,35979,1,8
408,248,36075,1,0
384,132,36269,1,0
268,100,36462,1,4
148,112,36656,1,0
120,228,36849,1,8
236,192,37043,1,0
140,268,37237,1,0
172,320,37333,1,8
288,296,37527,1,8
288,296,37624,1,0
348,192,37817,1,0
260,108,38011,1,4
144,128,38204,1,0
104,240,38398,1,0
60,352,38591,1,0
136,260,38785,1,4
224,344,38979,1,0
304,336,39172,1,0
380,244,39366,1,12
228,64,39753,1,12
112,96,39946,1,0
196,180,40140,1,8
316,180,40333,1,12
216,244,40527,1,8
104,288,40720,1,0
116,348,40817,1,0
176,340,40914,1,0
236,344,41011,1,0
296,340,41108,1,0
376,248,41301,1,0
376,128,41495,1,8
256,128,41688,1,0
136,132,41882,1,8
88,172,41979,1,0
116,288,42172,1,0
168,260,42269,1,8
288,264,42462,1,0
408,248,42656,1,0
324,164,42849,1,0
264,60,43043,1,8
156,112,43237,1,8
44,152,43430,1,0
112,384,43817,1,0
252,192,44204,1,0
340,276,44398,1,0
388,312,44495,1,0
424,264,44591,1,8
304,280,44785,1,0
184,292,44979,1,0
72,248,45172,1,0
56,188,45269,1,0
96,144,45366,1,8
196,80,45559,1,0
308,120,45753,1,0
416,168,45946,1,8
320,252,46140,1,8
200,236,46333,1,8
124,296,46527,1,8
176,324,46624,1,0
236,336,46720,1,0
296,340,46817,1,0
356,344,46914,1,8
360,224,47108,1,0
248,176,47301,1,0
168,84,47495,1,0
452,296,47688,1,8
340,340,47882,1,0
292,232,48075,1,0
244,268,48172,1,0
180,168,48366,1,0
188,108,48462,1,8
396,200,48656,1,0
316,228,48849,1,8
200,260,49043,1,8
252,288,49140,1,0
308,312,49237,1,0
428,308,49430,1,8
328,244,49624,1,0
276,212,49720,1,0
224,180,49817,1,8
176,152,49914,1,8
120,180,50011,1,0
92,232,50108,1,0
80,292,50204,1,8
120,336,50301,1,8
176,356,50398,2,0,B|296:364|388:204|184:128|424:40|424:320,1,480
76,192,52140,1,0
188,152,52333,1,0
244,260,52527,1,0
304,156,52720,1,8
364,172,52817,1,0
396,224,52914,1,0
396,284,53011,1,0
368,340,53108,1,8
248,320,53301,1,0
132,292,53495,1,0
56,200,53688,1,0
144,132,53882,1,8
260,100,54075,1,0
316,84,54172,1,0
376,80,54269,1,0
420,192,54462,1,0
300,176,54656,1,8
224,268,54849,1,0
344,268,55043,1,0
240,328,55237,1,0
132,276,55430,1,8
120,156,55624,1,0
176,136,55720,1,0
236,128,55817,1,0
344,76,56011,1,0
320,192,56204,1,8
440,176,56398,1,0
256,192,56591,12,0,58140
272,248,58527,5,0
152,264,58720,1,0
148,144,58914,1,0
264,116,59108,1,0
324,112,59204,1,0
384,112,59301,1,8
416,164,59398,1,0
444,216,59495,1,0
444,276,59591,1,0
412,328,59688,1,0
192,236,60075,1,0
8,80,60462,1,0
128,92,60656,1,0
248,104,60849,1,8
368,88,61043,1,0
340,204,61237,1,0
268,300,61430,1,0
208,312,61527,1,0
148,312,61624,1,8
52,240,61817,1,0
104,144,62011,1,8
272,80,62204,1,0
332,84,62301,1,0
336,144,62398,1,8
380,184,62495,1,8
396,240,62591,1,8
276,252,62785,1,0
160,288,62979,1,0
260,352,63172,1,8
212,244,63366,1,0
176,128,63559,1,0
140,176,63656,1,8
76,276,63849,1,0
136,268,63946,1,8
240,208,64140,1,0
404,32,64527,1,0
376,148,64720,1,0
372,268,64914,1,0
256,244,65108,1,0
24,188,65495,1,0
256,120,65882,1,4
40,184,66269,1,8
272,240,66656,1,0
172,176,66849,1,0
284,132,67043,1,8
404,136,67237,1,0
376,188,67333,1,0
384,248,67430,1,8
268,280,67624,1,0
148,264,67817,1,8
192,152,68011,1,8
72,152,68204,1,0
184,112,68398,1,0
300,88,68591,1,8
360,80,68688,1,8
372,140,68785,1,0
376,188,68882,1,0
380,248,68979,1,0
264,272,69172,1,0
148,248,69366,1,8
104,204,69462,1,0
164,100,69656,1,0
220,120,69753,1,8
328,68,69946,1,0
380,176,70140,1,0
408,292,70333,1,0
292,264,70527,1,8
148,248,70720,1,8
452,296,70914,1,8
340,340,71108,1,8
144,80,71301,1,0
204,76,71398,1,0
264,84,71495,1,8
312,120,71591,1,8
356,164,71688,1,0
248,220,71882,1,0
236,340,72075,1,0
348,292,72269,1,0
452,236,72462,1,8
212,240,72849,1,0
96,204,73043,1,8
120,324,73237,1,0
168,216,73430,1,8
220,108,73624,1,0
332,152,73817,1,0
344,92,73914,1,0
396,124,74011,1,8
352,236,74204,1,0
252,300,74398,1,8
132,288,74591,1,0
116,228,74688,1,0
100,172,74785,1,0
120,52,74979,1,0
176,76,75075,1,0
232,88,75172,1,0
276,200,75366,1,0
352,108,75559,1,8
212,240,75946,1,0
96,204,76140,1,8
120,324,76334,1,8
168,216,76527,1,8
220,108,76721,1,0
332,152,76914,1,0
344,92,77011,1,0
396,124,77108,1,8
352,236,77301,1,8
252,300,77495,1,8
132,288,77688,1,8
108,232,77785,1,0
100,172,77882,1,0
108,112,77979,1,0
120,52,78076,1,0
232,88,78269,1,4
276,200,78463,1,0
352,108,78656,1,8
424,204,78849,1,0
332,280,79043,1,0
216,244,79237,1,0
184,296,79333,1,0
136,260,79430,1,8
112,144,79624,1,0
216,88,79817,1,4
336,88,80011,1,0
360,208,80204,1,8
256,268,80398,1,0
136,264,80591,1,0
148,144,80785,1,0
184,96,80882,1,0
240,72,80979,1,8
360,84,81172,1,0
416,104,81269,1,0
444,160,81366,1,8
324,176,81559,1,0
208,212,81753,1,8
52,224,82140,1,0
148,296,82333,1,8
268,292,82527,1,0
388,288,82720,1,4
324,176,83108,1,4
208,144,83301,1,4
92,120,83495,1,4
124,236,83688,1,0
172,272,83785,1,0
224,304,83882,1,8
280,328,83979,1,8
340,340,84075,1,0
400,344,84172,1,0
460,348,84269,1,8
460,288,84366,1,8
452,228,84462,1,0
384,128,84656,1,0
272,84,84849,1,8
152,104,85043,1,0
128,220,85237,1,0
24,280,85430,1,0
144,288,85624,1,8
264,272,85817,1,0
368,208,86011,1,0
356,88,86204,1,0
300,112,86301,1,0
240,116,86398,1,8
120,116,86591,1,0
120,236,86785,1,0
332,344,87172,1,4
452,228,87559,1,4
384,128,87753,1,0
272,84,87946,1,8
152,104,88140,1,0
128,220,88334,1,0
24,280,88527,1,0
144,288,88721,1,8
264,272,88914,1,0
368,208,89108,1,0
356,88,89301,1,0
300,112,89398,1,0
240,116,89495,1,8
120,116,89688,1,0
56,216,89882,1,0
80,260,90269,1,4
280,80,90656,1,0
316,196,90849,1,8
196,180,91043,1,8
88,232,91237,1,0
140,260,91333,1,0
192,292,91430,1,0
312,300,91624,1,8
408,232,91817,1,8
424,112,92011,1,0
372,80,92108,1,0
344,24,92204,1,0
244,68,92398,1,8
128,96,92591,1,8
92,212,92785,1,0
208,184,92979,1,4
224,304,93172,1,0
252,252,93269,1,0
284,200,93366,1,8
296,320,93559,1,0
384,236,93753,1,4
432,128,93946,1,0
312,144,94140,1,8
192,136,94333,1,8
160,188,94430,1,8
136,244,94527,1,0
100,292,94624,1,0
152,320,94720,1,8
212,320,94817,1,8
272,320,94914,1,0
332,316,95011,1,0
392,320,95108,1,8
432,276,95204,1,8
428,216,95301,1,0
312,188,95495,1,12
228,104,95688,1,12
108,104,95882,1,12
28,192,96075,1,4
136,244,96269,1,4
24,284,96462,1,12
144,288,96656,1,4
264,268,96849,2,0,B|376:272|408:176|488:-28|280:56|180:84,1,480
72,136,98398,1,0
88,256,98591,1,0
192,192,98785,1,8
268,284,98979,1,8
288,168,99172,1,0
356,68,99366,1,0
388,116,99462,1,0
388,176,99559,1,8
388,296,99753,1,0
284,236,99946,1,4
180,172,100140,1,0
60,156,100333,1,8
32,272,100527,1,8
148,300,100720,1,4
268,300,100914,1,0
316,336,101011,1,0
376,328,101108,1,8
328,220,101301,1,8
268,116,101495,1,4
148,96,101688,1,0
196,208,101882,1,8
80,232,102075,1,8
148,300,102269,1,4
264,328,102462,1,4
356,252,102656,1,4
192,76,103043,1,0
240,188,103237,1,0
296,80,103430,1,8
320,196,103624,1,0
208,240,103817,1,0
88,228,104011,1,0
32,208,104108,1,0
56,152,104204,1,8
176,164,104398,1,0
296,148,104591,1,0
212,60,104785,1,0
236,176,104979,1,8
240,296,105172,1,8
300,192,105366,1,0
64,232,105753,1,4
296,168,106140,1,0
332,52,106333,1,0
312,108,106430,1,0
252,116,106527,1,8
132,132,106720,1,0
96,180,106817,1,0
144,216,106914,1,0
156,336,107108,1,0
200,296,107204,1,0
260,296,107301,1,8
380,292,107495,1,0
356,176,107688,1,0
144,64,108075,5,8
340,204,108462,1,4
160,176,109237,5,0
184,292,109430,1,0
244,292,109527,1,0
304,280,109624,1,0
296,160,109817,1,0
416,184,110011,1,8
296,68,110204,1,0
240,48,110301,1,0
180,44,110398,1,0
296,160,110591,1,0
416,184,110785,1,8
64,304,110979,1,0
120,324,111075,1,0
180,312,111172,1,0
296,276,111366,1,0
368,180,111559,1,12
324,124,111946,1,12
264,76,112333,1,0
148,108,112527,1,0
120,160,112624,1,0
132,220,112720,1,8
204,316,112914,1,8
320,284,113108,1,0
432,240,113301,1,8
356,148,113495,1,0
296,148,113591,1,0
244,120,113688,1,0
336,44,113882,1,0
348,164,114075,1,8
288,268,114269,1,0
180,220,114462,1,8
136,332,114656,1,0
256,332,114849,1,0
316,328,114946,1,0
376,316,115043,1,8
412,268,115140,1,0
432,212,115237,1,0
296,160,115430,1,4
416,184,115624,1,4
148,88,115817,1,4
88,192,116011,1,0
144,212,116108,1,0
168,264,116204,1,8
168,324,116301,1,8
296,160,116398,1,0
416,184,116592,1,0
280,200,116979,1,4
336,96,117172,1,4
416,184,117366,1,4
348,280,117559,1,0
304,236,117656,1,0
280,292,117753,1,0
56,212,118140,1,0
249,3,118527,2,0,B|161:129|237:242|400:261|488:160|444:34,1,480
236,172,120269,1,0
116,172,120462,1,8
144,288,120656,1,0
264,288,120849,1,0
376,240,121043,1,0
348,124,121237,1,8
232,92,121430,1,0
116,124,121624,1,0
192,352,122011,1,8
288,132,122398,1,0
280,252,122591,1,0
388,200,122785,1,8
268,220,122979,1,0
28,216,123366,1,0
144,236,123559,1,8
160,128,123946,1,0
276,96,124140,1,0
332,80,124237,1,0
392,72,124333,1,8
376,128,124430,1,0
340,180,124527,1,0
116,124,124720,1,0
192,352,125107,1,8
288,132,125494,1,0
280,252,125687,1,0
388,200,125881,1,8
268,220,126075,1,0
28,216,126462,1,0
144,236,126655,1,8
160,128,127042,1,0
276,96,127236,1,0
332,80,127333,1,0
392,72,127429,1,8
376,128,127526,1,0
340,180,127623,1,0
276,284,127817,1,0
156,296,128011,1,0
240,212,128204,1,8
124,236,128398,1,8
56,140,128591,1,0
156,72,128785,1,8
208,100,128882,1,0
332,92,129075,1,0
392,100,129172,1,0
416,156,129269,1,0
420,216,129366,1,8
332,300,129559,1,8
216,276,129753,1,0
100,248,129946,1,8
148,140,130140,1,0
156,72,130333,1,8
208,100,130430,1,0
332,92,130623,1,0
392,100,130720,1,0
416,156,130817,1,0
420,216,130914,1,8
332,300,131107,1,8
216,276,131301,1,0
100,248,131494,1,8
148,140,131688,1,0
264,168,131882,1,0
248,288,132075,1,8
336,204,132269,1,0
336,84,132462,1,0
216,104,132656,1,0
132,188,132849,1,8
160,304,133043,1,0
280,288,133237,1,0
396,256,133430,1,0
432,208,133527,1,0
432,148,133624,1,8
320,112,133817,1,0
84,80,134204,1,0
148,184,134398,1,0
208,288,134591,1,8
328,304,134785,1,0
360,252,134882,1,0
384,196,134979,1,0
360,140,135075,1,0
336,84,135172,1,0
288,52,135269,1,0
228,40,135366,1,0
204,132,135559,1,0
120,216,135753,1,8
64,232,135849,1,8
12,272,135946,1,0
128,304,136140,1,0
252,268,136333,1,0
328,176,136527,1,8
368,132,136624,1,8
420,104,136720,1,0
428,224,136914,1,0
332,292,137108,1,8
212,276,137301,1,8
140,180,137495,1,0
220,88,137688,1,8
264,200,137882,1,0
332,100,138075,1,0
380,60,138172,1,0
432,88,138269,1,8
452,204,138462,1,0
204,132,138656,1,0
120,216,138850,1,8
64,232,138946,1,8
12,272,139043,1,0
128,304,139237,1,0
252,268,139430,1,0
328,176,139624,1,8
368,132,139721,1,8
420,104,139817,1,0
428,224,140011,1,0
332,292,140205,1,12
212,276,140398,1,8
140,180,140592,1,4
220,88,140785,1,8
264,200,140979,1,4
332,100,141172,1,0
380,60,141269,1,0
432,88,141366,1,8
452,144,141462,1,0
452,204,141559,1,0
368,292,141753,1,0
248,284,141946,1,0
132,248,142140,1,8
108,132,142333,1,0
164,112,142430,1,0
224,100,142527,1,0
344,108,142720,1,0
400,216,142914,1,8
288,260,143108,1,8
236,292,143204,1,8
180,316,143301,1,8
76,256,143495,1,0
188,216,143688,1,0
108,132,143882,1,0
224,104,144075,1,4
336,152,144462,1,4
312,368,144849,1,0
84,288,145237,1,0
200,268,145430,1,8
184,148,145624,1,0
272,228,145817,1,0
348,136,146011,1,8
256,140,146591,1,12
136,116,146785,1,12
120,236,146979,1,12
232,276,147172,1,4
352,268,147366,1,0
404,236,147462,1,0
424,180,147559,1,0
440,60,147753,1,0
320,72,147946,2,0,B|220:160|84:48,1,240
80,332,148720,1,0
156,240,148914,1,0
216,236,149011,1,0
276,228,149108,1,8
272,348,149301,1,0
372,280,149495,1,0
404,164,149688,1,0
312,88,149882,1,0
192,100,150075,1,0
84,148,150269,1,0
124,260,150462,1,0
236,300,150656,1,0
348,264,150849,1,0
252,188,151043,1,4
156,116,151430,1,4
104,260,152204,1,0
220,292,152398,1,0
464,28,152979,1,8
372,104,153172,1,8
256,136,153366,1,0
136,152,153559,1,0
224,232,153753,1,8
344,244,153946,1,8
264,332,154140,1,0
144,316,154333,1,0
72,220,154527,1,8
96,104,154720,1,8
156,100,154817,1,8
208,72,154914,1,0
328,68,155108,1,0
376,176,155301,1,8
464,92,155495,1,8
468,152,155591,1,8
464,212,155688,1,0
384,304,155882,1,0
296,224,156075,1,8
180,192,156269,1,0
128,300,156462,1,0
176,340,156559,1,0
236,348,156656,1,8
296,344,156753,1,8
384,304,156849,1,0
432,268,156946,1,0
448,212,157043,1,8
440,152,157140,1,8
396,112,157237,1,0
280,148,157430,1,0
160,152,157624,1,8
104,260,157817,1,0
224,252,158011,1,0
228,132,158204,1,0
288,236,158398,1,12
408,228,158591,1,0
336,132,158785,1,0
220,164,158979,1,8
164,140,159075,1,0
168,200,159172,1,0
168,264,159269,1,0
224,252,159366,1,8
280,272,159462,1,0
328,308,159559,1,0
388,312,159656,1,0
440,284,159753,1,0
476,236,159849,1,0
484,176,159946,1,8
380,116,160140,1,0
260,136,160333,1,4
140,132,160527,1,0
96,244,160720,1,8
204,300,160914,1,0
260,280,161011,1,0
320,268,161108,1,0
336,148,161301,1,0
400,248,161495,1,8
420,128,161688,1,0
300,132,161882,1,0
180,152,162075,1,0
168,212,162172,1,0
176,272,162269,1,12
416,292,162656,1,12
352,60,163043,1,12
236,92,163237,1,0
208,252,163430,1,0
180,152,163624,1,0
80,220,163817,1,8
64,100,164011,1,0
108,60,164108,1,0
168,60,164204,1,0
284,88,164398,1,0
324,200,164591,1,8
288,316,164785,1,0
344,300,164882,1,0
400,280,164979,1,0
280,284,165172,1,0
364,196,165366,1,8
344,76,165559,1,0
404,84,165656,1,0
436,136,165753,1,12
148,132,166140,1,12
244,304,166527,1,12
360,272,166720,1,0
428,172,166914,1,8
312,148,167108,1,0
256,128,167204,1,0
196,120,167301,1,0
136,124,167398,1,0
76,132,167495,1,0
112,248,167688,1,8
232,244,167882,1,0
144,328,168075,1,0
264,316,168269,1,0
380,292,168462,1,8
400,172,168656,1,8
388,112,168753,1,8
332,92,168849,1,0
272,88,168946,1,0
212,88,169043,1,0
116,160,169237,1,0
192,252,169430,1,8
312,232,169624,1,4
100,120,170011,1,0
312,232,170398,1,8
208,176,170591,1,0
208,176,170979,1,0
208,176,171366,1,0
184,60,171559,1,8
324,252,171946,1,4
364,16,172333,1,2
