osu file format v9

[General]
AudioFilename: Sayonara Goodbye.mp3
AudioLeadIn: 2000
PreviewTime: 40993
Countdown: 0
SampleSet: Soft
StackLeniency: 0.7
Mode: 0
LetterboxInBreaks: 1

[Editor]
Bookmarks: 141300
DistanceSpacing: 1
BeatDivisor: 4
GridSize: 4

[Metadata]
Title:Sayonara Goodbye
Artist:Hatsune Miku
Creator:banvi
Version:Normal
Source:NoboruP
Tags:Vocaloid Vocaloid2 reonaid project diva arcade Nivalis Niva valuable KayeSara

[Difficulty]
HPDrainRate:3
CircleSize:4
OverallDifficulty:3
ApproachRate:5
SliderMultiplier:1.3
SliderTickRate:1

[Events]
//Background and Video events
0,0,"bgh.jpg"
//Break Periods
2,96983,107971
//Storyboard Layer 0 (Background)
//Storyboard Layer 1 (Fail)
//Storyboard Layer 2 (Pass)
//Storyboard Layer 3 (Foreground)
//Storyboard Sound Samples
//Background Colour Transformations
3,100,163,162,255

[TimingPoints]
784,387.096774193548,4,2,0,65,1,0
977,-100,4,1,0,65,0,0
1751,-100,4,2,0,65,0,0
1945,-100,4,1,0,65,0,0
2719,-100,4,2,0,65,0,0
3493,-100,4,2,1,80,0,0
3880,-100,4,1,0,65,0,0
4074,-100,4,2,1,80,0,0
14719,-100,4,2,0,30,0,0
15009,-100,4,2,0,40,0,0
15203,-100,4,2,0,50,0,0
15880,-100,4,2,0,60,0,0
16267,-100,4,1,0,65,0,0
16458,-100,4,2,1,70,0,0
28848,-100,4,2,1,80,0,0
40461,-100,4,1,1,40,0,0
41042,-100,4,2,1,80,0,1
53429,-100,4,2,1,80,0,0
59622,-100,4,1,0,65,0,0
59816,-100,4,2,1,70,0,0
62622,-100,4,2,1,35,0,0
62816,-100,4,2,1,70,0,0
63203,-100,4,2,1,40,0,0
63396,-100,4,2,1,70,0,0
71042,-100,4,2,1,80,0,0
83816,-100,4,1,1,40,0,0
84396,-100,4,2,1,80,0,1
96783,-100,4,2,1,80,0,0
115267,-100,4,1,1,70,0,0
115848,-100,4,2,1,80,0,0
116719,-100,4,1,1,70,0,0
117493,-100,4,2,1,80,0,0
120300,-100,4,1,0,30,0,0
120493,-100,4,1,0,40,0,0
120687,-100,4,1,0,50,0,0
120880,-100,4,1,0,60,0,0
121074,-100,4,1,0,70,0,0
121267,-100,4,1,0,80,0,0
121461,-100,4,2,1,60,0,0
127558,-100,4,2,1,80,0,0
134913,-100,4,1,1,40,0,0
135493,-100,4,2,1,85,0,1
159396,-100,4,2,1,45,0,1
159590,-100,4,2,1,85,0,1
159783,-100,4,2,1,65,0,1
159977,-100,4,2,1,85,0,1
167235,-100,4,2,1,70,0,1
167816,-100,4,2,1,60,0,1
168590,-100,4,2,1,50,0,1
169558,-100,4,2,0,65,0,0
169751,-100,4,1,0,65,0,0
170525,-100,4,2,0,65,0,0
170719,-100,4,1,0,65,0,0
171493,-100,4,2,0,65,0,0
171687,-100,4,1,0,65,0,0
172267,-100,4,2,0,20,0,0

[Colours]
Combo1 : 232,228,85
Combo2 : 66,196,82
Combo3 : 228,152,237
Combo4 : 21,83,210

[HitObjects]
28,344,784,1,2
68,220,1171,1,0
196,236,1558,2,0,B|196:204|196:204|180:156,1,65,0|2
308,128,2138,1,0
308,128,2525,2,0,B|308:160|308:160|324:208,1,65,0|2
392,296,3106,6,0,B|477:333|508:226,2,130,0|4|4
268,332,4267,2,0,B|248:356|208:360,2,65,8|0|0
172,244,5042,2,0,B|140:246|109:221,2,65,8|0|0
132,120,5816,2,0,B|108:100|103:60,2,65,8|0|0
252,168,6590,6,0,B|292:168|292:168|336:200|375:168,1,130,8|4
436,56,7364,2,0,B|395:56|395:56|352:24|312:55,1,130,8|0
312,53,8138,2,0,B|374:168,1,130,8|0
460,268,8913,2,0,B|476:288|475:339|426:355|394:344,1,130,8|0
336,324,9493,1,8
296,272,9687,2,0,B|304:236|272:192,2,65,0|8|4
208,368,10461,6,0,B|136:420|84:336,1,130,8|0
84,224,11235,2,0,B|113:149|48:105,2,130,8|0|8
208,260,12396,1,2
328,208,12783,1,2
452,248,13171,1,4
452,248,13558,6,0,B|468:176,1,65,0|2
328,208,14138,1,2
328,208,14332,2,0,B|320:136,2,65,0|0|4
208,260,15106,1,4
84,224,15493,2,0,B|72:176|72:176|96:136|76:84,2,130,4|4|0
304,84,17042,6,0,B|336:20|416:40,1,130,0|2
468,160,17816,2,0,B|436:223|357:203,1,130,0|2
232,172,18590,1,0
104,200,18977,1,2
104,200,19364,6,0,B|144:264|108:328,1,130,0|2
45,323,19945,2,0,B|191:324,1,130,0|2
296,376,20719,2,0,B|379:345|342:257,1,130,2|0
320,216,21300,1,8
248,108,21687,2,0,B|228:72|236:20,2,65,2|0|8
132,168,22461,6,0,B|56:138|20:208,2,130,4|2|0
200,280,23622,1,8
328,280,24009,2,0,B|354:300|392:290|392:290|410:255|397:225,1,130,0|2
368,104,24783,2,0,B|364:60|388:28,2,65,0|2|8
256,36,25558,5,0
144,104,25945,2,0,B|148:60|124:28,2,65,0|2|0
52,192,26719,1,8
140,288,27106,2,0,B|220:288|256:336|256:336|296:288|376:288,1,260,2|0
460,192,28267,2,0,B|464:148|496:120,2,65,0|0|4
344,136,29042,5,8
216,148,29429,1,0
92,108,29816,2,0,B|100:72|68:32,2,65,8|0|2
84,172,30396,1,0
56,232,30590,2,0,B|47:309|130:336,1,130,8|2
244,300,31364,1,8
372,288,31751,6,0,B|449:279|483:351,2,130,4|8|0
332,164,32913,2,0,B|328:124|360:88,1,65,8|2
256,12,33493,1,0
256,12,33687,1,10
163,102,34074,2,0,B|184:124|180:164,2,65,2|0|8
32,108,34848,5,4
12,236,35235,1,8
128,296,35622,2,0,B|128:216,2,65,2|0|8
244,236,36396,5,4
216,108,36783,1,8
332,52,37171,2,0,B|332:136,2,65,2|0|8
448,108,37945,5,4
416,236,38332,1,8
320,324,38719,2,0,B|260:360|180:320,1,130,2|8
148,284,39300,2,0,B|112:220|152:144,1,130,4|0
168,100,39880,2,0,B|172:60|124:24,2,65,10|2|0
256,196,40654,1,8
380,236,41042,5,4
468,140,41429,2,0,B|530:89|496:18,2,130,8|2|8
348,88,42590,1,2
220,108,42977,1,8
96,72,43364,1,2
40,188,43751,6,0,B|8:172|-38:173,2,65,8|0|4
132,280,44525,1,8
256,320,44913,1,2
380,280,45300,1,8
472,188,45687,2,0,B|504:172|550:173,2,65,2|0|8
364,116,46461,2,0,B|388:40|320:-8,2,130,0|4|4
236,88,47622,5,8
136,168,48009,2,0,B|56:176|28:92,2,130,2|8|2
216,272,49171,2,0,B|232:304|228:340,2,65,2|0|8
352,248,49945,1,2
456,324,50332,6,0,B|480:304|480:276|480:276|464:236|482:197,1,130,4|0
492,140,50913,1,2
388,64,51300,1,2
388,64,51493,2,0,B|364:28|376:-12,2,65,8|0|4
256,192,52267,12,4,53429
400,100,54203,6,0,B|443:27|520:32,2,130,0|8|0
304,188,55364,1,8
344,312,55751,2,0,B|360:336|360:384,2,65,2|0|8
304,188,56525,1,4
173,188,56913,2,0,B|144:189|102:165,2,65,2|0|0
92,288,57687,6,0,B|56:292|24:312,2,65,2|0|0
220,312,58461,1,2
220,312,58654,2,0,B|268:320|308:316,1,65
408,280,59235,1,2
408,280,59429,2,0,B|416:244|412:208,1,65,0|4
412,84,60009,5,2
284,56,60396,2,0,B|268:16|221:12,1,65,0|0
224,80,60783,2,0,B|193:80|177:119,1,65,0|2
116,304,61558,2,0,B|40:328|-4:256,2,130,8|2|8
240,272,62719,2,0,B|316:248|360:320,1,130,4|0
320,368,63300,2,0,B|392:248,1,130,4|8
416,200,63880,1,2
448,144,64074,5,0
328,92,64461,2,0,B|312:60|332:24,2,65,0|2|0
348,155,65042,2,0,B|377:226|305:289,1,130,0|2
196,232,65816,2,0,B|117:206|71:288,2,130,4|8|0
196,232,66783,6,0,B|176:152,1,65,0|8
256,64,67364,2,0,B|256:136,2,65,0|2|8
331,168,68138,2,0,B|316:232,2,65,0|0|8
440,240,68913,6,0,B|416:328|504:360,2,130,0|8|2
460,112,70074,2,0,B|480:72|456:32,2,65,0|0|2
336,76,70848,1,8
208,96,71235,2,0,B|216:60|188:32,2,65,0|8|0
144,84,71816,2,0,B|140:136|176:168,1,65,2|4
120,272,72396,6,0,B|40:307|-12:226,2,130,8|2|8
180,244,73364,1,2
292,180,73751,2,0,B|376:204,1,65,0|8
472,144,74332,2,0,B|396:120,2,65,0|0|8
452,272,75106,6,0,B|448:311|448:311|428:368|364:356,1,130,4|8
249,357,75880,2,0,B|200:367|179:310|179:310|176:271,1,130,2|8
176,208,76461,2,0,B|192:140|128:80,1,130,2|0
80,120,77042,2,0,B|204:52,2,130,8|2|8
16,232,78203,5,4
132,292,78590,1,8
260,268,78977,2,0,B|267:321|314:352,2,97.5,0|2|0
276,204,79751,5,4
352,96,80138,1,8
472,140,80525,2,0,B|504:92|496:20,2,97.5,0|2|0
484,204,81300,5,4
448,328,81687,1,8
320,312,82074,2,0,B|256:276|192:316,1,130,2|8
136,336,82654,2,0,B|100:272|140:208,1,130,4|0
172,156,83235,2,0,B|116:112,2,65,8|2|0
256,256,84009,1,8
340,156,84396,6,0,B|316:92|364:16,2,130,4|8|2
384,280,85558,1,8
268,336,85945,2,0,B|208:380|144:336,1,130,2|8
88,224,86719,2,0,B|136:164|108:84,2,130,2|8|4
216,208,87880,5,8
340,244,88267,1,2
468,212,88654,1,8
488,84,89042,2,0,B|504:48|496:8,2,65,0|2|0
368,36,89816,2,0,B|292:4|228:64,1,130,2|8
132,116,90590,6,0,B|52:104|26:24,2,130,4|8|2
188,232,91751,1,8
124,344,92138,2,0,B|96:324|48:320,2,65,0|2|0
180,380,92719,2,0,B|216:384|256:368,1,65,0|2
368,332,93300,6,0,B|384:295|384:295|428:265|405:209,1,130,4|0
376,92,94074,2,0,B|360:60|360:28,1,65,0|2
296,140,94654,1,2
296,140,94848,2,0,B|268:112|228:96,2,65,8|0|4
256,192,95622,12,4,96783
456,164,109171,6,0,B|492:92|413:21,2,130,4|8|2
404,284,110332,2,0,B|425:319|477:317,2,65,8|0|2
324,184,111106,2,0,B|343:147|316:104,2,65,8|0|2
276,304,111880,2,0,B|234:304|210:350,2,65,8|0|4
188,208,112654,5,8
144,84,113042,1,2
256,20,113429,1,8
368,84,113816,1,2
324,208,114203,1,8
316,336,114590,2,0,B|256:376|192:336,1,130,2|4
88,264,115364,6,0,B|88:232|68:196,2,65,0|0|0
164,160,116138,2,0,B|172:84|256:84,1,130,2|2
384,76,116913,2,0,B|383:39|411:13,2,65
380,204,117687,2,0,B|388:288|492:296,2,130,2|2|4
268,140,118848,6,0,B|200:152,1,65,0|2
88,92,119429,1,2
88,92,119622,2,0,B|168:76,2,65,0|8|0
256,192,120396,12,4,121558
184,112,122332,5,8
104,212,122719,2,0,B|124:292,1,65,0|8
216,364,123300,1,8
216,364,123493,2,0,B|240:284,2,65,0|2|0
344,380,124267,1,2
456,316,124654,6,0,B|522:256|465:174,1,130,4|0
352,168,125429,2,0,B|285:227|342:309,1,130,8|0
388,316,126009,1,2
268,364,126396,2,0,B|240:380|208:384,1,65,0|2
132,276,126977,2,0,B|168:208|144:132,2,130,8|2|4
20,340,128138,5,8
20,340,128525,2,0,B|16:304|4:248,2,65,2|0|8
148,364,129300,1,4
276,336,129687,1,8
404,356,130074,2,0,B|408:320|416:288,2,65,2|0|8
276,336,130848,5,4
156,284,131235,1,8
212,168,131622,1,2
332,216,132009,1,8
452,264,132396,6,0,B|517:221|493:138,2,130,2|8|2
328,300,133558,1,0
328,300,133751,2,0,B|276:237|200:279,1,130,4|0
212,272,134332,2,0,B|180:196,2,65,0|2|0
120,348,135106,1,8
32,252,135493,6,0,B|-52:228|-18:121,2,130,4|8|2
148,196,136654,1,8
204,76,137042,2,0,B|228:40|216:-4,2,65,2|0|8
148,196,137816,2,0,B|120:272|187:311,1,130,2|8
240,340,138396,1,0
300,320,138590,6,0,B|344:256|420:296,1,130,4|8
452,168,139364,2,0,B|428:108|428:108|452:80|440:20,2,130,2|8|2
324,144,140525,2,0,B|248:108,2,65,8|0|2
220,220,141300,1,8
180,344,141687,6,0,B|138:415|62:367,1,130,4|8
20,252,142461,1,2
56,128,142848,1,8
172,68,143235,2,0,B|184:36|164:4,2,65,2|0|8
140,196,144009,6,0,B|110:262|175:358|280:324|303:249,1,260,2|4
404,196,145171,2,0,B|402:151|359:124,1,65,0|2
500,100,145751,1,2
500,100,145945,2,0,B|492:64|516:32,2,65,8|0|4
256,192,146719,12,4,147880
140,40,148654,6,0,B|208:84|180:172,1,130,2|8
80,232,149429,2,0,B|56:312|124:368,1,130,2|8
232,328,150203,1,2
232,328,150396,2,0,B|264:316|300:320,3,65,0|8|0|2
424,308,151364,2,0,B|452:280|452:236,2,65,2|0|0
348,200,152138,6,0,B|364:164|349:122,2,65,2|0|0
248,116,152913,6,0,B|251:76|223:42,2,65,2|0|0
260,244,153687,1,2
176,344,154074,2,0,B|120:392|56:344,1,130,4|8
12,220,154848,1,2
112,136,155235,2,0,B|149:72|124:-7,2,130,8|2|8
88,264,156396,6,0,B|120:272|148:300,1,65,2|0
196,336,156783,2,0,B|224:356|264:352,1,65,8|2
324,344,157171,1,4
440,284,157558,2,0,B|461:247|446:195,1,65,2|0
432,104,158138,6,0,B|416:68|432:24,2,65,2|0|2
304,76,158913,2,0,B|280:44|234:36,2,65,2|0|2
352,120,159493,2,0,B|348:156|356:188,1,65,4|0
360,248,159880,2,0,B|324:256|288:248,1,65,4|0
236,220,160267,6,0,B|184:156|104:200,1,130,4|8
36,292,161042,2,0,B|88:356|168:312,1,130,2|8
120,192,161816,2,0,B|68:128|-12:172,2,130,2|8|2
228,264,162977,1,8
352,228,163364,6,0,B|396:92,2,130,4|8|2
256,140,164525,2,0,B|268:108|256:76,2,65,2|0|0
180,244,165300,2,0,B|146:249|124:276,2,65,2|0|0
308,252,166074,1,2
420,184,166461,6,0,B|404:148|408:116|408:116|428:88|428:44,2,130,4|0|4
376,304,167622,1,0
256,352,168009,1,4
136,304,168396,1,0
92,184,168783,2,0,B|108:148|104:116|104:116|84:88|84:44,2,130,4|0|2
204,116,169945,5,0
300,28,170332,2,0,B|332:36|332:36|360:60,1,65,0|2
452,148,170913,1,0
376,256,171300,2,0,B|384:288|384:288|408:316,1,65,0|2
320,212,171880,2,0,B|285:219|256:206|256:206|227:216|191:214,1,130,0|2
