osu file format v9

[General]
AudioFilename: Sayonara Goodbye.mp3
AudioLeadIn: 2000
PreviewTime: 40993
Countdown: 0
SampleSet: Normal
StackLeniency: 0.7
Mode: 0
LetterboxInBreaks: 1

[Editor]
DistanceSpacing: 1.1
BeatDivisor: 4
GridSize: 4

[Metadata]
Title:Sayonara Goodbye
Artist:Hatsune Miku
Creator:banvi
Version:Extreme
Source:NoboruP
Tags:Vocaloid Vocaloid2 reonaid project diva arcade Nivalis Niva valuable KayeSara

[Difficulty]
HPDrainRate:6
CircleSize:4
OverallDifficulty:7
ApproachRate:8
SliderMultiplier:1.6
SliderTickRate:1

[Events]
//Background and Video events
0,0,"bgh.jpg"
//Break Periods
2,98532,108421
//Storyboard Layer 0 (Background)
//Storyboard Layer 1 (Fail)
//Storyboard Layer 2 (Pass)
//Storyboard Layer 3 (Foreground)
//Storyboard Sound Samples
//Background Colour Transformations
3,100,163,162,255

[TimingPoints]
784,387.096774193548,4,1,0,65,1,0
3687,-100,4,2,1,80,0,0
14719,-100,4,1,0,55,0,0
15009,-100,4,1,0,50,0,0
15203,-100,4,1,0,60,0,0
15396,-100,4,1,0,65,0,0
15590,-100,4,1,0,70,0,0
15783,-100,4,1,0,75,0,0
15977,-100,4,1,0,80,0,0
16458,-100,4,2,1,70,0,0
27687,-100,4,2,1,80,0,0
40461,-100,4,2,1,60,0,0
41042,-100,4,2,1,80,0,1
51880,-100,4,1,0,70,0,1
52558,-100,4,1,0,80,0,1
53429,-100,4,2,1,80,0,0
59816,-100,4,2,1,70,0,0
71042,-100,4,2,1,80,0,0
83816,-100,4,2,1,60,0,0
84396,-100,4,2,1,80,0,1
95235,-100,4,1,0,70,0,1
95913,-100,4,1,0,80,0,1
96783,-100,4,2,1,80,0,0
115267,-100,4,2,1,70,0,0
115848,-100,4,2,1,80,0,0
116719,-100,4,2,1,70,0,0
118654,-100,4,2,1,80,0,0
120106,-100,4,1,0,50,0,0
120300,-100,4,1,0,55,0,0
120493,-100,4,1,0,60,0,0
120687,-100,4,1,0,65,0,0
120880,-100,4,1,0,70,0,0
121074,-100,4,1,0,75,0,0
121267,-100,4,1,0,80,0,0
121461,-133.333333333333,4,2,1,60,0,0
127558,-100,4,2,1,80,0,0
134913,-100,4,2,1,60,0,0
135493,-100,4,2,1,85,0,1
146419,-100,4,1,0,75,0,1
146999,-100,4,1,0,85,0,1
147773,-100,4,2,1,85,0,1
158622,-100,4,1,0,75,0,1
160219,-100,4,2,1,85,0,1
167042,-100,4,2,1,80,0,1
167816,-100,4,2,1,70,0,1
168590,-100,4,2,1,60,0,1
169558,-100,4,1,0,70,0,0
171687,-133.333333333333,4,1,0,80,0,0
171977,-133.333333333333,4,2,1,30,0,0

[Colours]
Combo1 : 232,228,85
Combo2 : 66,196,82
Combo3 : 228,152,237
Combo4 : 21,83,210

[HitObjects]
256,48,784,1,0
256,336,1171,1,0
48,192,1558,5,0
48,192,1751,1,0
256,192,2138,1,0
464,192,2525,1,0
464,192,2719,1,0
256,192,3106,1,0
256,192,3300,2,0,B|256:240,2,40
88,49,3880,5,4
63,141,4074,1,0
155,116,4267,1,8
356,267,4654,1,0
448,242,4848,1,0
428,336,5042,1,8
120,328,5429,6,0,B|80:312|48:272,1,80
136,240,5816,2,0,B|100:208|88:164,1,80,8|0
180,164,6203,2,0,B|176:116|196:84,1,80
268,140,6590,1,8
360,152,6783,1,0
360,152,6880,1,0
360,152,6977,5,4
443,110,7171,1,0
364,59,7364,1,8
147,233,7751,1,0
63,275,7945,1,0
143,325,8138,1,8
432,304,8525,6,0,B|464:272|472:224,1,80
384,232,8913,2,0,B|384:184|360:152,1,80,8|0
296,208,9300,1,0
208,232,9493,1,0
208,232,9590,1,0
208,232,9687,1,8
120,208,9880,1,0
120,208,9977,1,0
120,208,10074,6,0,B|96:176|98:132,1,80,4|0
152,48,10461,2,0,B|184:24|232:24,1,80,8|0
312,88,10848,2,0,B|336:120|336:168,1,80
288,256,11235,2,0,B|256:280|208:280,1,80,8|0
120,248,11622,5,0
80,168,11816,1,0
96,80,12009,1,8
168,32,12203,1,0
256,40,12396,5,4
472,192,12783,1,4
256,344,13171,1,4
176,304,13364,6,0,B|136:280|120:232,2,80,0|8|0
256,344,13945,1,0
336,304,14138,2,0,B|376:280|392:232,2,80,0|8|0
256,40,14913,5,0
184,116,15106,1,0
328,116,15300,1,0
112,192,15493,1,0
400,192,15687,1,0
256,344,15880,1,0
256,192,16074,1,0
256,192,16171,1,0
256,192,16267,1,4
256,40,16654,5,2
112,144,17042,1,0
40,192,17235,1,0
120,232,17429,1,8
48,280,17622,2,0,B|104:352|208:352,1,160
240,280,18203,2,0,B|256:232|304:216,1,80,2|0
328,304,18590,2,0,B|376:320|392:368,2,80,0|0|8
152,112,19364,6,0,B|192:32|288:32,1,160,0|2
352,88,19945,1,0
424,144,20138,2,0,B|464:128|496:88,2,80,0|0|8
344,176,20719,5,2
104,288,21106,1,2
224,344,21300,1,8
208,216,21493,1,2
88,160,21687,6,0,B|56:128|48:80,1,80
136,88,22074,1,8
200,24,22267,1,0
264,88,22461,1,4
440,280,22848,5,2
384,352,23042,1,0
296,328,23235,2,0,B|256:304|240:272,1,80
328,248,23622,1,8
296,328,23816,2,0,B|216:336|136:280,1,160
80,224,24396,1,2
80,224,24590,1,0
96,136,24783,2,0,B|128:104|136:56,1,80
264,32,25171,2,0,B|232:64|224:112,1,80,8|0
184,176,25558,6,0,B|208:256|296:304,1,160,0|2
368,320,26138,1,0
432,256,26332,2,0,B|452:212|444:172,2,80,0|0|8
360,204,26913,5,8
496,100,27106,1,4
176,48,27493,1,4
81,188,27880,5,0
114,270,28074,1,8
189,328,28267,1,0
280,312,28461,1,8
360,264,28654,6,0,B|424:208|440:120,1,160,4|8
352,128,29235,1,0
296,56,29429,1,0
216,96,29622,1,0
160,24,29816,1,8
80,56,30009,6,0,B|24:112|24:208,1,160
156,252,30590,2,0,B|212:196|212:100,1,160,8|0
268,32,31171,1,0
268,32,31267,1,0
268,32,31364,1,8
356,68,31558,1,0
356,68,31654,1,0
356,68,31751,6,0,B|396:68|434:52,1,80,0|0
400,152,32138,2,0,B|356:152|322:168,1,80,8|0
376,244,32525,1,0
332,320,32719,1,0
256,368,32913,1,8
168,340,33106,6,0,B|88:332|32:252,1,160
108,120,33687,2,0,B|188:128|244:208,1,160,8|0
256,296,34267,1,0
256,296,34364,1,0
256,296,34461,1,8
256,296,34558,1,0
256,296,34654,1,0
348,318,34848,5,2
474,270,35042,1,2
426,143,35235,1,10
300,192,35429,1,2
388,232,35622,5,2
388,232,35719,1,0
388,232,35816,1,0
256,296,36009,1,8
256,296,36106,1,0
256,296,36203,1,0
124,232,36396,5,2
224,130,36590,1,2
124,30,36783,1,10
24,130,36977,1,2
124,130,37171,5,2
124,130,37267,1,0
124,130,37364,1,0
256,48,37558,1,8
272,48,37654,1,0
288,48,37751,1,0
304,48,37848,1,0
320,48,37945,5,4
408,296,38332,1,8
144,360,38719,1,0
72,112,39106,1,8
72,112,39300,1,4
207,298,39687,5,0
362,239,39880,1,8
303,84,40074,1,0
148,143,40267,1,8
256,192,40654,5,2
48,48,41042,6,0,B|208:48,1,160,4|8
464,336,41816,2,0,B|304:336,1,160,0|8
88,192,42590,5,0
120,112,42783,1,0
192,56,42977,1,8
280,80,43171,1,0
352,128,43364,2,0,B|384:168|376:216,1,80
312,264,43751,2,0,B|280:232|288:176,1,80,8|0
468,192,44138,6,0,B|468:32,1,160,4|8
44,192,44913,2,0,B|44:352,1,160,0|8
200,136,45687,6,0,B|256:80,1,80
312,248,46074,2,0,B|256:304,1,80,8|0
256,304,46461,1,8
256,79,46848,1,4
64,192,47235,5,4
256,344,47622,1,8
448,192,48009,1,0
256,40,48396,1,8
64,192,48783,5,0
112,264,48977,1,0
184,312,49171,1,8
272,312,49364,1,0
360,296,49558,2,0,B|432:256|456:160,2,160,8|8|4
196,360,50719,6,0,B|100:360,1,80,2|0
148,284,51106,2,0,B|60:284,1,80,2|0
100,208,51493,2,0,B|12:208,1,80,8|8
160,136,52074,5,0
248,40,52267,1,0
288,168,52461,1,0
152,40,52654,5,0
208,220,52848,1,0
332,88,53042,1,0
208,220,53235,1,0
388,264,53429,5,4
152,40,53816,2,0,B|72:64|48:160,1,160,8|0
40,240,54396,1,0
128,240,54590,1,8
168,320,54783,1,0
256,320,54977,6,0,B|352:320,1,80
384,240,55364,2,0,B|288:240,1,80,8|0
216,240,55751,1,0
120,136,55945,1,0
256,160,56138,1,8
160,56,56332,1,0
296,80,56525,5,4
176,320,56913,2,0,B|96:320,2,80,8|0|0
352,320,57687,5,8
264,320,57880,1,0
176,72,58461,1,8
256,36,58654,1,0
336,72,58848,1,0
424,72,59042,2,0,B|480:72,6,40,8|0|8|0|8|0|4
256,192,60009,5,2
112,296,60396,1,0
48,236,60590,1,0
48,148,60783,1,8
112,88,60977,2,0,B|176:40|272:48,1,160
396,104,61558,2,0,B|360:120|320:120,1,80,2|0
264,188,61945,2,0,B|295:201|343:201,1,80
400,268,62332,2,0,B|363:283|323:283,1,80,8|0
232,288,62719,5,0
144,264,62913,1,0
104,184,63106,2,0,B|80:144|88:104,2,80,2|0|0
176,128,63687,1,8
200,128,63783,1,0
224,128,63880,1,8
312,128,64074,5,4
472,336,64461,1,0
392,232,64654,1,2
312,336,64848,1,0
232,232,65042,1,2
152,336,65235,1,0
152,336,65332,1,0
152,336,65429,1,4
360,48,65816,6,0,B|280:16|200:32,1,160,4|8
120,64,66396,1,0
72,136,66590,2,0,B|48:168|48:224,2,80,0|0|8
120,64,67171,2,0,B|192:24|280:32,1,160
360,48,67751,1,8
424,112,67945,1,0
448,200,68138,1,0
384,264,68332,1,0
296,288,68525,1,8
136,80,68913,6,0,B|56:112|40:208,1,160,0|8
144,176,69493,2,0,B|128:264|184:336,1,160
177,327,70074,1,8
232,240,70267,5,8
56,272,70461,1,4
400,208,70848,1,4
256,40,71235,5,0
256,128,71429,1,8
256,128,71525,1,0
256,128,71622,1,8
256,216,71816,1,8
256,304,72009,6,0,B|80:304,2,160,4|8|0
344,304,72977,1,0
404,240,73171,1,8
344,168,73364,2,0,B|304:88|224:64,1,160
140,192,73945,2,0,B|180:272|260:296,1,160,8|0
344,304,74525,1,0
344,304,74622,1,0
344,304,74719,1,8
404,240,74913,1,0
404,240,75009,1,0
404,240,75106,6,0,B|404:64,2,160,0|8|0
352,312,76074,1,0
264,312,76267,1,8
208,240,76461,1,0
320,104,76848,1,0
264,32,77042,1,8
176,32,77235,1,0
120,104,77429,1,0
64,176,77622,1,0
48,192,77719,1,0
40,208,77816,1,8
48,232,77913,1,0
64,248,78009,1,0
120,320,78203,6,0,B|208:320,1,80,2|2
352,168,78590,2,0,B|264:168,1,80,10|2
184,168,78977,5,2
120,104,79171,1,0
120,104,79267,1,0
120,104,79364,1,8
184,40,79558,1,0
248,104,79751,6,0,B|328:104,1,80,2|2
480,256,80138,2,0,B|400:256,1,80,10|2
184,168,80525,2,0,B|280:168,1,80,2|0
288,168,80816,1,0
312,168,80913,1,8
336,168,81009,1,0
360,168,81106,1,0
384,168,81203,1,0
408,168,81300,5,4
104,168,81687,1,8
424,168,82074,1,0
88,168,82461,1,8
88,168,82654,1,4
307,80,83042,5,0
370,243,83235,1,8
206,306,83429,1,0
144,142,83622,1,8
256,192,84009,5,2
80,192,84396,6,0,B|176:192,1,80,4|0
256,24,84783,2,0,B|256:120,1,80,8|0
424,192,85171,2,0,B|328:192,1,80
256,360,85558,2,0,B|256:264,1,80,8|0
256,192,85945,5,0
280,104,86138,1,0
208,48,86332,1,8
120,72,86525,1,0
120,159,86719,2,0,B|160:160|192:128,1,80
256,192,87106,1,8
256,192,87300,1,0
128,320,87493,6,0,B|195:252,1,80,4|0
384,320,87880,2,0,B|316:252,1,80,8|0
384,64,88267,2,0,B|316:131,1,80
128,64,88654,2,0,B|195:131,1,80,8|0
256,192,89042,5,0
320,256,89235,1,0
400,216,89429,1,8
384,128,89622,1,0
296,112,89816,1,8
232,280,90203,1,4
112,136,90590,6,0,B|16:136,1,80,4|0
200,192,90977,2,0,B|288:192,1,80,8|0
112,248,91364,2,0,B|24:248,1,80
200,304,91751,2,0,B|296:304,1,80,8|0
368,304,92138,5,0
448,264,92332,1,0
488,184,92525,1,8
456,104,92719,1,0
384,48,92913,2,0,B|296:16|216:32,2,160,8|8|4
488,184,94074,6,0,B|488:276,1,80,2|0
408,224,94461,2,0,B|408:320,1,80,2|0
328,264,94848,2,0,B|328:360,1,80,8|8
160,96,95429,5,0
352,96,95622,1,0
196,196,95816,1,0
256,24,96009,1,0
316,196,96203,1,0
160,288,96396,1,0
352,288,96589,1,0
256,360,96783,1,4
256,192,97171,12,0,98332
104,144,109171,6,0,B|60:60,1,80,4|0
200,112,109558,2,0,B|188:32,1,80,8|0
312,112,109945,2,0,B|324:32,1,80
408,144,110332,2,0,B|448:68,1,80,8|0
388,240,110719,6,0,B|372:280|332:304,1,80
124,240,111106,2,0,B|140:280|180:304,1,80,8|0
256,344,111493,1,0
256,256,111687,1,0
256,256,111783,1,0
256,256,111880,1,8
256,344,112074,1,0
256,168,112267,5,4
256,80,112461,1,0
256,80,112558,1,0
256,80,112654,1,8
256,168,112848,1,0
172,128,113042,5,0
340,128,113235,1,0
256,256,113429,1,8
256,256,113525,1,0
256,256,113622,1,0
172,216,113816,6,0,B|92:216,1,80
340,216,114203,2,0,B|420:216,1,80,8|0
256,344,114590,1,0
256,256,114783,1,8
256,240,114880,1,0
256,224,114977,1,8
256,208,115074,1,0
256,192,115171,1,8
256,100,115364,5,4
136,288,115558,1,4
376,288,115751,1,4
200,176,115945,5,0
216,160,116042,1,0
232,152,116138,1,8
256,144,116235,1,0
280,152,116332,1,0
296,160,116429,1,0
312,176,116525,1,8
256,317,116913,5,4
122,99,117106,1,4
389,99,117300,1,4
256,192,117493,5,0
256,192,117590,1,0
256,192,117687,1,4
80,192,118074,1,4
432,192,118461,1,4
256,328,118848,5,0
192,260,119042,1,8
56,152,119429,1,0
96,72,119622,1,8
176,112,119816,1,8
224,40,120009,1,4
308,76,120203,5,0
440,32,120396,1,0
308,76,120590,1,0
457,133,120783,1,0
308,76,120977,1,0
407,225,121171,1,0
308,76,121364,1,0
308,272,121558,6,0,B|284:336|212:352,1,119.999996423721,4|2
112,216,122332,2,0,B|136:152|208:136,1,119.999996423721,8|0
272,184,122913,2,0,B|333:170|357:106,1,119.999996423721
264,96,123493,5,2
328,344,123880,1,8
88,280,124267,1,4
264,96,124654,6,0,B|296:40|368:40,1,119.999996423721,4|2
448,184,125429,2,0,B|416:240|344:240,1,119.999996423721,8|0
272,200,126009,2,0,B|240:144|168:144,1,119.999996423721
192,232,126590,5,2
384,72,126977,1,8
440,320,127364,1,8
189,233,127751,5,2
64,341,127945,1,2
156,208,128138,1,10
39,316,128332,1,2
192,360,128525,5,2
192,360,128622,1,0
192,360,128719,1,0
320,360,128913,1,8
320,360,129009,1,0
320,360,129106,1,0
322,233,129300,5,2
447,341,129493,1,2
355,208,129687,1,10
472,316,129880,1,2
488,160,130074,5,2
472,144,130171,1,0
456,128,130267,1,0
352,32,130461,1,8
328,32,130558,1,0
304,32,130654,1,8
280,32,130751,1,0
256,32,130848,5,4
40,192,131235,1,8
256,352,131622,1,0
472,192,132009,1,8
64,48,132396,5,4
448,48,132783,1,8
448,336,133171,1,0
64,336,133558,1,8
64,336,133751,1,4
210,54,134138,5,0
393,145,134332,1,8
303,328,134525,1,0
121,238,134719,1,8
256,192,135106,5,2
40,192,135493,5,4
472,192,135880,1,8
40,192,136267,1,0
472,192,136654,1,8
162,198,137042,6,0,B|163:248|206:277,1,80
348,184,137429,2,0,B|347:134|304:105,1,80,8|0
256,192,137816,5,0
421,105,138009,1,0
256,192,138203,1,8
160,30,138396,1,0
64,48,138590,5,4
448,336,138977,1,8
64,48,139364,1,0
448,336,139751,1,8
224,96,140138,6,0,B|200:136|152:144,1,80
288,288,140525,2,0,B|312:248|360:240,1,80,8|0
376,336,140913,1,8
136,48,141300,1,4
376,336,141687,6,0,B|464:336,1,80,4|0
136,336,142074,2,0,B|48:336,1,80,8|0
324,248,142461,2,0,B|412:248,1,80
188,248,142848,2,0,B|100:248,1,80,8|0
104,152,143235,5,0
168,80,143429,1,0
256,40,143622,1,8
344,80,143816,1,0
408,152,144009,5,8
104,152,144396,1,8
408,152,144783,1,4
384,248,144977,6,0,B|456:288,1,80,0|2
304,288,145364,2,0,B|336:368,1,80,0|2
208,288,145751,2,0,B|176:368,1,80,0|2
128,248,146138,2,0,B|56:288,1,80,0|4
168,160,146525,5,0
256,48,146719,1,0
344,160,146913,1,0
144,64,147106,5,0
256,224,147300,1,0
368,64,147493,1,0
256,224,147687,1,0
256,48,147880,5,4
180,324,148267,2,0,B|256:368|332:324,1,160,8|0
368,240,148848,2,0,B|368:200|392:160,2,80,0|8|0
432,304,149429,5,0
344,328,149622,1,0
276,260,149816,1,8
304,176,150009,1,0
368,240,150203,5,0
256,352,150396,1,0
104,288,150590,1,8
120,128,150783,1,0
288,80,150977,6,0,B|320:56|368:56,1,80,4|0
352,144,151364,2,0,B|392:144|432:176,1,80,8|0
368,240,151751,2,0,B|392:272|392:320,1,80
304,296,152138,5,8
208,296,152332,1,0
80,72,152913,1,8
168,48,153106,1,0
256,72,153300,1,8
344,48,153493,1,0
344,48,153590,1,0
344,48,153687,1,8
432,72,153880,1,8
432,72,153977,1,0
432,72,154074,6,0,B|472:96|480:144,1,80,4|0
392,160,154461,2,0,B|352:184|344:232,1,80,8|0
368,304,154848,1,0
288,344,155042,1,0
224,280,155235,1,8
144,320,155429,1,0
80,256,155622,6,0,B|48:224|48:168,1,80
136,184,156009,2,0,B|160:152|167:112,1,80,8|0
120,40,156396,1,0
248,72,156590,1,0
304,192,156783,1,8
248,312,156977,1,0
124,256,157171,5,4
388,256,157558,1,8
256,32,158138,5,0
176,88,158332,1,8
336,88,158525,1,8
256,144,158719,2,0,B|288:168,3,40
272,208,159106,2,0,B|232:240,3,40
264,272,159493,2,0,B|296:296,3,40
272,336,159880,2,0,B|232:368,3,40
200,336,160267,6,0,B|120:336,2,80,4|0|8
368,192,161042,2,0,B|456:192,2,80,0|0|8
200,48,161816,2,0,B|120:48,2,80,0|0|8
100,192,162590,5,0
152,264,162783,1,0
232,304,162977,1,8
324,292,163171,1,0
400,248,163364,2,0,B|464:192|464:96,2,160,0|8|0
184,92,164525,5,8
184,92,164719,1,0
328,292,165300,1,8
328,292,165493,1,0
248,336,165687,5,0
160,336,165880,1,0
80,300,166074,1,8
56,216,166267,1,8
75,128,166461,6,0,B|111:44|207:22,1,160,4|8
437,256,167235,2,0,B|401:340|305:362,1,160,2|8
124,172,168009,6,0,B|153:83|256:66,1,160,2|8
388,212,168783,2,0,B|359:301|256:318,1,160,2|8
384,64,169558,5,0
128,320,169945,1,0
80,40,170332,5,0
80,40,170525,1,0
256,192,170913,1,0
432,344,171300,1,0
432,344,171493,1,0
256,192,171880,6,0,B|256:144|256:144|252:144|252:144|260:144|260:144|256:144|256:144|256:88,1,119.999996423721,0|2
