osu file format v9

[General]
AudioFilename: Samidare Renka.mp3
AudioLeadIn: 0
PreviewTime: 86863
Countdown: 0
SampleSet: Soft
StackLeniency: 0.7
Mode: 0
LetterboxInBreaks: 0

[Editor]
DistanceSpacing: 1
BeatDivisor: 4
GridSize: 4

[Metadata]
Title:Samidare Renka
Artist:Hatsune Miku
Creator:KanaRin
Version:Kana
Source:KaguraP
Tags:Vocaloid Vocaloid2 Disoy sherrie__fay

[Difficulty]
HPDrainRate:6
CircleSize:4
OverallDifficulty:5
ApproachRate:7
SliderMultiplier:2
SliderTickRate:2

[Events]
//Background and Video events
0,0,"BG.jpg"
//Break Periods
2,106759,123894
2,182053,197424
//Storyboard Layer 0 (Background)
//Storyboard Layer 1 (Fail)
//Storyboard Layer 2 (Pass)
//Storyboard Layer 3 (Foreground)
//Storyboard Sound Samples
//Background Colour Transformations
3,100,163,162,255

[TimingPoints]
12442,588.235294117647,4,2,1,50,1,0
13181,-100,4,2,2,50,0,0
13475,-100,4,2,1,50,0,0
13916,-100,4,2,2,50,0,0
14063,-100,4,2,1,50,0,0
14357,-100,4,2,2,50,0,0
14651,-100,4,2,2,50,0,0
16416,-100,4,2,1,50,0,0
16710,-100,4,2,2,50,0,0
17004,-100,4,1,1,50,0,0
17298,-100,4,2,2,50,0,0
17593,-100,4,2,1,50,0,0
17887,-100,4,2,2,50,0,0
18181,-100,4,1,1,50,0,0
18475,-100,4,2,1,50,0,0
18622,-100,4,2,2,50,0,0
18760,-100,4,2,1,50,0,0
19063,-100,4,2,2,50,0,0
19357,-100,4,2,1,50,0,0
19798,-100,4,2,2,50,0,0
19946,-100,4,2,1,50,0,0
20240,-100,4,2,2,50,0,0
20534,-100,4,2,1,50,0,0
20828,-100,4,2,2,50,0,0
21122,-100,4,2,1,50,0,0
21416,-100,4,2,2,50,0,0
21710,-100,4,1,1,50,0,0
22004,-100,4,2,2,50,0,0
22298,-100,4,2,1,50,0,0
22593,-100,4,2,2,50,0,0
22887,-100,4,1,1,50,0,0
23181,-100,4,2,2,50,0,0
23622,-100,4,2,1,50,0,0
23769,-100,4,2,2,50,0,0
24063,-100,4,1,1,50,0,0
24357,-100,4,2,2,50,0,0
24651,-100,4,1,1,50,0,0
24946,-100,4,2,2,50,0,0
25240,-100,4,2,1,50,0,0
25534,-100,4,2,2,50,0,0
25828,-100,4,2,1,50,0,0
26122,-100,4,1,1,50,0,0
28328,-100,4,1,1,50,0,0
28475,-100,4,1,1,50,0,0
28622,-100,4,1,1,50,0,0
28769,-100,4,1,1,50,0,0
29063,-100,4,2,2,50,0,0
29357,-100,4,2,1,50,0,0
29651,-100,4,2,2,50,0,0
29946,-100,4,2,2,50,0,0
31122,-100,4,1,1,50,0,0
31416,-100,4,2,2,50,0,0
31710,-100,4,2,1,50,0,0
32004,-100,4,2,2,50,0,0
32298,-100,4,2,1,50,0,0
32593,-100,4,2,2,50,0,0
32887,-100,4,2,1,50,0,0
33181,-100,4,2,2,50,0,0
33475,-100,4,1,1,50,0,0
33769,-100,4,2,2,50,0,0
34063,-100,4,2,1,50,0,0
34357,-100,4,2,2,50,0,0
34651,-100,4,2,1,50,0,0
34946,-100,4,2,2,50,0,0
35240,-100,4,2,1,50,0,0
35534,-100,4,2,2,50,0,0
35828,-100,4,1,1,50,0,0
36122,-100,4,2,2,50,0,0
36416,-100,4,2,1,50,0,0
36710,-100,4,2,2,50,0,0
37004,-100,4,2,1,50,0,0
37298,-100,4,2,2,50,0,0
37593,-100,4,2,1,50,0,0
37887,-100,4,2,2,50,0,0
38181,-100,4,1,1,50,0,0
38475,-100,4,2,2,50,0,0
38769,-100,4,2,1,50,0,0
39063,-100,4,2,2,50,0,0
39357,-100,4,2,1,50,0,0
39651,-100,4,2,2,50,0,0
39946,-100,4,2,1,50,0,0
40240,-100,4,2,2,50,0,0
40534,-100,4,1,1,50,0,0
40828,-100,4,2,2,50,0,0
41122,-100,4,2,1,50,0,0
41416,-100,4,2,2,50,0,0
41710,-100,4,2,1,50,0,0
42004,-100,4,2,2,50,0,0
42298,-100,4,2,1,50,0,0
42593,-100,4,2,2,50,0,0
42887,-100,4,1,1,50,0,0
43177,-100,4,2,1,50,0,0
43328,-100,4,2,2,50,0,0
43475,-100,4,2,1,50,0,0
43769,-100,4,2,2,50,0,0
44063,-100,4,2,1,50,0,0
44357,-100,4,2,2,50,0,0
44651,-100,4,2,1,50,0,0
44946,-100,4,2,2,50,0,0
45240,-100,4,1,1,50,0,0
45681,-100,4,2,2,50,0,0
45828,-100,4,2,1,50,0,0
46122,-100,4,2,2,50,0,0
46416,-100,4,2,1,50,0,0
46710,-100,4,2,2,50,0,0
47004,-100,4,2,1,50,0,0
47298,-100,4,2,2,50,0,0
47593,-100,4,1,1,50,0,0
47887,-100,4,2,2,50,0,0
48181,-100,4,1,1,50,0,0
48475,-100,4,2,2,50,0,0
48769,-100,4,2,1,50,0,0
49357,-100,4,2,1,50,0,0
49651,-100,4,2,2,50,0,0
49945,-100,4,2,1,50,0,0
50828,-100,4,2,2,50,0,0
51122,-100,4,2,1,50,0,0
51563,-100,4,2,2,50,0,0
51710,-100,4,2,1,50,0,0
52004,-100,4,2,2,50,0,0
52298,-100,4,2,1,50,0,0
52593,-100,4,2,2,50,0,0
52887,-100,4,2,1,50,0,0
53181,-100,4,2,2,50,0,0
53475,-100,4,2,1,50,0,0
53765,-100,4,2,2,50,0,0
54063,-100,4,2,1,50,0,0
54357,-100,4,2,2,50,0,0
54651,-100,4,2,1,50,0,0
54945,-100,4,2,2,50,0,0
55240,-100,4,2,1,50,0,0
55534,-100,4,2,2,50,0,0
55828,-100,4,2,1,50,0,0
56122,-100,4,2,2,50,0,0
56416,-100,4,2,1,50,0,0
56710,-100,4,2,2,50,0,0
57004,-100,4,2,1,50,0,0
57298,-100,4,2,2,50,0,0
57593,-100,4,2,1,50,0,0
57887,-100,4,2,2,50,0,0
58181,-100,4,2,2,50,0,0
58471,-100,4,2,2,50,0,0
58765,-100,4,2,1,50,0,0
59063,-100,4,2,2,50,0,0
59357,-100,4,2,1,50,0,0
59651,-100,4,2,2,50,0,0
59945,-100,4,2,1,50,0,0
60240,-100,4,2,2,50,0,0
60534,-100,4,2,1,50,0,0
60828,-100,4,2,2,50,0,0
61122,-100,4,2,1,50,0,0
61416,-100,4,2,2,50,0,0
61710,-100,4,2,1,50,0,0
62151,-100,4,2,2,50,0,0
62298,-100,4,2,1,50,0,0
62593,-100,4,2,2,50,0,0
62887,-100,4,2,1,50,0,0
63769,-100,4,2,2,50,0,0
64063,-100,4,2,1,50,0,0
64504,-100,4,2,2,50,0,0
64651,-100,4,2,1,50,0,0
64945,-100,4,2,2,50,0,0
65240,-100,4,2,1,50,0,0
65681,-100,4,2,2,50,0,0
65828,-100,4,2,1,50,0,0
66710,-100,4,2,2,50,0,0
67004,-100,4,2,1,50,0,0
67298,-100,4,2,2,50,0,0
67593,-100,4,2,1,50,0,0
68034,-100,4,2,2,50,0,0
68475,-100,4,2,2,50,0,0
68769,-100,4,1,1,50,0,0
69063,-100,4,2,2,50,0,0
69357,-100,4,2,1,50,0,0
69651,-100,4,2,2,50,0,0
69945,-100,4,2,1,50,0,0
70975,-100,4,2,2,50,0,0
71122,-100,4,2,1,50,0,0
71265,-100,4,2,1,50,0,0
71563,-100,4,2,2,50,0,0
71710,-100,4,2,1,50,0,0
72004,-100,4,2,2,50,0,0
72298,-100,4,2,1,50,0,0
72593,-100,4,2,2,50,0,0
72887,-100,4,2,1,50,0,0
73181,-100,4,2,2,50,0,0
73475,-100,4,1,1,50,0,0
73765,-100,4,2,1,50,0,0
73916,-100,4,2,2,50,0,0
74063,-100,4,2,1,50,0,0
74357,-100,4,2,2,50,0,0
74651,-100,4,2,1,50,0,0
74945,-100,4,2,2,50,0,0
75240,-100,4,2,1,50,0,0
75534,-100,4,2,2,50,0,0
75828,-100,4,1,1,50,0,0
76118,-100,4,2,1,50,0,0
76269,-100,4,2,2,50,0,0
76416,-100,4,2,1,50,0,0
76857,-100,4,2,2,50,0,0
77004,-100,4,2,1,50,0,0
77445,-100,4,2,2,50,0,0
77593,-100,4,2,1,50,0,0
77887,-100,4,2,2,50,0,0
78181,-100,4,1,1,50,0,0
78622,-100,4,2,2,50,0,0
78769,-100,4,2,1,50,0,0
79063,-100,4,2,2,50,0,0
79357,-100,4,2,1,50,0,0
80240,-100,4,2,2,50,0,0
80534,-100,4,1,1,50,0,0
80828,-100,4,2,2,50,0,0
81122,-100,4,2,1,50,0,0
81416,-100,4,2,2,50,0,0
81710,-100,4,2,1,50,0,0
82593,-100,4,2,2,50,0,0
82887,-100,4,1,1,50,0,0
83181,-100,4,2,2,50,0,0
83475,-100,4,2,1,50,0,0
83769,-100,4,2,2,50,0,0
84063,-100,4,1,1,50,0,0
84357,-100,4,2,2,50,0,0
84651,-100,4,2,1,50,0,0
84794,-100,4,1,1,50,0,0
84945,-100,4,2,2,50,0,0
85387,-100,4,2,1,25,0,0
85681,-100,4,2,1,35,0,0
85975,-100,4,2,1,45,0,0
86269,-100,4,2,1,55,0,0
86563,-100,4,2,1,55,0,0
86710,-100,4,2,1,55,0,0
87298,-100,4,2,1,55,0,0
87740,-100,4,2,2,65,0,1
88181,-100,4,2,1,65,0,1
88475,-100,4,2,2,65,0,1
88769,-100,4,2,2,65,0,1
89357,-100,4,2,1,65,0,1
89651,-100,4,2,2,65,0,1
89945,-100,4,1,1,80,0,1
90240,-100,4,2,2,65,0,1
90534,-100,4,2,1,65,0,1
90828,-100,4,2,2,65,0,1
91122,-100,4,1,1,80,0,1
91412,-100,4,2,2,65,0,1
91706,-100,4,2,1,65,0,1
92004,-100,4,2,2,65,0,1
92298,-100,4,2,2,80,0,1
92593,-100,4,2,2,65,0,1
92887,-100,4,2,1,65,0,1
93181,-100,4,2,2,65,0,1
93475,-100,4,2,1,65,0,1
93916,-100,4,2,2,65,0,1
94063,-100,4,2,1,65,0,1
94357,-100,4,2,2,65,0,1
94651,-100,4,1,1,80,0,1
94941,-100,4,2,1,65,0,1
95093,-100,4,2,2,65,0,1
95240,-100,4,2,1,65,0,1
95534,-100,4,2,2,65,0,1
95828,-100,4,2,1,65,0,1
96122,-100,4,2,2,65,0,1
96416,-100,4,2,1,65,0,1
96710,-100,4,2,2,65,0,1
97004,-100,4,2,2,65,0,1
97294,-100,4,2,1,65,0,1
97445,-100,4,2,2,65,0,1
97593,-100,4,2,1,65,0,1
97887,-100,4,2,2,65,0,1
98181,-100,4,2,1,65,0,1
98471,-100,4,2,1,65,0,1
98622,-100,4,2,2,65,0,1
98769,-100,4,2,1,65,0,1
99063,-100,4,2,2,65,0,1
99357,-100,4,1,1,70,0,1
99651,-100,4,2,2,65,0,1
99945,-100,4,2,1,65,0,1
100240,-100,4,2,2,65,0,1
100534,-100,4,1,1,65,0,1
100824,-100,4,2,2,65,0,1
101118,-100,4,2,1,65,0,1
101416,-100,4,2,2,65,0,1
101710,-100,4,1,1,80,0,1
102000,-100,4,2,1,80,0,1
102151,-100,4,2,2,65,0,1
102294,-100,4,2,1,65,0,1
102445,-100,4,2,1,65,0,1
102593,-100,4,2,2,65,0,1
102887,-100,4,2,1,65,0,1
103181,-100,4,2,2,65,0,1
103475,-100,4,2,1,65,0,1
103769,-100,4,2,2,65,0,1
106118,-100,4,2,2,65,0,0
106563,-100,4,2,2,65,0,1
106706,-100,4,2,2,55,0,0
124651,-100,4,2,1,50,0,0
124945,-100,4,2,2,50,0,0
125236,-100,4,2,1,50,0,0
126122,-100,4,2,2,50,0,0
126416,-100,4,2,1,50,0,0
126857,-100,4,2,2,50,0,0
127004,-100,4,2,1,50,0,0
127298,-100,4,2,2,50,0,0
127592,-100,4,2,1,50,0,0
127887,-100,4,2,2,50,0,0
128181,-100,4,2,1,50,0,0
128475,-100,4,2,2,50,0,0
128769,-100,4,2,1,50,0,0
129357,-100,4,1,1,50,0,0
129651,-100,4,2,2,50,0,0
129945,-100,4,2,1,50,0,0
130239,-100,4,2,2,50,0,0
130534,-100,4,2,1,50,0,0
130828,-100,4,2,2,50,0,0
131122,-100,4,2,1,50,0,0
131416,-100,4,2,2,50,0,0
131710,-100,4,2,1,50,0,0
132004,-100,4,2,2,50,0,0
132298,-100,4,2,1,50,0,0
132592,-100,4,2,2,50,0,0
132887,-100,4,2,1,50,0,0
133181,-100,4,2,2,50,0,0
133475,-100,4,2,1,50,0,0
134059,-100,4,1,1,50,0,0
134357,-100,4,2,2,50,0,0
134651,-100,4,2,1,50,0,0
134945,-100,4,2,2,50,0,0
135239,-100,4,2,1,50,0,0
135534,-100,4,2,2,50,0,0
135828,-100,4,2,1,50,0,0
136122,-100,4,2,2,50,0,0
136416,-100,4,2,1,50,0,0
136710,-100,4,2,2,50,0,0
137004,-100,4,2,1,50,0,0
137445,-100,4,2,2,50,0,0
137592,-100,4,2,1,50,0,0
137887,-100,4,2,2,50,0,0
138181,-100,4,2,1,50,0,0
138765,-100,4,1,1,50,0,0
139063,-100,4,2,2,50,0,0
139357,-100,4,2,1,50,0,0
139798,-100,4,2,2,50,0,0
139945,-100,4,2,1,50,0,0
140239,-100,4,2,2,50,0,0
140534,-100,4,2,1,50,0,0
140975,-100,4,2,2,50,0,0
141122,-100,4,2,1,50,0,0
142004,-100,4,2,2,50,0,0
142298,-100,4,2,1,50,0,0
142592,-100,4,2,2,50,0,0
142887,-100,4,2,1,50,0,0
143328,-100,4,2,2,50,0,0
143618,-100,4,1,1,50,0,0
143769,-100,4,2,2,50,0,0
144063,-100,4,1,1,50,0,0
144357,-100,4,2,2,50,0,0
144651,-100,4,2,1,50,0,0
144945,-100,4,2,2,50,0,0
145239,-100,4,2,1,50,0,0
146269,-100,4,2,2,50,0,0
146416,-100,4,1,1,50,0,0
146857,-100,4,2,2,50,0,0
147004,-100,4,2,1,50,0,0
147298,-100,4,2,2,50,0,0
147592,-100,4,2,1,50,0,0
147887,-100,4,2,2,50,0,0
148181,-100,4,2,1,50,0,0
148475,-100,4,2,2,50,0,0
148769,-100,4,1,1,50,0,0
149059,-100,4,2,1,50,0,0
149210,-100,4,2,2,50,0,0
149357,-100,4,2,1,50,0,0
149651,-100,4,2,2,50,0,0
149945,-100,4,2,1,50,0,0
150239,-100,4,2,2,50,0,0
150534,-100,4,2,1,50,0,0
150828,-100,4,2,2,50,0,0
151122,-100,4,1,1,50,0,0
151563,-100,4,2,2,50,0,0
151710,-100,4,2,1,50,0,0
152151,-100,4,2,2,50,0,0
152298,-100,4,2,1,50,0,0
152739,-100,4,2,2,50,0,0
152887,-100,4,2,1,50,0,0
153181,-100,4,2,2,50,0,0
153475,-100,4,1,1,50,0,0
153916,-100,4,2,2,50,0,0
154063,-100,4,2,1,50,0,0
154357,-100,4,2,2,50,0,0
154651,-100,4,2,1,50,0,0
155534,-100,4,2,2,50,0,0
155828,-100,4,1,1,50,0,0
156122,-100,4,2,2,50,0,0
156416,-100,4,2,1,50,0,0
156710,-100,4,2,2,50,0,0
157004,-100,4,2,1,50,0,0
157589,-100,4,2,1,50,0,0
157887,-100,4,2,2,50,0,0
158181,-100,4,1,1,50,0,0
158475,-100,4,2,2,50,0,0
158769,-100,4,2,1,50,0,0
159063,-100,4,2,2,50,0,0
159357,-100,4,1,1,50,0,0
159651,-100,4,2,2,50,0,0
159945,-100,4,2,1,50,0,0
160089,-100,4,1,1,50,0,0
160236,-100,4,2,2,50,0,0
160681,-100,4,2,1,25,0,0
160975,-100,4,2,1,35,0,0
161269,-100,4,2,1,45,0,0
161563,-100,4,2,1,55,0,0
161857,-100,4,1,1,55,0,0
162004,-100,4,2,1,55,0,0
162592,-100,4,2,1,55,0,0
163034,-100,4,2,2,65,0,1
163475,-100,4,2,1,65,0,1
163769,-100,4,2,2,65,0,1
164063,-100,4,2,2,65,0,1
164651,-100,4,2,1,65,0,1
164945,-100,4,2,2,65,0,1
165239,-100,4,2,1,65,0,1
165534,-100,4,2,2,65,0,1
165828,-100,4,2,1,65,0,1
166122,-100,4,2,2,65,0,1
166416,-100,4,2,1,65,0,1
167147,-100,4,2,2,65,0,1
167298,-100,4,2,2,65,0,1
167592,-100,4,2,2,65,0,1
168181,-100,4,2,1,65,0,1
168475,-100,4,2,2,65,0,1
168769,-100,4,2,1,65,0,1
169210,-100,4,2,2,65,0,1
169357,-100,4,2,1,65,0,1
169651,-100,4,2,2,65,0,1
169945,-100,4,2,1,65,0,1
170387,-100,4,2,2,65,0,1
170534,-100,4,2,1,65,0,1
170828,-100,4,2,2,65,0,1
171122,-100,4,2,1,65,0,1
171416,-100,4,2,2,65,0,1
171710,-100,4,2,1,65,0,1
172004,-100,4,2,2,65,0,1
172298,-100,4,2,2,65,0,1
172739,-100,4,2,2,65,0,1
172887,-100,4,2,1,65,0,1
173181,-100,4,2,2,65,0,1
173475,-100,4,2,1,65,0,1
173916,-100,4,2,2,65,0,1
174063,-100,4,2,1,65,0,1
174357,-100,4,2,2,65,0,1
174651,-100,4,2,1,65,0,1
174945,-100,4,2,2,65,0,1
175239,-100,4,2,1,65,0,1
175534,-100,4,2,2,65,0,1
175828,-100,4,2,1,65,0,1
176265,-100,4,2,2,65,0,1
176412,-100,4,2,2,65,0,1
176559,-100,4,2,2,65,0,1
176710,-100,4,2,2,65,0,1
177004,-100,4,2,1,65,0,1
177445,-100,4,2,2,65,0,1
177739,-100,4,2,1,65,0,1
177887,-100,4,2,2,65,0,1
178181,-100,4,2,1,65,0,1
178475,-100,4,2,2,65,0,1
178769,-100,4,2,1,65,0,1
179063,-100,4,2,2,65,0,1
181857,-100,4,2,1,75,0,0
198328,-100,4,2,1,55,0,0
198916,-100,4,2,1,55,0,0
199504,-100,4,2,1,55,0,0
199651,-100,4,2,1,55,0,0
200239,-100,4,2,1,55,0,0
200681,-100,4,2,2,55,0,0
201122,-100,4,2,1,55,0,0
201416,-100,4,2,2,55,0,0
201710,-100,4,2,2,55,0,0
202298,-100,4,2,1,55,0,0
202592,-100,4,2,2,55,0,0
202886,-100,4,2,1,55,0,0
203181,-100,4,2,2,55,0,0
203475,-100,4,2,1,55,0,0
203769,-100,4,2,2,55,0,0
204063,-100,4,2,1,55,0,0
204794,-100,4,2,2,55,0,0
204945,-100,4,2,2,55,0,0
205239,-100,4,2,1,55,0,0
205534,-100,4,2,2,55,0,0
205828,-100,4,2,1,55,0,0
206122,-100,4,2,2,55,0,0
206416,-100,4,2,1,55,0,0
206857,-100,4,2,2,55,0,0
207004,-100,4,2,1,55,0,0
207298,-100,4,2,2,55,0,0
207592,-100,4,2,1,55,0,0
208034,-100,4,2,2,55,0,0
208181,-100,4,2,1,55,0,0
208475,-100,4,2,2,55,0,0
208769,-100,4,2,1,55,0,0
209063,-100,4,2,2,55,0,0
209357,-100,4,2,1,55,0,0
209651,-100,4,2,2,55,0,0
209945,-100,4,2,2,55,0,0
210386,-100,4,2,2,55,0,0
210534,-100,4,2,1,55,0,0
210828,-100,4,2,2,55,0,0
211122,-100,4,2,1,55,0,0
211412,-100,4,2,2,55,0,0
211710,-100,4,2,1,55,0,0
212004,-100,4,2,2,55,0,0
212298,-100,4,2,1,55,0,0
212592,-100,4,2,2,55,0,0
212886,-100,4,2,1,55,0,0
213181,-100,4,2,2,55,0,0
213475,-100,4,2,1,55,0,0
213912,-100,4,2,2,55,0,0
214059,-100,4,2,1,55,0,0
214206,-100,4,2,2,55,0,0
214357,-100,4,2,2,55,0,0
214651,-100,4,2,1,55,0,0
215092,-100,4,2,2,55,0,0
215386,-100,4,2,1,55,0,0
215534,-100,4,2,2,55,0,0
215828,-100,4,2,1,55,0,0
216122,-100,4,2,2,55,0,0
216416,-100,4,2,1,55,0,0
216710,-100,4,2,2,55,0,0
219500,-100,4,2,2,55,0,0
219504,-100,4,2,2,70,0,1
219945,-100,4,2,1,70,0,1
220239,-100,4,2,2,70,0,1
220533,-100,4,2,2,70,0,1
221121,-100,4,2,1,70,0,1
221415,-100,4,2,2,70,0,1
221709,-100,4,2,2,70,0,1
222004,-100,4,2,2,70,0,1
222298,-100,4,2,1,70,0,1
222592,-100,4,2,2,70,0,1
222886,-100,4,2,2,70,0,1
223177,-100,4,2,2,70,0,1
223471,-100,4,2,1,70,0,1
223768,-100,4,2,2,70,0,1
224062,-100,4,2,2,70,0,1
224357,-100,4,2,2,70,0,1
224651,-100,4,2,1,70,0,1
224945,-100,4,2,2,70,0,1
225239,-100,4,2,2,70,0,1
225680,-100,4,2,2,70,0,1
225827,-100,4,2,1,70,0,1
226121,-100,4,2,2,70,0,1
226415,-100,4,2,2,70,0,1
226706,-100,4,2,1,70,0,1
226857,-100,4,2,2,70,0,1
227004,-100,4,2,1,70,0,1
227298,-100,4,2,2,70,0,1
227592,-100,4,2,2,70,0,1
227886,-100,4,2,2,70,0,1
228180,-100,4,2,1,70,0,1
228474,-100,4,2,2,70,0,1
228768,-100,4,2,2,70,0,1
229209,-100,4,2,2,70,0,1
229357,-100,4,2,1,70,0,1
229651,-100,4,2,2,70,0,1
229945,-100,4,2,2,70,0,1
230235,-100,4,2,2,70,0,1
230533,-100,4,2,1,70,0,1
230827,-100,4,2,2,70,0,1
231118,-100,4,2,1,70,0,1
231265,-100,4,2,2,70,0,1
231415,-100,4,2,2,70,0,1
231709,-100,4,2,1,70,0,1
232004,-100,4,2,2,70,0,1
232294,-100,4,2,1,70,0,1
232441,-100,4,2,2,70,0,1
232735,-100,4,2,2,70,0,1
233029,-100,4,2,1,70,0,1
233180,-100,4,2,2,70,0,1
233474,-100,4,2,2,70,0,1
233915,-100,4,2,2,70,0,1
234059,-100,4,2,1,70,0,1
234357,-100,4,2,2,70,0,1
234651,-100,4,2,2,70,0,1
234945,-100,4,2,2,70,0,1
235239,-100,4,2,2,70,0,1
235533,-100,4,2,2,70,0,1
237147,-133.333333333333,4,2,2,70,0,1
237294,-133.333333333333,4,2,2,5,0,1
238323,-100,4,2,1,70,0,0

[Colours]
Combo1 : 162,255,162
Combo2 : 239,191,255
Combo3 : 142,255,255
Combo4 : 255,255,166

[HitObjects]
104,80,11853,1,2
200,80,12147,1,2
104,80,12442,1,6
208,256,13030,5,2
208,352,13324,1,2
208,256,13618,1,6
296,308,13912,2,0,B|376:320,2,50,2|0|2
208,256,14500,5,2
316,152,14794,1,2
208,48,15089,1,0
100,152,15383,1,2
208,256,15677,2,0,B|212:200|192:168|220:136,1,100,0|2
208,48,16265,1,2
376,112,16559,6,0,B|324:124|264:112,2,100,2|2|4
384,212,17442,1,2
480,184,17736,2,0,B|490:236|476:295,2,100,2|2|4
304,48,18618,5,2
264,52,18765,1,0
224,60,18912,1,2
68,132,19206,5,2
64,232,19500,2,0,B|132:232|124:264|168:264|236:280,1,150,6|0
256,276,20089,1,2
152,352,20383,1,2
256,276,20677,1,2
292,152,20971,1,2
160,96,21265,6,0,B|104:84|64:76|60:40,2,100,6|2|4
256,116,22147,1,2
352,92,22442,2,0,B|408:80|448:68|456:32,2,100,2|2|4
256,116,23324,1,2
256,144,23471,1,0
256,172,23618,1,2
256,272,23912,5,2
180,352,24206,2,0,B|68:352,1,100,4|2
332,352,24794,2,0,B|444:352,1,100,4|2
256,352,25383,5,2
360,188,25677,1,2
256,32,25971,1,6
156,192,26265,1,6
256,192,26559,5,4
256,192,27736,1,4
256,192,28324,1,4
256,228,28471,1,0
256,264,28618,1,0
140,136,28912,2,0,B|100:92|68:28,1,100,4|2
364,136,29500,2,0,B|404:92|436:28,1,100,2|2
256,192,30089,5,2
256,228,30236,1,2
256,264,30383,1,2
177,221,30677,5,2
144,236,30824,1,2
110,250,30971,1,2
180,128,31265,6,0,B|140:72|120:32,2,100,4|2|2
92,176,32147,1,2
172,236,32442,2,0,B|160:292|112:356,1,100,0|2
160,344,32883,1,0
184,360,33030,1,2
232,244,33324,5,2
176,144,33618,2,0,B|120:132|56:104,1,100,4|2
304,328,34206,2,0,B|360:340|424:368,1,100,2|2
232,244,34794,5,2
388,208,35089,1,2
264,108,35383,1,2
416,64,35677,1,2
404,276,35971,6,0,B|356:292|288:304,1,100,4|2
272,308,36412,1,0
232,316,36559,2,0,B|176:320|116:344,1,100,2|2
64,268,37147,2,0,B|20:256|0:216|0:164|20:116|84:112,1,200,6|2
124,196,38030,1,2
164,100,38324,6,0,B|208:128|260:170,1,100,4|2
276,184,38765,1,0
296,220,38912,2,0,B|272:264|216:320,1,100,6|2
236,299,39500,5,2
296,220,39794,1,2
144,264,40089,1,2
240,148,40383,1,2
240,148,40677,6,0,B|296:168|368:168|444:144,1,200,4|0
460,48,41559,1,2
364,80,41853,2,0,B|344:196|412:312,1,200,6|2
312,336,42736,1,2
216,312,43030,6,0,B|176:280|155:209,1,100,6|2
156,216,43422,1,0
152,200,43520,1,0
148,184,43618,1,2
176,68,43912,5,2
176,68,44206,2,0,B|216:104|272:128,1,100,2|2
436,108,44794,2,0,B|396:72|340:48,1,100,2|2
357,179,45383,6,0,B|364:234|355:321,1,100,4|2
352,308,45824,1,0
332,332,45971,2,0,B|264:356|216:356,1,100,6|2
132,328,46559,5,2
132,328,46853,1,2
48,192,47147,1,0
48,192,47442,1,2
169,64,47736,5,4
271,220,48030,1,2
169,64,48324,1,4
48,192,48618,1,2
132,328,48912,1,2
312,112,49500,6,0,B|353:60|381:12,2,100,0|2|6
108,244,50677,1,2
188,332,50971,1,2
260,244,51265,1,2
336,336,51559,1,2
336,336,51853,6,0,B|420:272|424:144,1,200,2|2
388,68,52736,1,2
388,68,52883,1,0
388,68,53030,2,0,B|336:64|264:76,1,100,2|2
332,160,53618,5,6
252,296,53912,1,2
88,316,54206,6,0,B|68:268|92:212,1,100,6|2
160,136,54794,2,0,B|180:88|156:32,1,100,2|2
89,219,55383,1,2
196,240,55677,1,2
160,136,55971,2,0,B|216:124|292:144,1,100,6|2
196,240,56559,1,6
296,308,56853,1,2
296,308,57147,6,0,B|312:248|292:180,1,100,2|2
212,360,57736,2,0,B|156:364|84:356,1,100,2|2
12,348,58324,1,2
164,264,58912,5,6
164,264,59206,1,2
164,264,59500,2,0,B|205:164|320:96,1,200,2|2
253,20,60383,1,2
188,95,60677,2,0,B|248:173|360:224,1,200,6|2
440,252,61559,1,2
284,224,61853,5,2
440,252,62147,1,2
440,252,62294,1,0
440,252,62442,1,2
336,340,62736,1,2
388,140,63030,1,6
232,316,63618,6,0,B|176:320|112:316,1,100,2|2
60,248,64206,1,6
156,216,64500,1,2
156,216,64647,1,0
156,216,64794,2,0,B|128:160|144:72,1,100,2|2
264,200,65383,1,2
264,200,65530,1,0
264,200,65677,2,0,B|292:256|276:344,1,100,2|2
412,72,66559,6,0,B|399:69|350:59|269:97,1,100,2|2
164,208,67147,2,0,B|176:210|225:220|306:182,1,100,0|2
412,72,67736,1,6
412,72,68030,5,2
412,100,68177,1,0
412,128,68324,1,6
412,228,68618,1,2
412,328,68912,2,0,B|356:336|280:328,1,100,4|2
140,248,69500,2,0,B|196:240|272:248,1,100,2|2
340,248,70089,1,2
256,68,70677,5,2
204,152,70971,2,0,B|176:208,2,50,2|2|6
308,152,71559,2,0,B|336:208,2,50,2|2|2
256,68,72147,1,2
256,68,72442,2,0,B|256:304,1,200,6|2
112,344,73324,5,2
112,344,73618,2,0,B|92:280,1,50,0|2
116,273,73912,1,0
136,251,74059,1,2
158,231,74206,1,4
264,132,74500,5,2
444,132,74794,1,2
264,132,75089,1,2
360,276,75383,1,2
264,132,75677,1,2
96,68,75971,6,0,B|20:44,2,50,4|2|2
100,248,76559,2,0,B|56:280,2,50,6|2|2
268,308,77147,2,0,B|272:364,2,50,6|2|2
372,132,77736,5,2
264,80,78030,1,2
372,132,78324,1,6
264,184,78618,2,0,B|264:248,2,50,2|0|2
264,80,79206,1,2
156,132,79500,1,2
168,332,80089,5,0
68,332,80383,1,2
168,332,80677,1,4
120,244,80971,2,0,B|120:180,2,50
24,216,81559,1,2
60,124,81853,1,0
384,64,82442,5,0
444,144,82736,1,2
384,64,83030,2,0,B|328:24|224:32|172:96,1,200,4|0
100,104,83912,2,0,B|120:160|164:200,1,100,2|6
220,264,84500,1,2
236,276,84647,1,0
252,288,84794,1,4
348,264,85089,1,2
444,236,85383,5,0
444,220,85530,1,0
444,204,85677,1,2
444,188,85824,1,0
444,172,85971,1,0
444,156,86118,1,0
444,140,86265,1,2
444,124,86412,1,0
444,108,86559,1,14
384,28,86853,5,8
280,200,87147,1,12
76,256,87442,1,0
76,256,87736,6,0,B|160:316|300:316,1,200,6|10
432,124,88618,1,2
432,124,88912,2,0,B|348:64|208:64,1,200,4|10
264,200,89794,5,2
108,200,90089,1,4
176,52,90383,1,2
344,52,90677,1,14
416,200,90971,1,2
264,328,91265,1,4
264,328,91559,5,2
264,328,91706,1,2
264,328,91853,1,10
168,296,92147,1,2
264,328,92442,2,0,B|332:337|420:281|436:200,1,200,4|14
476,148,93324,6,0,B|436:108|371:99,1,100,2|2
360,96,93765,1,2
332,92,93912,1,2
304,92,94059,1,2
272,92,94206,1,10
272,196,94500,5,2
236,292,94794,5,4
216,280,94942,1,2
200,264,95089,1,2
188,244,95236,1,2
176,220,95383,2,0,B|160:168|184:120,1,100,10|2
192,96,95824,1,2
188,68,95971,2,0,B|140:36|72:31,1,100,2|2
56,116,96559,6,0,B|60:216,1,100,10|2
100,308,97147,1,4
124,316,97294,1,2
148,324,97442,1,2
248,332,97736,2,0,B|344:288,1,100,10|2
420,232,98324,1,2
404,212,98471,1,2
388,192,98618,1,2
332,108,98912,5,12
420,232,99206,1,2
248,72,99500,1,4
248,224,99794,1,2
160,116,100089,1,14
72,240,100383,1,2
248,224,100677,1,6
388,84,100971,5,2
388,84,101118,1,2
388,84,101265,2,0,B|388:192|388:192,1,100,10|2
360,280,101853,2,0,B|312:312,1,50,4|2
296,264,102147,2,0,B|228:244,1,50,2|2
208,220,102441,1,2
208,316,102736,5,2
408,292,103030,1,2
372,96,103324,1,2
172,120,103618,1,10
208,316,103912,1,2
320,108,104206,6,0,B|360:64|376:24,1,100,6|2
152,220,104794,2,0,B|112:264|96:304,1,100,14|2
217,135,105383,5,6
325,187,105677,1,0
221,251,105971,1,14
257,191,106559,5,4
168,192,124794,6,4,B|112:184|68:120,2,100,0|2|4
292,32,125971,1,2
228,108,126265,1,2
324,128,126559,2,0,B|372:140|396:196,1,100,2|2
408,240,127000,1,2
392,288,127147,6,0,B|304:346|181:308,1,200,2|2
100,316,128030,1,2
100,316,128177,1,2
100,316,128324,2,0,B|84:260|107:191,1,100,2|2
128,120,128912,1,6
280,240,129500,6,0,B|228:237|187:192,1,100,14|2
128,120,130089,2,0,B|77:109|26:143,1,100,2|2
100,216,130677,1,2
128,120,130971,1,2
192,200,131265,2,0,B|236:172|255:83,1,100,2|2
188,36,131853,6,0,B|312:24|352:140,1,200,2|4
384,220,132736,1,2
380,244,132883,1,2
376,268,133030,1,2
288,316,133324,2,0,B|237:303|190:226,1,100,2|2
106,68,134206,5,14
76,164,134500,1,2
106,68,134794,2,0,B|224:68|308:175,1,200,2|2
360,212,135677,1,2
424,288,135971,2,0,B|500:216|504:88,1,200,2|2
404,112,136853,1,2
328,48,137147,5,2
404,112,137442,1,2
404,112,137589,1,2
404,112,137736,1,2
416,212,138030,1,2
376,304,138324,1,6
312,212,138912,6,0,B|276:180|255:106,1,100,12|2
200,56,139500,1,2
167,65,139647,1,2
137,85,139794,1,2
117,114,139941,1,2
107,147,140089,2,0,B|73:209|115:285,1,100,2|2
180,300,140677,1,2
180,300,140971,2,0,B|141:349|55:373,1,100,2|2
280,334,141559,5,0
280,334,141706,1,2
280,334,141853,2,0,B|276:321|262:273|294:189,1,100,2|2
296,194,142294,1,2
286,148,142442,2,0,B|288:136|302:87|269:4,1,100,6|2
280,334,143030,1,6
400,264,143324,5,2
372,264,143471,1,0
344,264,143618,1,12
264,204,143912,1,2
240,300,144206,2,0,B|184:308|108:300,1,100,4|2
264,204,144794,2,0,B|268:147|293:75,1,100,2|2
344,264,145383,2,0,B|411:299|498:291,1,150
512,288,145971,5,2
464,200,146265,1,0
380,144,146559,1,4
464,200,146853,2,0,B|416:252,2,50,2|0|2
380,144,147441,1,2
380,144,147736,2,0,B|340:104|216:104|180:156,1,200,2|2
72,264,148618,5,2
72,264,148912,2,0,B|100:308|152:320|248:300,1,150,12|2
236,304,149500,1,2
160,216,149794,5,2
336,124,150089,1,6
236,304,150383,1,2
216,104,150677,1,2
352,248,150971,1,2
252,284,151265,6,0,B|168:304|100:233,1,150,12|0
80,224,151853,2,0,B|36:256,2,50,2|2|2
104,148,152441,1,4
168,100,152736,2,0,B|132:48,2,50,0|2|4
264,80,153324,5,2
320,164,153618,1,14
420,144,153912,2,0,B|468:96,2,50,0|2|0
440,240,154500,1,2
420,336,154794,1,2
168,332,155383,5,0
132,240,155677,1,2
52,184,155971,1,12
140,136,156265,2,0,B|204:88,2,50,2|6|0
52,184,156853,1,2
44,284,157147,1,6
396,240,157736,5,6
372,340,158030,1,0
396,240,158324,2,0,B|394:188|356:137|288:105,1,150,12|8
288,105,158912,1,4
189,105,159206,2,0,B|224:59|221:-5,1,100,2|12
136,212,159794,1,2
137,232,159941,1,0
138,252,160089,1,12
216,332,160383,1,2
372,332,160677,5,0
396,315,160824,1,2
415,292,160971,1,2
431,266,161118,1,2
441,238,161265,1,0
446,208,161412,1,2
447,178,161559,1,2
444,148,161706,1,2
438,118,161853,5,12
272,152,162147,1,10
440,236,162441,1,10
344,56,162736,1,0
328,256,163030,6,0,B|244:316|104:316,1,200,6|10
240,176,163912,1,2
240,176,164206,2,0,B|176:124|68:116,1,150,6|2
64,116,164794,1,10
240,176,165089,5,2
136,228,165383,1,6
340,120,165677,1,2
240,176,165971,1,10
428,72,166265,1,2
420,276,166559,1,6
264,328,166853,5,0
264,328,167000,1,2
264,328,167147,1,14
164,328,167441,1,2
112,244,167736,2,0,B|91:178|131:82|208:52,1,200,4|10
280,76,168618,2,0,B|266:130|215:172,1,100,2|6
208,260,169206,1,2
224,282,169353,1,2
244,307,169500,1,10
360,316,169794,5,2
244,307,170089,1,2
311,202,170383,1,2
311,202,170530,1,2
311,202,170677,2,0,B|359:177|410:192,1,100,10|2
288,72,171265,2,0,B|240:108|225:176,1,100,6|2
92,120,171853,6,0,B|100:184|155:224,1,100,10|2
108,304,172441,1,6
200,340,172736,1,2
232,332,172883,1,2
264,320,173030,2,0,B|316:306|344:260,1,100,10|2
272,188,173618,2,0,B|284:108|364:56,1,150,0|2
376,48,174206,5,10
352,216,174500,1,2
220,108,174794,2,0,B|200:152|152:188,1,100,2|2
96,344,175383,2,0,B|156:304|224:320,1,100,14|2
96,344,175971,1,6
36,248,176265,1,2
36,248,176412,1,0
36,248,176559,6,0,B|4:204|44:112,1,100,12|2
108,88,177147,1,4
184,156,177441,1,2
184,156,177589,2,0,B|132:200,1,50,0|2
160,288,178030,1,2
160,288,178324,5,6
256,124,178618,1,2
352,288,178912,1,14
256,124,179206,1,2
368,192,179500,6,0,B|424:192|466:172,1,100,6|2
140,176,180089,2,0,B|86:172|41:195,1,100,14|2
256,248,180677,6,0,B|270:198|340:240|316:336|224:332|168:288|156:243|189:180|236:180|268:172|276:140|272:96|264:60|252:36,1,400,4|4
256,192,198324,5,6
256,192,198912,1,0
256,192,199500,5,14
256,192,199794,1,8
256,192,200089,1,14
256,192,200383,1,10
280,32,200677,6,0,B|216:8|112:56|116:148,1,200,6|10
156,184,201559,1,2
216,132,201853,2,0,B|280:108|384:156|380:248,1,200,6|10
400,292,202736,1,2
320,276,203030,6,0,B|272:304|252:368,1,100,2|2
220,360,203471,1,2
180,352,203618,2,0,B|131:329|107:263,1,100,2|2
84,204,204206,1,2
256,76,204500,5,0
256,76,204647,1,2
256,76,204794,1,14
424,204,205088,1,2
256,328,205383,6,0,B|208:348|96:352|28:316,1,200,6|10
92,236,206265,2,0,B|78:182|27:140,1,100,2|6
120,92,206853,1,0
140,68,207000,1,2
160,48,207147,1,10
256,72,207441,5,2
284,152,207736,2,0,B|340:136|392:168,1,100,6|2
416,184,208177,1,2
416,184,208324,2,0,B|468:197|514:171,1,100,10|2
444,344,208912,6,0,B|389:319|359:256,1,100,6|2
340,256,209353,1,2
340,256,209500,2,0,B|308:212|241:184,1,100,8|2
100,160,210089,6,0,B|120:240|236:268,1,150,6|2
244,268,210677,2,0,B|290:241|360:260,1,100,10|2
452,208,211265,2,0,B|416:132|320:108,1,150,2|2
312,112,211853,6,0,B|260:120|180:104,1,100,8|2
212,109,212294,1,2
213,109,212441,2,0,B|193:153|145:189,1,100,2|2
149,185,212883,1,2
151,185,213030,2,0,B|183:220|198:278,1,100,8|2
196,272,213471,1,2
196,273,213618,2,0,B|248:265|328:276,1,100,14|2
328,260,214059,1,2
364,252,214206,2,0,B|415:268|496:240,1,100,14|2
504,160,214794,6,0,B|448:141|373:166,1,100,6|2
372,152,215236,1,2
340,164,215383,2,0,B|291:170|218:151,1,100,0|2
147,91,215971,6,0,B|132:160|174:218,1,100,6|2
164,224,216413,1,2
192,244,216560,2,0,B|244:256|294:308,1,100,0|2
368,344,217147,6,0,B|368:240,1,100,6|2
228,52,217736,2,0,B|228:152,1,100,14|2
300,200,218324,5,6
124,264,218912,5,2
124,272,219206,1,0
124,280,219500,1,4
388,120,220089,5,2
388,112,220383,1,2
388,104,220677,1,4
185,160,221265,5,4
307,236,221559,1,2
200,124,221854,1,6
296,272,222148,1,2
216,88,222442,1,12
284,308,222736,1,2
244,208,223030,1,6
284,308,223324,5,2
284,308,223471,1,2
284,308,223618,1,14
380,328,223912,1,2
464,272,224207,2,0,B|469:203|412:116|327:106,1,200,6|14
292,184,225089,1,0
224,112,225383,6,0,B|176:140|148:218,1,100,6|2
140,220,225825,1,2
116,252,225972,2,0,B|92:300|30:340,1,100,2|2
48,204,226559,5,6
56,184,226707,1,2
60,164,226853,1,2
64,144,227001,1,2
68,124,227148,6,0,B|80:64|68:4,1,100,12|2
204,92,227736,2,0,B|254:58|288:7,1,100,6|2
292,172,228324,2,0,B|352:184|412:172,1,100,2|2
504,288,228913,6,0,B|428:260|336:296,1,150,4|2
312,300,229501,2,0,B|262:320|196:291,1,100,14|2
84,312,230089,6,0,B|60:264|76:192|140:152,1,150,6|2
152,144,230677,2,0,B|204:142|266:124,1,100,10|2
288,96,231118,1,2
336,112,231265,2,0,B|388:108|438:136,1,100,6|2
468,168,231707,1,2
444,212,231854,2,0,B|440:264|411:310,1,100,12|2
384,344,232295,1,2
336,332,232442,2,0,B|288:312|204:321,1,100,6|2
188,324,232883,1,2
140,336,233030,2,0,B|89:307|42:243,1,100,12|2
32,132,233618,6,0,B|88:113|163:138,1,100,6|2
172,112,234060,1,2
212,96,234207,2,0,B|260:104|332:88,1,100,14|2
388,252,234794,6,0,B|424:292|476:324,1,100,6|0
140,252,235383,2,0,B|104:292|52:324,1,100,4|0
388,252,235971,5,6
252,32,236265,1,2
140,252,236559,1,14
252,32,236853,1,2
252,32,237147,6,0,B|192:124|320:192|240:324,1,299.999991059304,12|4
