osu file format v9

[General]
AudioFilename: Samidare Renka.mp3
AudioLeadIn: 0
PreviewTime: 86863
Countdown: 0
SampleSet: Soft
StackLeniency: 0.7
Mode: 0
LetterboxInBreaks: 0

[Editor]
DistanceSpacing: 1.2
BeatDivisor: 4
GridSize: 4

[Metadata]
Title:Samidare Renka
Artist:Hatsune Miku
Creator:KanaRin
Version:Dis
Source:KaguraP
Tags:Vocaloid Vocaloid2 Disoy sherrie__fay

[Difficulty]
HPDrainRate:3
CircleSize:3
OverallDifficulty:2
ApproachRate:4
SliderMultiplier:1.4
SliderTickRate:1

[Events]
//Background and Video events
0,0,"BG.jpg"
//Break Periods
2,106759,123474
2,182053,197004
//Storyboard Layer 0 (Background)
//Storyboard Layer 1 (Fail)
//Storyboard Layer 2 (Pass)
//Storyboard Layer 3 (Foreground)
//Storyboard Sound Samples
//Background Colour Transformations
3,100,163,162,255

[TimingPoints]
12442,588.235294117647,4,2,1,55,1,0
13324,-100,4,2,2,55,0,0
13618,-100,4,2,1,55,0,0
14500,-100,4,2,2,55,0,0
16559,-100,4,2,1,55,0,0
16853,-100,4,2,2,55,0,0
17147,-100,4,1,1,55,0,0
17736,-100,4,2,1,55,0,0
18030,-100,4,2,2,55,0,0
18324,-100,4,1,1,55,0,0
19206,-100,4,2,2,55,0,0
19500,-100,4,2,1,55,0,0
19798,-100,4,2,2,55,0,0
19946,-100,4,2,1,55,0,0
20383,-100,4,2,2,55,0,0
21265,-100,4,2,1,55,0,0
21559,-100,4,2,2,55,0,0
21853,-100,4,1,1,55,0,0
22442,-100,4,2,1,55,0,0
22736,-100,4,2,2,55,0,0
23030,-100,4,1,1,55,0,0
23622,-100,4,2,1,55,0,0
23912,-100,4,2,2,55,0,0
24206,-100,4,1,1,55,0,0
24500,-100,4,2,2,55,0,0
24794,-100,4,1,1,55,0,0
25089,-100,4,2,2,55,0,0
25383,-100,4,2,1,55,0,0
25828,-100,4,2,2,55,0,0
26265,-100,4,1,1,55,0,0
29206,-100,4,2,2,55,0,0
29500,-100,4,2,1,55,0,0
29794,-100,4,2,2,55,0,0
31265,-100,4,1,1,55,0,0
31853,-100,4,2,1,55,0,0
33324,-100,4,2,2,55,0,0
33618,-100,4,2,1,55,0,0
34063,-100,4,2,1,55,0,0
34500,-100,4,2,2,55,0,0
34794,-100,4,2,1,55,0,0
35383,-100,4,2,2,55,0,0
35971,-100,4,1,1,55,0,0
36416,-100,4,2,2,55,0,0
36853,-100,4,2,1,55,0,0
37298,-100,4,2,2,55,0,0
37736,-100,4,2,1,55,0,0
38030,-100,4,2,2,55,0,0
38324,-100,4,2,1,55,0,0
38618,-100,4,2,2,55,0,0
38912,-100,4,2,1,55,0,0
39206,-100,4,2,2,55,0,0
39500,-100,4,2,1,55,0,0
40089,-100,4,2,2,55,0,0
40677,-100,4,1,1,55,0,0
41122,-100,4,2,2,55,0,0
41559,-100,4,2,1,55,0,0
42004,-100,4,2,2,55,0,0
42442,-100,4,2,1,55,0,0
42736,-100,4,2,2,55,0,0
43030,-100,4,2,1,55,0,0
43328,-100,4,2,2,55,0,0
43618,-100,4,2,1,55,0,0
43912,-100,4,2,2,55,0,0
45383,-100,4,2,1,55,0,0
46265,-100,4,2,2,55,0,0
46559,-100,4,2,1,55,0,0
48030,-100,4,2,2,55,0,0
48327,-100,4,2,1,55,0,0
48618,-100,4,2,2,55,0,0
48912,-100,4,2,1,55,0,0
50089,-100,4,1,1,55,0,0
50677,-100,4,2,2,55,0,0
50971,-100,4,2,1,55,0,0
51118,-100,4,2,2,55,0,0
51853,-100,4,2,1,55,0,0
52441,-100,4,1,1,55,0,0
52736,-100,4,2,2,55,0,0
53030,-100,4,2,1,55,0,0
53324,-100,4,2,2,55,0,0
53618,-100,4,2,1,55,0,0
54206,-100,4,2,2,55,0,0
54500,-100,4,2,1,55,0,0
54794,-100,4,1,1,55,0,0
55240,-100,4,2,2,55,0,0
55677,-100,4,2,1,55,0,0
55828,-100,4,2,2,55,0,0
56559,-100,4,2,1,55,0,0
57441,-100,4,2,2,55,0,0
57736,-100,4,2,1,55,0,0
58030,-100,4,2,2,55,0,0
58324,-100,4,2,1,55,0,0
58912,-100,4,2,2,55,0,0
59500,-100,4,1,1,55,0,0
59945,-100,4,2,2,55,0,0
60383,-100,4,2,1,55,0,0
60534,-100,4,2,2,55,0,0
61265,-100,4,2,1,55,0,0
62151,-100,4,2,2,55,0,0
62441,-100,4,2,1,55,0,0
62736,-100,4,2,2,55,0,0
63030,-100,4,2,1,55,0,0
63618,-100,4,2,2,55,0,0
64206,-100,4,2,1,55,0,0
64504,-100,4,2,2,55,0,0
64794,-100,4,2,1,55,0,0
65089,-100,4,2,2,55,0,0
65383,-100,4,2,1,55,0,0
66853,-100,4,2,2,55,0,0
67147,-100,4,2,1,55,0,0
67441,-100,4,2,2,55,0,0
67736,-100,4,2,1,55,0,0
68324,-100,4,2,2,55,0,0
68912,-100,4,1,1,55,0,0
69206,-100,4,2,2,55,0,0
69500,-100,4,2,1,55,0,0
69794,-100,4,2,2,55,0,0
70089,-100,4,2,1,55,0,0
70677,-100,4,2,2,55,0,0
70975,-100,4,2,1,55,0,0
71265,-100,4,1,1,55,0,0
71710,-100,4,2,2,55,0,0
72147,-100,4,2,1,55,0,0
72298,-100,4,2,2,55,0,0
73324,-100,4,2,1,55,0,0
73618,-100,4,1,1,55,0,0
74206,-100,4,2,2,55,0,0
74794,-100,4,2,1,55,0,0
75383,-100,4,2,2,55,0,0
75971,-100,4,2,1,55,0,0
76559,-100,4,2,2,55,0,0
77147,-100,4,2,1,55,0,0
77593,-100,4,2,2,55,0,0
78030,-100,4,2,1,55,0,0
78324,-100,4,1,1,55,0,0
78622,-100,4,2,2,55,0,0
79500,-100,4,2,1,55,0,0
80383,-100,4,2,2,55,0,0
80677,-100,4,1,1,55,0,0
80971,-100,4,2,2,55,0,0
81853,-100,4,2,1,55,0,0
82441,-100,4,2,2,55,0,0
82736,-100,4,2,1,55,0,0
83030,-100,4,1,1,55,0,0
83475,-100,4,2,2,55,0,0
83912,-100,4,2,1,55,0,0
84063,-100,4,2,2,55,0,0
84794,-100,4,2,1,55,0,0
85387,-100,4,2,1,25,0,0
87147,-100,4,2,2,55,0,0
87740,-100,4,1,1,65,0,1
88324,-100,4,2,2,65,0,1
88912,-100,4,2,1,65,0,1
89500,-100,4,2,2,65,0,1
90089,-100,4,2,1,65,0,1
90383,-100,4,2,2,65,0,1
90677,-100,4,2,1,65,0,1
90971,-100,4,2,2,65,0,1
91265,-100,4,2,1,65,0,1
91853,-100,4,2,2,65,0,1
92441,-100,4,1,1,65,0,1
92887,-100,4,2,2,65,0,1
93324,-100,4,2,1,65,0,1
93475,-100,4,2,2,65,0,1
94206,-100,4,2,2,65,0,1
94500,-100,4,2,1,65,0,1
94794,-100,4,1,1,65,0,1
95093,-100,4,2,2,65,0,1
95971,-100,4,2,1,65,0,1
96559,-100,4,2,2,65,0,1
97147,-100,4,1,1,65,0,1
97593,-100,4,2,2,65,0,1
98030,-100,4,2,1,65,0,1
98181,-100,4,2,2,65,0,1
99206,-100,4,2,1,65,0,1
99794,-100,4,2,2,65,0,1
100089,-100,4,2,1,65,0,1
100383,-100,4,2,2,65,0,1
100677,-100,4,2,1,65,0,1
101265,-100,4,2,2,65,0,1
101853,-100,4,1,1,65,0,1
102445,-100,4,2,1,65,0,1
102736,-100,4,2,2,65,0,1
103030,-100,4,1,1,65,0,1
103475,-100,4,2,2,65,0,1
103912,-100,4,2,1,65,0,1
106563,-100,4,2,2,100,0,0
124794,-100,4,2,2,55,0,0
125383,-100,4,1,1,55,0,0
125971,-100,4,2,2,55,0,0
126559,-100,4,2,1,55,0,0
126857,-100,4,2,2,55,0,0
127736,-100,4,2,1,55,0,0
128030,-100,4,2,2,55,0,0
129794,-100,4,2,1,55,0,0
130089,-100,4,1,1,55,0,0
130677,-100,4,2,2,55,0,0
131265,-100,4,2,1,55,0,0
131853,-100,4,2,2,55,0,0
132442,-100,4,1,1,55,0,0
132736,-100,4,2,2,55,0,0
133324,-100,4,2,1,55,0,0
134206,-100,4,2,2,55,0,0
134794,-100,4,1,1,55,0,0
135383,-100,4,2,2,55,0,0
135971,-100,4,2,1,55,0,0
136559,-100,4,2,2,55,0,0
137147,-100,4,1,1,55,0,0
137445,-100,4,2,2,55,0,0
138030,-100,4,2,1,55,0,0
138912,-100,4,2,2,55,0,0
139206,-100,4,2,1,55,0,0
139500,-100,4,1,1,55,0,0
139798,-100,4,2,2,55,0,0
140089,-100,4,2,2,55,0,0
140383,-100,4,2,1,55,0,0
141265,-100,4,2,2,55,0,0
141853,-100,4,1,1,55,0,0
142147,-100,4,2,2,55,0,0
142736,-100,4,2,1,55,0,0
143618,-100,4,2,2,55,0,0
144206,-100,4,1,1,55,0,0
144500,-100,4,2,2,55,0,0
145089,-100,4,2,1,55,0,0
145383,-100,4,2,2,55,0,0
146559,-100,4,1,1,55,0,0
146857,-100,4,2,2,55,0,0
147736,-100,4,2,1,55,0,0
148324,-100,4,2,2,55,0,0
148912,-100,4,1,1,55,0,0
149500,-100,4,2,2,55,0,0
149794,-100,4,2,1,55,0,0
149945,-100,4,2,2,55,0,0
151265,-100,4,1,1,55,0,0
151853,-100,4,2,2,55,0,0
153618,-100,4,1,1,55,0,0
153912,-100,4,2,1,55,0,0
154206,-100,4,2,2,55,0,0
154794,-100,4,2,1,55,0,0
155383,-100,4,2,2,55,0,0
155971,-100,4,2,1,55,0,0
156265,-100,4,2,2,55,0,0
156559,-100,4,2,1,55,0,0
156853,-100,4,2,2,55,0,0
157147,-100,4,2,1,55,0,0
157736,-100,4,2,2,55,0,0
158324,-100,4,1,1,55,0,0
158912,-100,4,2,2,55,0,0
159500,-100,4,2,1,55,0,0
160089,-100,4,2,2,55,0,0
160681,-100,4,2,1,25,0,0
162441,-100,4,1,1,55,0,0
163034,-100,4,1,1,65,0,1
163618,-100,4,2,2,65,0,1
164206,-100,4,2,1,65,0,1
164794,-100,4,2,2,65,0,1
165383,-100,4,1,1,65,0,1
165677,-100,4,2,2,65,0,1
166265,-100,4,2,1,65,0,1
166559,-100,4,2,2,65,0,1
167736,-100,4,1,1,65,0,1
168324,-100,4,2,2,65,0,1
168912,-100,4,2,1,65,0,1
169500,-100,4,2,2,65,0,1
170089,-100,4,2,1,65,0,1
170534,-100,4,2,2,65,0,1
170971,-100,4,2,1,65,0,1
171265,-100,4,2,2,65,0,1
171559,-100,4,2,1,65,0,1
171853,-100,4,2,2,65,0,1
172441,-100,4,1,1,65,0,1
173030,-100,4,2,2,65,0,1
173618,-100,4,2,1,65,0,1
174206,-100,4,2,2,65,0,1
174794,-100,4,2,1,65,0,1
175089,-100,4,2,2,65,0,1
175971,-100,4,2,1,65,0,1
176559,-100,4,2,2,65,0,1
177147,-100,4,1,1,65,0,1
177739,-100,4,2,2,65,0,1
178324,-100,4,2,1,65,0,1
178618,-100,4,2,2,65,0,1
178912,-100,4,2,2,65,0,1
179206,-100,4,2,1,65,0,1
179500,-100,4,1,1,65,0,1
179794,-100,4,2,2,65,0,1
180383,-100,4,2,1,65,0,1
180677,-100,4,2,2,65,0,1
181857,-100,4,2,1,55,0,0
198328,-100,4,2,1,55,0,0
200681,-100,4,1,1,55,0,0
201265,-100,4,2,2,55,0,0
201853,-100,4,2,1,55,0,0
202441,-100,4,2,2,55,0,0
203030,-100,4,2,1,55,0,0
203324,-100,4,2,2,55,0,0
203618,-100,4,2,2,55,0,0
204206,-100,4,2,1,55,0,0
204794,-100,4,2,2,55,0,0
205089,-100,4,2,1,55,0,0
205383,-100,4,1,1,55,0,0
205971,-100,4,2,2,55,0,0
206559,-100,4,2,1,55,0,0
207147,-100,4,2,2,55,0,0
207736,-100,4,2,1,55,0,0
208324,-100,4,2,2,55,0,0
209500,-100,4,2,2,55,0,0
210089,-100,4,1,1,55,0,0
210534,-100,4,2,2,55,0,0
211265,-100,4,2,1,55,0,0
211710,-100,4,2,2,55,0,0
212441,-100,4,1,1,55,0,0
212736,-100,4,2,2,55,0,0
213618,-100,4,2,1,55,0,0
214206,-100,4,2,2,55,0,0
214794,-100,4,1,1,55,0,0
215386,-100,4,2,1,55,0,0
215971,-100,4,2,1,55,0,0
216559,-100,4,2,2,55,0,0
217147,-100,4,1,1,55,0,0
217441,-100,4,2,1,55,0,0
217736,-100,4,1,1,55,0,0
218030,-100,4,2,2,55,0,0
218324,-100,4,2,1,55,0,0
218912,-100,4,1,1,65,0,0
219500,-100,4,2,2,55,0,0
219504,-100,4,1,1,70,0,1
220089,-100,4,2,2,70,0,1
220677,-100,4,2,1,70,0,1
221265,-100,4,2,2,70,0,1
221853,-100,4,2,1,70,0,1
222147,-100,4,2,2,70,0,1
222441,-100,4,2,2,70,0,1
223030,-100,4,2,1,70,0,1
223617,-100,4,2,2,70,0,1
224206,-100,4,1,1,70,0,1
224794,-100,4,2,2,70,0,1
225383,-100,4,2,1,70,0,1
225971,-100,4,2,2,70,0,1
226559,-100,4,1,1,70,0,1
227004,-100,4,2,2,70,0,1
227441,-100,4,2,1,70,0,1
227736,-100,4,2,1,70,0,1
228324,-100,4,2,2,70,0,1
228912,-100,4,2,1,70,0,1
229500,-100,4,2,2,70,0,1
230089,-100,4,2,1,70,0,1
230677,-100,4,2,2,70,0,1
231265,-100,4,1,1,70,0,1
231559,-100,4,2,2,70,0,1
232147,-100,4,2,1,70,0,1
233029,-100,4,2,2,70,0,1
233618,-100,4,1,1,70,0,1
234209,-100,4,2,2,70,0,1
234794,-100,4,2,1,70,0,1
235383,-100,4,2,2,70,0,1
235971,-100,4,1,1,70,0,1
236559,-100,4,1,1,70,0,1
236853,-100,4,2,1,70,0,1
237147,-100,4,1,1,70,0,1
238323,-100,4,2,1,70,0,0

[Colours]
Combo1 : 162,255,162
Combo2 : 255,191,255
Combo3 : 142,255,255
Combo4 : 255,255,166

[HitObjects]
60,144,12442,2,0,B|136:108|224:120,1,140,4|4
248,184,13324,1,0
216,260,13618,2,0,B|320:292|440:256,2,210,2|0|2
144,216,15677,1,0
60,200,15971,1,4
228,200,16559,2,0,B|312:216,1,70,2|0
360,160,17147,6,0,B|440:192|520:168,1,140,4|2
480,92,18030,1,0
404,52,18324,2,0,B|344:36|280:64|284:132,1,140,4|2
276,184,19206,1,0
216,124,19500,1,0
196,204,19794,2,0,B|148:228,2,35,2|4|2
256,264,20383,1,0
328,308,20677,2,0,B|408:312|480:260,1,140,2|4
460,272,21559,1,0
468,188,21853,6,0,B|400:152|312:152,1,140,4|2
272,212,22736,1,0
200,168,23030,2,0,B|144:216|48:216,1,140,2|2
64,132,23912,1,0
140,92,24206,6,0,B|220:56,1,70,4|0
280,96,24794,2,0,B|376:116,1,70,2|0
428,80,25383,2,0,B|504:180|452:300,1,210,0|0
376,276,26559,6,0,B|224:228|80:304,1,280,4|0
19,287,28030,1,0
75,223,28324,2,0,B|95:147|79:55,1,140,2|4
59,3,29206,1,0
127,51,29500,1,8
207,75,29794,1,0
256,192,30089,12,4,31265
472,144,31853,5,4
304,88,32442,1,2
148,156,33030,5,8
148,156,33324,1,2
148,156,33618,2,0,B|192:192|272:200,2,105,4|2|2
88,216,34794,2,0,B|124:288|216:300,1,140,4|4
352,356,35971,6,0,B|280:324|208:360,2,140,4|2|4
392,192,37736,1,0
392,192,38030,1,2
392,192,38324,2,0,B|372:108,3,70,4|2|0|2
300,164,39500,2,0,B|224:148|144:168,1,140,4|4
76,316,40677,6,0,B|140:340|228:316,2,140,4|2|0
52,236,42147,2,0,B|-8:176,1,70
76,144,42736,1,2
76,144,43030,2,0,B|96:68,1,70,4|2
172,108,43618,2,0,B|236:152,1,70,2|2
232,232,44206,2,0,B|296:276|388:280,1,140,4|4
448,272,45089,1,2
400,196,45383,6,0,B|316:176|272:108,1,140,4|2
256,44,46265,1,2
228,124,46559,2,0,B|184:200|84:204,1,140,4|2
256,296,47736,5,4
320,244,48030,2,0,B|320:164,3,70,2|4|2|2
164,112,49500,5,4
240,148,49794,1,2
320,132,50089,2,0,B|404:104|532:124,2,210,4|2|4
440,248,52441,2,0,B|488:312,2,70,4|2|2
356,248,53324,1,2
280,212,53618,2,0,B|208:272|128:260,1,140,4|4
68,248,54500,5,2
28,172,54794,2,0,B|88:112|188:120|240:144,2,210,4|2|4
28,172,56853,1,2
28,256,57147,2,0,B|48:300|28:340,3,70,4|2|2|2
116,340,58324,2,0,B|232:296|348:336,1,210,4|0
400,364,59500,6,0,B|272:360|236:216,2,210,4|2|4
416,196,61853,2,0,B|448:272,2,70,2|2|4
336,168,62736,1,2
260,136,63030,2,0,B|196:196|124:224,2,140,2|4|4
216,64,64500,1,2
288,108,64794,1,2
372,116,65089,1,2
456,104,65383,1,2
424,268,65971,6,0,B|344:280|300:348,1,140,4|2
224,332,66853,1,2
168,268,67147,2,0,B|92:304,2,70,2|2|2
60,136,68324,6,0,B|148:160|224:124,1,140,4|4
256,72,69206,1,2
284,152,69500,2,0,B|376:184,1,70,8|2
308,248,70089,2,0,B|380:272|476:252,1,140,4|8
492,188,70971,1,4
480,104,71265,2,0,B|360:68|256:112,2,210,4|2|4
480,104,73324,1,4
440,176,73618,6,0,B|376:160|284:200,1,140,4|8
236,240,74500,1,2
160,280,74794,2,0,B|84:304|16:288,2,140,4|8|4
84,132,76559,1,8
224,224,77147,2,0,B|336:248|456:216,1,210,4|4
416,140,78324,6,0,B|488:96,2,70,4|2|8
332,124,79206,2,0,B|376:44,1,70,2|2
204,104,80089,2,0,B|176:40,1,70,4|2
104,84,80677,2,0,B|20:52,3,70,4|2|8|2
44,144,81853,2,0,B|92:208|72:288,1,140,4|4
20,340,82736,1,2
96,304,83030,6,0,B|200:284|312:300,2,210,4|2|4
256,192,85383,12,4,87147
88,76,87736,6,0,B|156:108|256:76,1,140,4|8
300,44,88618,1,2
368,92,88912,2,0,B|408:164|488:172,1,140,2|8
372,300,90089,6,0,B|292:324,3,70,4|2|4|2
228,284,91265,2,0,B|140:264|68:292,1,140,4|4
220,176,92441,6,0,B|308:208|436:176,2,210,4|2|8
148,136,94500,1,4
64,124,94794,2,0,B|20:204,1,70,4|2
112,196,95383,2,0,B|160:116,1,70,8|2
212,84,95971,2,0,B|280:56|360:88,1,140,4|4
412,240,97147,6,0,B|308:284|196:236,2,210,4|2|4
468,180,99206,1,2
456,264,99500,2,0,B|440:344,2,70,2|2|2
412,192,100383,1,2
336,156,100677,2,0,B|260:148|172:160,1,140,4|4
116,180,101559,5,2
116,180,101853,1,4
148,344,102441,1,4
148,344,102736,1,2
148,344,103030,2,0,B|232:308|384:328,1,210,4|2
436,344,104206,6,0,B|460:260,3,70
256,192,105383,12,4,106559
128,108,124794,5,4
196,156,125089,1,8
120,192,125383,2,0,B|80:264|120:360,1,140,4|8
188,300,126265,1,2
272,308,126559,2,0,B|360:344,1,70,2|2
364,256,127147,2,0,B|436:272|524:244,1,140,8|4
484,168,128030,5,2
408,128,128324,1,8
336,172,128618,1,0
252,188,128912,2,0,B|180:208|100:184,1,140,2|4
52,132,129794,1,4
36,216,130089,1,4
212,308,130677,6,0,B|280:272,1,70,8|2
344,320,131265,2,0,B|416:300|504:320,2,140,4|8|4
344,320,132736,1,2
384,248,133030,1,8
400,164,133324,1,2
396,80,133618,2,0,B|320:72|252:80,1,140,4|4
180,116,134500,5,2
96,108,134794,2,0,B|132:192|104:272,1,140,4|8
40,292,135677,1,2
124,292,135971,2,0,B|200:264|284:276,1,140,2|8
416,340,137147,5,4
352,288,137442,1,2
320,212,137736,1,8
324,128,138030,1,2
364,56,138324,2,0,B|292:100|216:88,1,140,4|4
148,80,139206,1,4
68,100,139500,6,0,B|88:176,1,70,4|2
44,240,140089,2,0,B|72:336,1,70,8|2
144,328,140677,2,0,B|212:292|296:312,1,140,4|8
448,328,141853,6,0,B|428:252,1,70,4|2
472,188,142442,2,0,B|444:92,1,70,8|2
372,100,143030,2,0,B|304:136|220:116,1,140,4|4
156,88,143912,1,2
204,156,144206,6,0,B|240:204|228:248,1,70,4|2
180,288,144794,2,0,B|176:336|144:356,1,70,8|2
96,288,145383,2,0,B|48:260|32:200|52:140,1,140,2|8
45,166,146265,1,2
92,96,146559,1,4
168,60,146853,1,2
252,52,147147,1,8
336,64,147442,1,2
408,104,147736,6,0,B|384:188|408:276,1,140,2|4
440,316,148618,1,2
360,288,148912,2,0,B|260:256|128:296,2,210,4|2|8
360,288,150971,1,2
360,288,151265,1,4
256,156,151853,5,8
152,288,152442,1,2
256,156,153030,1,8
256,72,153324,1,2
184,116,153618,6,0,B|96:156,1,70,4|2
92,224,154206,2,0,B|20:264,1,70,8|2
96,312,154794,6,0,B|180:276|244:296,1,140,4|8
312,324,155677,1,2
296,240,155971,2,0,B|380:216,3,70,4|2|2|2
448,224,157147,2,0,B|364:196|364:100,1,140,2|4
196,116,158324,5,4
52,204,158912,1,8
52,204,159206,1,2
76,284,159500,2,0,B|160:252|228:260,1,140,4|8
256,192,160677,12,8,162441
432,100,163030,6,0,B|372:148|288:128,1,140,4|8
216,116,163912,1,2
284,168,164206,2,0,B|352:232|312:320,1,140,0|8
321,294,165089,1,2
248,252,165383,6,0,B|172:296,1,70,4|2
108,260,165971,2,0,B|24:296,1,70,8|2
40,204,166559,2,0,B|116:192|172:108,1,140,2|4
308,60,167736,6,0,B|348:140|428:160,1,140,4|8
492,160,168618,1,2
420,204,168912,2,0,B|404:288|344:340,1,140,2|0
296,268,169794,1,2
212,268,170089,2,0,B|108:240|0:288,1,210,2|2
28,204,171265,2,0,B|72:128,1,70,2|2
144,128,171853,2,0,B|204:84,1,70,4|2
284,104,172441,6,0,B|376:88|440:104,1,140,4|8
423,100,173324,1,2
384,176,173618,2,0,B|360:232|388:324,1,140,2|8
384,313,174500,1,2
304,296,174794,6,0,B|224:280,3,70,4|2|8|2
188,212,175971,2,0,B|116:188|36:228,1,140,2|4
176,108,177147,6,0,B|248:132|328:92,1,140,4|8
384,52,178030,1,2
360,132,178324,2,0,B|348:228,1,70,2|2
416,252,178912,2,0,B|404:348,1,70,8|2
332,280,179500,5,4
252,256,179794,1,2
168,260,180089,1,8
96,300,180383,1,2
100,216,180677,6,0,B|224:320|388:240,1,280,2|4
256,192,198324,12,4,200089
44,312,200677,6,0,B|112:272|204:292,1,140,4|8
260,316,201559,1,2
344,332,201853,2,0,B|428:356|492:328,1,140,2|8
481,332,202736,1,2
452,252,203030,6,0,B|408:184,1,70,4|2
348,144,203618,2,0,B|384:72,1,70,8|2
379,81,204206,2,0,B|288:152|168:108,1,210,2|2
108,68,205383,6,0,B|168:120|168:208,1,140,4|8
92,228,206265,1,2
176,232,206559,2,0,B|244:288|324:280,1,140,2|8
388,280,207441,1,2
448,220,207736,2,0,B|480:144|460:52,1,140,2|8
465,82,208618,1,2
465,82,208912,1,4
216,52,209500,5,4
296,72,209794,1,2
332,148,210089,2,0,B|332:208|284:248,2,105,4|8|2
248,164,211265,2,0,B|200:208|144:192,2,105,2|8|2
180,116,212441,6,0,B|96:88,1,70,4|2
64,160,213030,2,0,B|-4:184,1,70,8|2
56,244,213618,2,0,B|112:300|208:276,1,140,4|4
268,260,214500,1,2
336,308,214794,6,0,B|412:344|488:256,1,140,4|8
416,120,215971,2,0,B|340:84|264:172,1,140,2|8
256,312,217147,5,4
256,228,217441,1,2
256,144,217736,1,4
256,60,218030,1,2
180,100,218324,2,0,B|104:128|28:92,1,140,4|8
64,264,219500,6,0,B|156:236|216:256,1,140,4|8
272,300,220383,1,2
240,220,220677,2,0,B|308:164|396:176,1,140,2|8
444,216,221559,1,2
440,132,221853,6,0,B|456:92|436:44,1,70,4|2
364,96,222441,2,0,B|352:52|304:40,1,70,8|2
284,120,223030,2,0,B|216:160|120:128,1,140,2|4
72,96,223912,1,2
108,172,224206,6,0,B|152:240|120:328,1,140,4|8
68,368,225089,1,2
148,340,225383,2,0,B|224:312|284:332,1,140,2|8
364,364,226265,1,2
352,280,226559,2,0,B|384:236|376:156,1,105,4|2
340,160,227147,2,0,B|308:112|320:68,1,70,8|2
360,24,227736,2,0,B|320:84|224:76,1,140,4|4
152,72,228618,1,2
220,120,228912,6,0,B|264:200|204:264,1,140,2|8
160,316,229794,1,2
240,288,230089,2,0,B|332:244|404:284,1,140,4|8
448,312,230971,1,2
480,236,231265,6,0,B|512:168,1,70,4|2
424,172,231853,2,0,B|392:96,1,70,8|2
328,60,232441,2,0,B|248:88|168:52,1,140,4|4
116,24,233324,1,2
152,100,233618,6,0,B|172:172|132:244,1,140,4|8
80,296,234500,1,2
160,272,234794,2,0,B|236:308|316:268,1,140,4|4
432,176,235971,5,4
356,140,236265,1,2
276,168,236559,1,4
236,244,236853,1,4
256,324,237147,6,0,B|316:232|188:164|268:40,1,280,8|4
