osu file format v9

[General]
AudioFilename: sakura.mp3
AudioLeadIn: 0
PreviewTime: 161182
Countdown: 0
SampleSet: Normal
StackLeniency: 0.9
Mode: 0
LetterboxInBreaks: 1

[Editor]
DistanceSpacing: 1
BeatDivisor: 4
GridSize: 4

[Metadata]
Title:Sakura Zensen Ijou Nashi
Artist:Hatsune Miku
Creator:Lalarun
Version:Normal
Source:WataruP
Tags:Vocaloid val0108

[Difficulty]
HPDrainRate:3
CircleSize:4
OverallDifficulty:4
ApproachRate:5
SliderMultiplier:0.799999999999999
SliderTickRate:2

[Events]
//Background and Video events
0,0,"bg.jpg"
//Break Periods
2,32188,36635
2,56121,64064
2,104331,111934
//Storyboard Layer 0 (Background)
//Storyboard Layer 1 (Fail)
//Storyboard Layer 2 (Pass)
//Storyboard Layer 3 (Foreground)
//Storyboard Sound Samples
//Background Colour Transformations
3,100,163,162,255

[TimingPoints]
1274,285.714285714286,4,1,1,70,1,0
31988,-100,4,1,1,10,0,0
37774,-100,4,1,1,70,0,0
65202,-100,4,1,1,70,0,0
84702,-100,4,1,1,5,0,0
85774,-100,4,1,1,70,0,0
141988,-100,4,1,1,5,0,0
142916,-100,4,1,1,70,0,0
161274,-100,4,1,1,70,0,1
183274,-100,4,1,1,70,0,0
184131,-100,4,1,1,70,0,1
195559,-100,4,2,1,5,0,0

[Colours]
Combo1 : 243,139,199
Combo2 : 78,190,65
Combo3 : 227,132,68

[HitObjects]
76,216,10416,2,0,B|160:200,1,79.9999999999999,2|2
196,132,10988,1,2
300,192,11416,2,0,B|316:276,1,79.9999999999999,2|2
388,300,11988,2,0,B|412:268,1,40,2|2
420,188,12416,1,2
468,124,12702,6,0,B|392:92,1,79.9999999999999,2|2
316,112,13273,1,2
240,136,13559,2,0,B|212:100,1,40,0|2
144,68,13988,1,2
96,132,14273,2,0,B|88:180,1,40,2|2
76,252,14702,1,2
156,260,14988,6,0,B|192:344,1,79.9999999999999,2|2
256,292,15559,1,2
368,248,15988,2,0,B|448:272,1,79.9999999999999,2|2
404,340,16559,2,0,B|360:344,1,40,2|2
316,280,16988,1,2
292,204,17273,6,0,B|316:124,1,79.9999999999999,2|2
240,100,17845,1,2
216,176,18131,2,0,B|172:200,1,40,0|2
100,200,18559,2,0,B|56:192,1,40,2|0
40,116,18988,2,0,B|120:96,1,79.9999999999999,2|2
184,52,19559,6,0,B|272:80,1,79.9999999999999,4|8
336,104,20131,1,0
360,180,20416,2,0,B|372:232,1,40,8|0
300,260,20845,2,0,B|256:240,1,40,0|8
184,252,21273,2,0,B|148:288,2,40,0|0|8
136,188,21845,6,0,B|48:168,1,79.9999999999999,0|8
40,92,22416,1,0
116,68,22702,2,0,B|164:56,1,40,8|0
228,92,23131,2,0,B|248:128,1,40,0|8
320,160,23559,2,0,B|368:168,2,40,0|0|8
272,224,24131,6,0,B|232:304,1,79.9999999999999,4|8
300,344,24702,1,0
364,296,24988,2,0,B|360:256,1,40,8|0
408,192,25416,2,0,B|428:156,1,40,0|8
404,80,25845,2,0,B|400:40,2,40,0|0|8
340,128,26416,6,0,B|260:112,1,79.9999999999999,0|8
208,52,26988,1,0
128,64,27274,2,0,B|100:104,1,40,10|2
40,144,27702,2,0,B|56:192,1,40,2|10
132,196,28131,2,0,B|212:176,1,79.9999999999999,2|10
256,192,28702,12,0,31988
64,236,37845,6,0,B|144:216,1,79.9999999999999,4|2
220,212,38416,2,0,B|300:232,2,79.9999999999999,0|2|0
176,144,39274,2,0,B|156:100,2,40,2|0|0
256,136,39845,1,2
304,72,40131,6,0,B|384:52,1,79.9999999999999,0|2
444,104,40702,2,0,B|424:184,1,79.9999999999999,0|2
356,224,41274,1,0
392,296,41559,2,0,B|444:288,2,40,2|0|0
328,344,42131,5,2
264,296,42416,2,0,B|184:308,1,79.9999999999999,0|2
104,320,42988,2,0,B|92:240,1,79.9999999999999,0|2
56,128,43702,1,0
108,68,43988,2,0,B|148:80,1,40
196,144,44416,1,2
260,96,44702,6,0,B|348:88,1,79.9999999999999,0|2
376,160,45274,2,0,B|464:168,2,79.9999999999999,0|2|0
312,208,46131,1,2
364,268,46416,2,0,B|412:256,2,40,10|0|10
300,316,46988,6,0,B|216:304,1,79.9999999999999,4|2
144,328,47559,2,0,B|128:240,1,79.9999999999999,0|2
152,172,48131,2,0,B|68:160,2,79.9999999999999,0|2|0
232,180,48988,1,2
296,228,49274,6,0,B|380:216,1,79.9999999999999,0|2
452,240,49845,2,0,B|464:156,1,79.9999999999999,0|2
420,96,50416,2,0,B|372:84|312:84|256:72,1,160
196,120,51274,1,2
116,124,51559,6,0,B|92:48,2,79.9999999999999,0|2|0
84,196,52416,1,2
60,272,52702,2,0,B|84:348,2,79.9999999999999,0|2|0
84,196,53559,1,2
156,232,53845,6,0,B|204:224|268:240|316:228,2,160
164,312,55274,1,2
240,336,55559,1,0
316,312,55845,5,6
72,236,65274,6,0,B|168:220,1,79.9999999999999,4|2
224,256,65845,1,0
300,228,66131,2,0,B|344:240,1,40,2|2
416,260,66559,2,0,B|428:216,1,40,0|2
404,144,66988,2,0,B|440:104,2,40,0|0|2
328,120,67559,6,0,B|240:112,1,79.9999999999999,0|2
192,56,68131,2,0,B|120:104,1,79.9999999999999,0|2
100,176,68702,1,0
68,292,69131,2,0,B|100:260,1,40
176,256,69559,1,2
256,260,69845,6,0,B|296:328,1,79.9999999999999,0|2
376,320,70416,1,0
400,244,70702,2,0,B|412:200,1,40,2|0
432,128,71131,1,0
368,80,71416,2,0,B|316:92,1,40
292,160,71845,1,2
212,164,72131,6,0,B|224:256,1,79.9999999999999,0|2
200,320,72702,2,0,B|112:284,1,79.9999999999999,0|2
48,308,73273,1,0
52,228,73559,2,0,B|96:208,1,40,6|0
76,132,73988,1,0
84,52,74273,6,0,B|124:64,1,40,4|0
200,84,74702,1,2
276,108,74988,2,0,B|316:120,1,40,0|2
428,80,75559,6,0,B|400:171,1,79.9999999999999,0|2
376,232,76131,2,0,B|364:272,1,40,0|2
256,324,76702,6,0,B|236:240,2,79.9999999999999,0|2|0
180,348,77559,1,2
116,300,77845,2,0,B|32:320,2,79.9999999999999,0|2|0
156,232,78702,1,2
112,164,78988,6,0,B|184:140|268:120,1,160,4|0
336,160,79845,1,8
408,124,80131,2,0,B|384:48,2,79.9999999999999,0|8|0
432,200,80988,2,0,B|468:224,2,40,8|0|4
384,264,81559,5,8
304,256,81845,1,0
224,248,82131,1,12
256,192,82416,12,2,84702
196,288,85845,6,0,B|276:268,1,79.9999999999999,4|2
352,252,86416,2,0,B|332:172,1,79.9999999999999,0|2
316,96,86988,2,0,B|236:116,1,79.9999999999999,0|2
160,132,87559,2,0,B|180:212,1,79.9999999999999,0|2
196,288,88131,6,0,B|276:268,1,79.9999999999999,0|2
368,252,88702,2,0,B|348:172,1,79.9999999999999,0|2
316,84,89273,2,0,B|236:104,1,79.9999999999999,0|2
144,120,89845,2,0,B|164:200,1,79.9999999999999,0|2
196,288,90416,6,0,B|276:268,1,79.9999999999999,0|2
392,244,90988,2,0,B|372:164,1,79.9999999999999,0|2
336,52,91559,2,0,B|256:72,1,79.9999999999999,0|2
140,96,92131,2,0,B|160:176,1,79.9999999999999,0|6
256,192,92702,12,4,94988
256,192,95559,6,0,B|336:180,1,79.9999999999999,0|8
400,228,96131,1,0
356,296,96416,2,0,B|364:352,2,40,8|0|0
280,268,96988,1,8
216,316,97273,6,0,B|136:304,1,79.9999999999999,4|8
100,320,97702,2,0,B|88:240,1,79.9999999999999,4|0
72,204,98131,2,0,B|152:192,1,79.9999999999999,12|0
188,208,98559,2,0,B|200:128,1,79.9999999999999,4|0
176,96,98988,2,0,B|140:72,2,40,4|0|12
256,192,99559,12,4,104131
440,148,113273,6,0,B|360:160,1,79.9999999999999,4|2
284,136,113845,1,0
248,64,114131,2,0,B|212:92,1,40,2|0
140,104,114559,2,0,B|100:88,1,40,0|2
80,164,114988,2,0,B|72:248,1,79.9999999999999,0|2
132,296,115559,6,0,B|216:288,1,79.9999999999999,0|2
292,300,116131,2,0,B|332:324,2,40,0|0|2
264,224,116702,2,0,B|272:176,1,40
328,128,117131,1,0
356,204,117416,2,0,B|372:256,1,40,0|2
428,296,117845,6,0,B|404:332,2,40,0|0|2
452,220,118416,2,0,B|460:180|464:132,1,79.9999999999999,0|2
440,64,118988,2,0,B|400:56|352:52,2,79.9999999999999,0|2|0
312,160,120131,5,0
164,220,120702,1,0
192,64,121273,1,0
52,140,121845,2,0,B|16:124,2,40,2|0|2
112,196,122416,6,0,B|96:276,1,79.9999999999999,4|2
148,336,122988,1,0
216,296,123273,2,0,B|256:304,1,40,2|2
324,344,123702,1,0
400,316,123988,2,0,B|408:276,1,40
440,204,124416,6,0,B|476:168,2,40,2|0|0
360,212,124988,1,2
296,164,125273,2,0,B|208:148,2,79.9999999999999,0|2|0
360,116,126131,1,2
312,52,126416,2,0,B|224:68,1,79.9999999999999,0|2
152,64,126988,6,0,B|64:48,2,79.9999999999999,0|2|0
140,144,127845,2,0,B|108:172,1,40,2|0
68,240,128273,2,0,B|156:256,1,79.9999999999999
160,292,128702,2,0,B|248:276,1,79.9999999999999,0|2
316,300,129273,6,0,B|332:212,1,79.9999999999999,0|2
396,176,129845,2,0,B|484:192,2,79.9999999999999,0|2|0
396,96,130702,2,0,B|348:72,1,40,2|0
292,120,131131,1,0
244,56,131416,2,0,B|204:68,1,40,0|0
48,52,132131,6,0,B|60:92,1,40
112,152,132559,2,0,B|108:196,1,40
104,272,132988,2,0,B|28:252,2,79.9999999999999
176,236,133845,6,0,B|264:220,1,79.9999999999999,0|2
312,276,134416,2,0,B|296:316,2,40,0|0|2
332,200,134988,2,0,B|316:112,1,79.9999999999999,0|2
372,64,135559,2,0,B|460:80,1,79.9999999999999,0|2
436,156,136131,6,0,B|416:228|408:320,1,160,4|0
328,328,136988,1,8
284,260,137273,2,0,B|204:248,2,79.9999999999999,0|8|0
320,188,138131,2,0,B|360:168,2,40,8|0|4
240,176,138702,5,8
164,152,138988,1,0
88,128,139273,1,12
256,192,139559,12,0,141988
316,96,142988,6,0,B|236:116,1,79.9999999999999,4|2
160,132,143559,2,0,B|180:212,1,79.9999999999999,0|2
196,288,144131,2,0,B|276:268,1,79.9999999999999,0|2
352,252,144702,2,0,B|332:172,1,79.9999999999999,0|2
316,96,145273,6,0,B|236:116,1,79.9999999999999,0|2
144,132,145845,2,0,B|164:212,1,79.9999999999999,0|2
196,300,146416,2,0,B|276:280,1,79.9999999999999,0|2
368,264,146988,2,0,B|348:184,1,79.9999999999999,0|2
316,96,147559,6,0,B|236:116,1,79.9999999999999,0|2
120,140,148131,2,0,B|140:220,1,79.9999999999999,0|2
176,332,148702,2,0,B|256:312,1,79.9999999999999,0|2
372,288,149273,2,0,B|352:208,1,79.9999999999999,0|2
256,192,149845,12,4,152131
256,192,152702,6,0,B|176:204,1,79.9999999999999,0|8
112,156,153273,1,0
156,88,153559,2,0,B|148:32,2,40,8|0|0
232,116,154131,1,8
296,68,154416,6,0,B|376:80,1,79.9999999999999,4|8
412,64,154845,2,0,B|424:144,1,79.9999999999999,4|0
440,180,155273,2,0,B|360:192,1,79.9999999999999,12|0
324,176,155702,2,0,B|312:256,1,79.9999999999999,4|0
336,288,156131,2,0,B|372:312,2,40,4|0|12
256,192,156702,12,4,160702
64,112,161273,6,0,B|76:196,1,79.9999999999999,4|8
100,268,161845,1,0
164,316,162131,1,8
244,316,162416,2,0,B|288:308,2,40,0|0|8
204,244,162988,1,0
268,196,163273,1,8
344,220,163559,6,0,B|352:272,2,40,0|0|8
404,168,164131,2,0,B|456:160,2,40,0|0|8
328,140,164702,2,0,B|315:61,2,79.9999999999999,0|8|0
268,196,165559,1,8
188,188,165845,5,4
124,140,166131,1,8
120,60,166416,1,0
52,104,166702,1,8
52,184,166988,6,0,B|64:232,1,40
60,304,167416,2,0,B|108:316,1,40
164,268,167845,1,8
232,308,168131,6,0,B|328:312,1,79.9999999999999,0|8
368,252,168702,1,4
448,260,168988,2,0,B|452:164,1,79.9999999999999,8|0
468,100,169559,2,0,B|440:64,2,40,8|0|0
392,128,170131,1,8
360,56,170416,6,0,B|276:48,1,79.9999999999999,4|8
248,72,170845,2,0,B|164:80,1,79.9999999999999,0|0
92,56,171416,2,0,B|76:92,1,40
128,152,171845,2,0,B|128:192,1,40,8|0
72,248,172273,2,0,B|88:284,1,40,0|8
152,332,172702,6,0,B|232:320,1,79.9999999999999,4|8
268,336,173131,2,0,B|348:324,1,79.9999999999999,4|8
384,340,173559,2,0,B|396:260,1,79.9999999999999,4|8
380,224,173988,2,0,B|392:144,1,79.9999999999999,4|8
376,108,174416,2,0,B|408:72,2,40,0|0|8
312,156,174988,5,4
236,132,175274,1,8
160,108,175559,2,0,B|136:68,2,40,0|8|8
176,188,176131,5,0
152,264,176416,1,8
128,340,176702,2,0,B|88:352,2,40,0|8|8
208,324,177274,5,0
284,300,177559,1,8
360,276,177845,1,0
436,252,178131,2,0,B|448:212,1,40,8|0
396,152,178559,2,0,B|388:108,1,40,0|8
456,68,178988,2,0,B|468:28,2,40,0|0|8
256,192,179559,12,4,182845
172,200,183559,6,0,B|144:112,1,79.9999999999999,2|2
184,52,184131,6,0,B|272:80,1,79.9999999999999,4|10
336,104,184702,1,0
360,180,184988,2,0,B|372:232,1,40,10|0
300,260,185416,2,0,B|256:240,1,40,0|8
184,252,185845,2,0,B|148:288,2,40,0|0|10
136,188,186416,6,0,B|48:168,1,79.9999999999999,0|10
40,92,186988,1,0
116,68,187274,2,0,B|164:56,1,40,10|0
228,92,187702,2,0,B|248:128,1,40,0|10
320,160,188131,2,0,B|368:168,2,40,0|0|10
272,224,188702,6,0,B|232:304,1,79.9999999999999,4|10
300,344,189274,1,0
364,296,189559,2,0,B|360:256,1,40,10|0
408,192,189988,2,0,B|428:156,1,40,0|10
404,80,190416,2,0,B|400:40,2,40,0|0|10
340,128,190988,6,0,B|260:112,1,79.9999999999999,0|10
208,52,191559,1,0
128,64,191845,2,0,B|100:104,1,40,10|0
40,144,192274,2,0,B|56:192,1,40,2|10
132,196,192702,2,0,B|212:176,1,79.9999999999999,2|10
256,192,193274,12,0,195559
