osu file format v9

[General]
AudioFilename: sakura.mp3
AudioLeadIn: 0
PreviewTime: 161182
Countdown: 0
SampleSet: Soft
StackLeniency: 0.9
Mode: 0
LetterboxInBreaks: 1

[Editor]
DistanceSpacing: 1.4
BeatDivisor: 4
GridSize: 4

[Metadata]
Title:Sakura Zensen Ijou Nashi
Artist:Hatsune Miku
Creator:Lalarun
Version:Ijou0108
Source:WataruP
Tags:Vocaloid val0108

[Difficulty]
HPDrainRate:6
CircleSize:4
OverallDifficulty:8
ApproachRate:9
SliderMultiplier:1.8
SliderTickRate:2

[Events]
//Background and Video events
0,0,"bg.jpg"
//Break Periods
2,31188,36388
2,56111,63531
2,104331,111531
//Storyboard Layer 0 (Background)
//Storyboard Layer 1 (Fail)
//Storyboard Layer 2 (Pass)
//Storyboard Layer 3 (Foreground)
//Storyboard Sound Samples
//Background Colour Transformations
3,100,163,162,255

[TimingPoints]
1274,285.714285714286,4,2,0,70,1,0
19059,-100,4,1,1,70,0,0
28702,-133.333333333333,4,1,0,70,0,0
28988,-133.333333333333,4,1,0,80,0,0
29274,-133.333333333333,4,1,0,90,0,0
29559,-133.333333333333,4,1,0,100,0,0
29845,-133.333333333333,4,1,0,90,0,0
30131,-133.333333333333,4,1,0,80,0,0
30416,-133.333333333333,4,1,0,70,0,0
30702,-133.333333333333,4,1,0,60,0,0
30988,-100,4,1,1,50,0,0
36916,-100,4,1,1,70,0,0
44702,-200,4,1,1,70,0,0
45274,-100,4,1,1,70,0,0
45845,-66.6666666666667,4,1,1,70,0,0
46416,-100,4,1,1,70,0,0
64916,-100,4,2,0,70,0,0
65274,-100,4,1,1,70,0,0
84631,-100,4,2,0,50,0,0
85413,-100,4,2,0,60,0,0
85702,-100,4,1,1,70,0,0
112059,-100,4,1,1,50,0,0
113274,-100,4,1,1,70,0,0
120131,-200,4,1,1,70,0,0
120702,-100,4,1,1,70,0,0
121274,-66.6666666666667,4,1,1,70,0,0
121845,-100,4,1,1,70,0,0
142059,-100,4,2,0,50,0,0
142559,-100,4,2,0,60,0,0
142845,-100,4,1,1,70,0,0
161274,-66.6666666666667,4,1,1,80,0,1
183274,-66.6666666666667,4,1,1,80,0,0
184131,-100,4,1,1,80,0,1
193274,-100,4,1,1,50,0,1
194131,-100,4,1,1,70,0,1
194416,-100,4,1,1,80,0,1
194702,-100,4,1,1,90,0,1
194988,-100,4,1,1,100,0,1
195559,-100,4,2,1,15,0,0

[Colours]
Combo1 : 243,139,199
Combo2 : 78,190,65
Combo3 : 227,132,68

[HitObjects]
24,256,10416,1,2
108,292,10559,1,0
104,200,10702,1,10
108,292,10845,1,0
16,164,10988,2,0,B|40:124|96:108,2,90,2|0|8
104,200,11416,2,0,B|124:220|124:220|140:220|140:220|136:240|136:240|180:264|224:268|244:220,1,180,2|2
312,176,11845,1,8
220,80,11988,1,2
404,148,12131,2,0,B|384:120|372:92|396:48|440:40|476:56|496:116,2,180,2|10|0
320,48,12845,5,0
244,140,12988,1,10
384,240,13131,1,0
224,320,13273,2,0,B|224:256,2,45,2|0|0
324,312,13559,1,10
196,192,13702,6,0,B|172:200|172:200|180:216|180:216|160:212|160:212|116:260|48:240,1,180,2|2
8,64,14131,1,8
180,116,14273,1,2
8,168,14416,2,0,B|24:160|24:160|20:148|20:148|40:152|40:152|60:148|80:120|80:120|76:80|132:56,1,180,2|10
164,40,14773,1,2
208,36,14845,1,2
252,40,14916,1,2
288,68,14988,6,0,B|334:77|388:68,1,90,2|0
224,316,15273,2,0,B|178:307|124:316,1,90,10|0
304,236,15559,1,2
256,108,15702,1,0
208,236,15845,1,8
296,316,15988,6,0,B|391:278|391:278|415:197,1,180,2|0
416,180,16345,1,0
416,156,16416,2,0,B|360:152|308:164,1,90,10|0
160,88,16702,1,2
160,88,16773,1,2
160,88,16845,1,2
160,88,16916,1,2
160,88,16988,2,0,B|212:56|280:76|344:24,1,180,8|2
172,184,17416,5,0
36,168,17559,1,10
44,32,17702,1,0
176,8,17845,2,0,B|155:94|155:94|176:200,1,180,2|10
132,364,18273,2,2,B|149:280|149:280|132:160,1,180,2|0
64,240,18702,2,0,B|156:276|156:276|260:276,1,180,8|0
308,332,19131,5,0
424,244,19273,1,2
280,136,19416,1,2
428,20,19559,6,0,B|416:76|352:104,1,90,4|0
288,232,19845,2,0,B|344:224|372:168,1,90,8|8
280,136,20131,1,0
124,224,20273,1,0
220,72,20416,1,8
217,226,20559,6,0,B|208:152|116:144|132:76,1,180,0|0
256,308,20988,1,8
80,272,21131,1,8
172,372,21273,1,0
300,192,21416,1,0
368,308,21559,6,0,B|396:356|396:356|472:372|508:304,1,180,10|4
424,136,21988,1,0
336,156,22131,1,8
396,224,22274,1,8
484,208,22416,5,0
368,68,22559,1,0
288,232,22702,1,8
396,224,22845,6,0,B|340:136|244:124,1,180
232,164,23202,1,0
212,204,23274,2,0,B|112:144,1,90,8|0
64,216,23559,2,0,B|52:267|65:304,1,90
108,288,23774,1,0
148,268,23845,2,0,B|159:319|147:356,1,90,10|10
240,348,24131,5,4
375,348,24274,1,0
308,288,24416,1,8
443,288,24559,1,8
240,224,24702,1,0
375,224,24845,1,0
308,56,24988,1,8
152,144,25131,2,0,B|176:128|176:128|184:148|184:148|200:132|264:132|328:144,1,180
376,224,25559,5,8
240,224,25702,1,8
444,288,25845,1,0
308,288,25988,1,0
376,348,26131,2,0,B|188:348,1,180,10|4
156,268,26559,5,0
256,116,26702,1,8
352,268,26845,1,8
256,204,26988,1,0
168,100,27131,1,0
344,100,27274,1,8
256,290,27416,6,0,B|216:226|300:194|244:90,1,180,8|8
80,64,27845,2,0,B|72:108|80:164,1,90,8|0
432,154,28131,2,0,B|441:112|432:64,1,90,8|0
256,380,28416,2,0,B|256:280,1,90,8|8
256,192,28702,12,0,30988
124,132,36988,5,0
392,128,37559,1,2
208,140,37845,6,0,B|188:203|188:203|120:228|120:228|60:200,1,180,4|8
124,132,38274,1,8
56,76,38416,1,0
140,44,38559,1,0
140,44,38631,1,0
140,44,38702,1,8
124,132,38845,1,0
83,211,38988,5,0
83,211,39131,1,0
256,264,39274,1,8
428,212,39416,1,8
428,212,39559,1,0
84,328,39845,5,2
256,264,39988,1,2
428,328,40131,2,0,B|362:303|335:249|341:180,1,180,4|8
404,120,40559,1,8
428,212,40702,2,0,B|332:184,1,90
320,180,40916,1,0
300,172,40988,1,8
220,116,41131,5,0
80,32,41274,2,0,B|136:26|200:50,1,90
220,116,41559,1,8
48,168,41702,1,8
112,232,41845,1,0
112,232,41916,1,0
112,232,41988,2,0,B|72:264|72:264|16:264,1,90,0|10
4,348,42274,1,2
48,168,42416,6,0,B|60:104|124:68|212:108,1,180,4|8
256,192,42845,1,8
464,216,42988,2,0,B|452:280|388:316|300:276,1,180,4|0
256,192,43416,5,8
256,192,43702,1,0
204,316,43845,1,8
308,316,43988,1,8
256,192,44131,2,0,B|256:92,1,90
256,79,44345,1,0
256,56,44416,1,10
168,36,44559,1,2
181,146,44702,6,0,B|213:186|265:194,1,90,4|0
332,228,45131,1,2
258,271,45274,6,0,B|174:259|109:178,1,180,4|0
32,132,45702,1,2
29,214,45845,6,0,B|84:292|144:340|276:364,1,269.999991953373,4|0
328,328,46274,1,0
180,148,46416,5,2
259,271,46559,1,0
30,213,46702,1,2
224,8,46845,1,0
152,60,46988,6,0,B|92:92|76:152|120:224,1,180,4|8
248,200,47416,1,8
112,320,47559,1,0
272,304,47702,1,0
272,304,47774,1,0
272,304,47845,1,8
352,344,47988,1,0
408,268,48131,5,0
272,304,48274,1,0
410,228,48416,1,8
268,171,48559,1,8
450,209,48702,2,0,B|337:51,1,180,0|10
267,172,49131,1,2
256,48,49274,6,0,B|173:27|156:140|75:81,1,180,4|8
48,172,49702,1,8
256,48,49845,2,0,B|336:116,1,90
340,124,50059,1,0
356,140,50131,1,8
440,176,50274,1,0
360,220,50416,5,0
184,160,50559,1,0
184,340,50702,1,8
8,296,50845,1,8
100,240,50988,2,0,B|156:256|228:252|288:240,1,180,0|10
368,260,51416,5,2
496,120,51559,2,0,B|420:128|360:128|280:116,1,180,0|8
252,188,51988,1,8
137,331,52131,1,0
320,296,52274,2,0,B|212:296,1,90,0|8
132,144,52559,1,0
196,208,52702,5,0
92,60,52845,1,0
272,84,52988,2,0,B|160:84,1,90,10|2
88,240,53274,1,0
88,240,53559,5,10
420,224,53702,1,2
472,304,53845,6,0,B|440:344|368:328,1,90,0|0
40,304,54131,2,0,B|72:344|144:328,1,90,12|8
212,348,54416,5,0
304,252,54559,1,0
208,156,54702,1,12
304,60,54845,1,8
400,156,54988,6,0,B|451:162|486:218|446:271|403:281,2,180,2|4|2
132,56,55845,6,0,B|92:56,1,22.5
112,48,64131,6,0,B|96:60|96:60|116:68|116:68|100:76|100:76|80:108|76:160|120:204,1,180,2|0
400,48,64559,2,0,B|416:60|416:60|396:68|396:68|412:76|412:76|432:108|436:160|392:204,1,180,2|0
256,86,64988,6,0,B|256:64,6,22.5,2|2|2|2|2|2|2
204,196,65274,6,0,B|264:200|272:240|272:240|288:288|352:268,1,180,4|8
204,196,65702,1,8
120,168,65845,1,0
96,300,65988,2,0,B|48:276|36:220,1,90,0|8
49,16,66274,2,0,B|105:40|129:96|117:188,1,180
28,168,66702,5,8
184,296,66845,1,8
232,220,66988,2,0,B|272:160|356:156|400:224,1,180,0|10
316,264,67416,1,2
396,304,67559,5,4
480,196,67702,1,0
480,196,67774,1,0
480,196,67845,1,8
480,80,67988,1,8
360,80,68131,2,0,B|248:56,1,90
64,108,68416,2,0,B|176:132,1,90,8|0
256,288,68702,5,0
136,228,68845,1,0
376,228,68988,1,8
160,316,69131,1,8
352,316,69274,1,0
256,192,69416,1,0
256,192,69488,1,0
256,192,69559,2,0,B|256:84,1,90,10|2
180,56,69845,6,0,B|116:32|52:64|60:160,1,180,4|8
140,132,70274,1,8
60,240,70416,1,0
140,280,70559,2,0,B|240:280,1,90,0|8
408,312,70845,2,0,B|220:316,1,180
388,224,71274,5,8
228,316,71416,1,8
288,144,71559,2,0,B|232:144|188:196,1,90
164,32,71845,1,10
164,32,71988,1,2
256,72,72131,6,0,B|300:72|348:96|356:156|356:156|400:180,1,180,4|8
256,196,72559,1,8
256,312,72702,2,0,B|212:312|164:288|156:228|156:228|112:204,1,180,4|0
83,114,73131,5,0
427,111,73273,2,0,B|304:110,1,90,4|8
156,184,73559,5,8
368,188,73702,2,0,B|276:188,1,90,4|8
166,272,73988,5,8
346,272,74131,1,10
256,272,74273,1,10
192,352,74416,6,0,B|160:352|160:352|124:352|80:312|80:288|80:288|80:228,2,180,2|8|2
328,352,75131,1,0
256,236,75273,1,8
196,116,75416,1,0
280,84,75559,6,0,B|312:84|312:84|348:84|392:124|392:148|392:148|392:208,2,180,2|8|2
143,84,76273,1,0
215,200,76416,1,8
275,320,76559,1,0
139,320,76702,5,8
400,256,76988,1,10
264,24,77273,1,8
56,196,77559,1,10
444,112,77845,5,8
274,176,78131,1,10
367,20,78416,1,8
360,256,78702,5,0
360,256,78773,1,0
360,256,78845,1,0
360,256,78916,1,0
360,256,78988,2,0,B|220:132,1,180,4|8
122,33,79416,1,8
122,33,79559,2,0,B|122:61|122:61|118:89|134:129|174:137|174:137|254:137,1,180,0|8
289,72,79988,5,0
187,228,80131,2,0,B|83:228,2,90,0|0|8
242,298,80559,1,8
431,242,80702,2,0,B|431:274|431:274|431:294|411:334|371:342|371:342|320:342,1,180,0|10
242,298,81131,1,2
188,228,81273,6,0,B|188:128,1,90,4|0
324,156,81559,2,0,B|324:246,1,90,8|8
96,108,81845,2,0,B|168:28,1,90,0|0
416,276,82131,2,0,B|344:356,1,90,8|0
300,108,82416,5,0
176,162,82559,1,8
230,285,82702,1,0
354,229,82845,1,8
200,29,82988,5,0
121,265,83131,1,10
356,343,83273,1,2
432,104,83416,1,10
256,192,83559,12,2,84702
256,48,85273,5,0
256,66,85559,1,2
256,84,85845,2,0,B|212:112|160:120,1,90,4|0
120,44,86131,1,0
36,80,86273,1,0
88,152,86416,2,0,B|112:204|116:272|104:332,1,180,8|0
16,312,86845,1,0
16,220,86988,5,8
192,176,87131,1,0
248,344,87273,1,0
368,224,87416,1,0
260,248,87559,1,8
196,64,87845,5,0
348,108,87988,1,0
416,328,88131,2,0,B|476:284|484:204|432:136,1,180,4|0
436,80,88559,1,0
364,28,88702,5,8
232,48,88845,1,0
296,136,88988,1,0
160,148,89131,1,0
56,232,89273,5,8
232,192,89416,1,0
100,340,89559,1,0
272,288,89702,1,0
196,372,89845,2,0,B|376:324,1,180,8|0
369,325,90202,1,0
369,325,90273,1,0
369,325,90345,1,0
369,325,90416,5,4
12,115,90988,1,8
456,40,91559,1,8
120,188,92131,6,0,B|300:144,1,180,8|0
316,138,92488,1,0
336,132,92559,1,0
356,124,92631,1,0
376,116,92702,5,4
464,96,92845,1,0
436,184,92988,1,8
400,268,93131,1,8
488,260,93273,5,0
324,336,93416,1,0
152,288,93559,1,8
324,336,93702,2,0,B|278:303|232:240|234:162,1,180
96,68,94131,2,0,B|140:36|204:20,1,90,8|8
356,44,94416,2,0,B|324:68|264:80,1,90
144,132,94702,1,10
112,164,94773,1,0
92,204,94845,1,10
84,248,94916,1,0
100,288,94988,6,0,B|140:336|204:348|276:320,1,180,4|8
100,288,95416,2,0,B|42:289|10:321,1,90,8|0
101,287,95702,2,0,B|148:268|172:232,2,90,0|8|0
100,288,96131,2,0,B|72:244|88:184|112:152|160:120,1,180,0|8
228,168,96559,1,8
300,12,96702,2,0,B|424:168,1,180,0|10
440,188,97059,1,0
444,232,97131,1,2
436,276,97202,1,0
404,308,97273,6,0,B|360:324|360:324|296:308,2,90,4|8|8
132,272,97702,2,0,B|176:256|176:256|240:272,2,90,4|8|8
336,164,98131,2,0,B|292:180|292:180|228:164,2,90,8|0|0
48,100,98559,6,0,B|120:52|120:52|220:112,1,180,4|0
124,148,98988,2,0,B|72:232,1,90,4|0
24,300,99273,1,10
36,320,99345,1,0
52,332,99416,1,2
72,340,99488,1,0
92,344,99559,6,0,B|143:373|228:352|276:288,2,180,4|0|0
152,272,100273,2,0,B|136:220|172:180,1,90,0|8
374,284,100559,2,0,B|348:224|284:200|224:240,1,180,8|0
375,283,100988,2,0,B|428:268|440:216,1,90,8|0
484,144,101273,5,8
172,60,101559,2,0,B|276:60,1,90,6|2
324,196,101845,6,0,B|300:148|320:108,1,90,4|0
404,52,102131,2,0,B|428:100|408:140,1,90,8|8
103,138,102416,2,0,B|84:100|108:52,1,90
192,109,102702,2,0,B|212:148|188:196,1,90,8|8
64,352,103131,1,8
0,184,103416,1,8
72,32,103559,5,0
92,76,103631,1,0
64,112,103702,1,0
92,152,103773,1,0
64,192,103845,1,0
92,232,103916,1,0
64,272,103988,1,0
92,312,104059,1,0
64,352,104131,1,4
212,64,112131,6,0,B|228:100|276:128|336:128,1,135,2|0
344,116,112416,2,0,B|328:152|280:180|220:180,1,135,4|0
212,172,112702,2,0,B|228:208|276:236|336:236,1,135,0|0
344,228,112988,2,0,B|328:264|280:292|220:292,1,135,4|0
120,348,113273,6,0,B|56:336|36:244|104:192,1,180,4|8
156,268,113702,1,0
52,128,113845,1,8
52,128,114131,5,0
156,268,114273,2,0,B|252:268,1,90,8|0
340,232,114559,5,0
304,56,114702,1,8
440,172,114845,1,0
260,164,114988,2,0,B|364:124,1,90
364,124,115202,1,0
384,116,115273,1,10
456,64,115416,1,2
412,252,115559,6,0,B|352:272|344:368|264:364,1,180,4|8
252,276,115988,1,8
76,344,116131,2,0,B|200:324,1,90
296,172,116416,2,0,B|192:196,1,90,8|0
40,296,116702,5,0
40,296,116845,2,0,B|160:272,1,90,0|8
328,152,117131,2,0,B|216:120,1,90,8|0
100,16,117416,1,0
60,192,117559,5,10
60,192,117631,1,0
60,192,117702,1,2
60,192,117773,1,0
60,192,117845,2,0,B|112:168|156:168,2,90,4|0|8
52,104,118273,1,8
208,112,118416,2,0,B|236:148|228:196,2,90,4|0|8
52,104,118845,1,8
312,236,118988,2,0,B|288:280|232:284,1,90,8|0
402,236,119273,2,0,B|310:236,1,90,8|0
496,236,119559,1,10
163,239,119988,5,2
79,262,120131,2,0,B|91:298|115:318|155:322,1,90,8|0
163,239,120559,5,2
184,156,120702,2,0,B|124:134|56:196|84:288,1,180,8|0
163,239,121131,5,2
141,319,121274,2,0,B|226:337|273:270|268:200|224:156|180:156,1,270,12|0
163,239,121702,1,2
248,96,121845,6,0,B|292:120|324:168,1,90,6|2
76,376,122131,2,0,B|32:352|8:300,1,90,10|2
248,96,122416,6,0,B|296:60|296:60|364:32|436:116,1,180,4|8
436,172,122845,1,0
396,252,122988,1,8
396,252,123273,5,0
436,172,123416,2,0,B|376:180|328:140|328:140|280:188,2,180,8|8|8
480,292,124131,2,0,B|428:376,1,90,8|0
344,348,124416,5,2
192,248,124559,1,2
20,300,124702,2,0,B|84:344|148:316|148:316|187:363,1,180,4|8
88,248,125131,1,0
252,320,125273,1,8
252,320,125559,5,0
88,248,125702,2,0,B|112:196|56:136|88:52,1,180,8|0
248,80,126131,2,0,B|196:36|140:32,1,90,8|8
176,128,126416,2,0,B|204:160|248:184|315:141|315:141|300:184,1,180,0|10
300,188,126773,1,0
292,208,126845,1,2
284,228,126916,1,0
276,248,126988,6,0,B|435:126,1,180,4|8
488,24,127416,1,8
350,81,127559,2,0,B|426:145,1,90
380,268,127845,1,8
480,252,127988,2,0,B|480:284|480:284|484:320|468:352|436:364|436:364|380:364,1,180
260,312,128416,5,8
312,188,128559,1,0
135,116,128702,1,10
135,116,128988,5,0
135,116,129131,1,0
135,118,129273,2,0,B|161:167|161:167|144:228|216:280,1,180,4|8
260,192,129702,1,10
260,192,129845,2,0,B|184:232|52:228,1,180,0|8
16,160,130273,5,10
16,276,130416,2,0,B|44:320|108:316,2,90,0|2|8
76,64,130845,5,10
98,64,130916,1,0
120,64,130988,1,0
142,64,131059,1,0
164,64,131131,1,2
186,64,131202,1,0
208,64,131273,1,0
230,64,131345,1,0
252,64,131416,1,2
274,64,131488,1,0
296,64,131559,5,4
386,64,131702,2,0,B|482:64|482:64|530:109|528:208|432:220,1,270,4|0
400,148,132273,2,0,B|196:148,1,180,0|2
129,148,132702,5,2
92,236,132988,1,0
64,316,133273,1,2
64,316,133845,6,0,B|80:240|144:232|144:232|156:168,1,180,4|0
148,316,134273,1,0
228,204,134416,1,0
148,316,134559,2,0,B|200:280|268:304|268:304|300:364,1,180,2|0
352,232,134988,1,0
260,132,135131,1,0
348,48,135273,5,2
400,108,135559,1,0
456,164,135845,1,2
456,164,136131,6,0,B|368:168|356:240|356:240|292:260,1,180,4|8
448,256,136559,1,8
288,176,136702,1,0
196,100,136845,2,0,B|240:88|264:44,2,90,0|8|0
84,72,137273,2,0,B|156:84|204:140|220:204,1,180,0|8
168,360,137702,1,8
100,188,137845,1,0
264,260,137988,2,0,B|216:276|168:264,2,90,0|10|2
432,196,138416,6,0,B|432:244|388:292,1,90,0|8
260,16,138702,2,0,B|308:16|356:60,1,90,2|8
80,188,138988,2,0,B|80:140|124:92,1,90,0|8
252,368,139273,2,0,B|204:368|156:324,1,90,2|8
256,192,139559,12,2,140559
256,192,140702,12,0,141988
256,116,142416,5,0
256,134,142702,1,2
256,152,142988,2,0,B|284:188|284:188|344:224|420:184,1,180,4|0
352,120,143416,5,0
476,64,143559,1,8
413,188,143702,2,0,B|465:268,2,90,0|0|0
384,36,144131,5,8
204,24,144273,2,0,B|104:76,1,90
16,208,144559,1,0
144,336,144702,2,0,B|336:244,1,180,8|0
348,84,145131,1,0
412,144,145273,6,0,B|468:188|468:260|404:304,1,180,4|0
368,220,145702,1,0
292,172,145845,1,8
224,68,145988,1,0
152,228,146131,1,0
16,148,146273,1,0
36,32,146416,6,0,B|88:40|124:100,1,90,8|0
228,272,146702,2,0,B|168:260|136:208,1,90
280,132,146988,2,0,B|354:151|404:178|442:234,1,180,8|0
432,219,147345,1,0
432,219,147416,1,0
432,219,147488,1,0
432,219,147559,5,4
432,255,148131,1,8
432,290,148702,1,8
432,325,149273,2,0,B|256:280,1,180,8|0
236,272,149631,1,0
216,264,149702,1,0
196,256,149773,1,0
176,248,149845,6,0,B|264:208,1,90,4|0
88,100,150131,2,0,B|184:152,1,90,8|8
368,204,150416,1,0
256,128,150559,1,0
392,72,150702,1,8
496,176,150845,2,0,B|416:136|416:136|292:136,1,180
88,48,151273,2,0,B|200:48,1,90,8|8
368,204,151559,2,0,B|260:204,1,90
167,130,151845,1,2
202,130,151916,1,0
240,128,151988,1,2
448,276,152131,6,0,B|252:280,1,180,4|8
180,288,152559,2,0,B|204:340|180:396,1,90,8|0
180,288,152845,2,0,B|186:205|208:164|272:120,1,180
180,288,153273,2,0,B|128:300|88:276,1,90
112,192,153559,1,8
268,344,153702,1,8
300,212,153845,2,0,B|340:192|404:200,1,90
224,68,154131,2,0,B|214:118|226:158,1,90,10|2
464,24,154416,5,4
392,76,154559,1,8
472,120,154702,1,10
308,116,154845,5,0
380,168,154988,1,8
300,212,155131,1,10
464,208,155273,5,8
392,260,155416,1,2
472,304,155559,1,2
212,356,155702,2,0,B|203:354|312:384|391:346,1,180,0|0
208,268,156131,2,0,B|160:256|116:280,1,90,8|0
52,216,156416,1,10
36,184,156488,1,0
16,152,156559,1,2
32,120,156631,1,0
48,88,156702,6,0,B|92:68|92:68|168:68|168:68|232:36,3,180,4|8|0|8
464,296,157702,2,0,B|420:316|420:316|344:316|344:316|280:348,1,180
144,192,158131,2,0,B|256:144,1,90,10|2
408,52,158416,5,8
84,332,158702,1,2
256,192,158988,12,2,160988
260,128,161274,6,0,B|352:164|344:260|284:336|180:280,1,269.999991953373,4|8
88,256,161702,1,8
216,212,161845,2,0,B|176:192|156:160|160:124|180:84,2,134.999995976687,0|2|10
216,212,162273,2,0,B|256:144|304:104|392:108|456:196,1,269.999991953373
216,212,162702,2,0,B|268:236|296:280|236:336,1,134.999995976687,8|8
216,212,162988,2,0,B|132:248|28:216|0:132|24:68,1,269.999991953373,0|10
136,36,163416,1,2
256,100,163559,6,0,B|336:24|432:164|500:52,1,269.999991953373,4|8
320,172,163988,1,8
432,244,164131,1,0
308,296,164273,2,0,B|232:288|216:208,2,134.999995976687,2|10|0
428,360,164702,5,0
176,352,164845,1,0
312,364,164988,1,8
64,292,165131,1,8
156,216,165273,2,0,B|79:180|42:99|42:99|104:112|148:56,1,269.999991953373,0|10
288,80,165702,5,2
156,216,165845,2,0,B|208:252|272:172|272:172|316:272|416:240,1,269.999991953373,4|8
440,60,166273,1,8
480,188,166416,1,0
480,222,166488,1,0
466,252,166559,1,2
440,276,166631,1,0
412,296,166702,1,10
380,304,166773,1,0
348,312,166845,1,2
316,312,166916,1,0
284,312,166988,6,0,B|216:336|216:336|140:312,2,134.999995976687,0|0|8
360,200,167416,1,8
52,212,167559,2,0,B|64:120|144:112|144:112|156:188|272:176,1,269.999991953373,2|10
352,120,167988,1,2
220,100,168131,2,0,B|280:104|276:40|352:32,1,134.999995976687,4|0
124,228,168416,1,8
224,316,168559,1,10
300,208,168702,2,0,B|356:168|432:164,1,134.999995976687,0|2
140,368,168988,6,0,B|200:316|320:276|412:280,1,269.999991953373,8|8
496,196,169416,1,2
432,76,169559,1,8
296,60,169702,1,2
160,44,169845,2,0,B|228:84|248:184,1,134.999995976687,8|0
96,300,170131,5,2
96,273,170202,1,0
96,245,170273,1,2
96,218,170345,1,0
96,192,170416,2,0,B|160:88|268:316|356:164,1,269.999991953373,4|8
488,272,170845,2,0,B|404:188|352:376|224:288,2,269.999991953373,8|2|2
440,144,171559,2,0,B|472:100|448:44|392:44,2,134.999995976687,0|0|8
308,108,171988,2,0,B|264:80|216:80|216:80|208:128|152:140|152:140|116:108|56:112,1,269.999991953373,8|0
32,240,172416,1,10
152,312,172559,1,2
360,312,172702,6,0,B|404:340|464:344|500:304,2,134.999995976687,4|8|8
152,312,173131,2,0,B|108:340|48:344|12:304,2,134.999995976687,2|8|8
256,32,173559,2,0,B|256:172,1,134.999995976687,8|0
256,320,173845,1,2
400,128,173988,2,0,B|360:184|360:184|292:260|224:260|164:196,1,269.999991953373,4|0
120,96,174416,1,4
48,212,174559,1,0
100,336,174702,1,6
134,336,174774,1,0
167,336,174845,1,2
200,336,174916,1,0
234,336,174988,6,0,B|280:314|296:308|376:344,2,134.999995976687,0|0|8
420,216,175416,1,8
312,16,175559,2,0,B|292:60|292:116|344:156,1,134.999995976687,0|0
232,336,175845,2,0,B|257:304|261:256|233:208,1,134.999995976687,10|2
88,20,176131,5,0
72,224,176274,1,0
204,72,176416,1,8
4,116,176559,1,8
192,188,176702,5,2
112,120,176845,1,0
272,256,176988,2,0,B|344:284|448:268,1,134.999995976687,10|2
36,288,177274,6,0,B|95:359|223:396|316:373,1,269.999991953373,4|8
416,356,177702,1,8
81,104,177845,2,0,B|64:172|84:240|160:292|252:284,1,269.999991953373,2|10
292,40,178274,2,0,B|230:18|164:40|136:112|172:183|229:195,1,269.999991953373,0|2
312,304,178702,1,8
464,116,178845,1,2
260,120,178988,2,0,B|308:104|352:112|388:148,1,134.999995976687,8|2
193,318,179274,2,0,B|177:270|185:226|221:190,1,134.999995976687,8|2
360,284,179559,6,0,B|336:336|240:324|240:324|220:336|176:372|108:332,2,269.999991953373
172,252,180274,1,0
340,132,180416,1,8
55,245,180559,2,0,B|31:157|79:93|175:85|231:157,1,269.999991953373
296,244,180988,2,0,B|336:280|336:324|308:372,1,134.999995976687,8|8
216,140,181274,2,0,B|176:104|176:60|204:12,1,134.999995976687
192,292,181559,2,0,B|146:320|104:308|70:272,1,134.999995976687,10|2
320,92,181845,2,0,B|366:64|408:76|442:112,1,134.999995976687,4|0
468,224,182131,5,8
392,336,182274,1,2
124,240,182416,2,0,B|168:184|240:152|324:184|372:264,1,269.999991953373,8|2
176,316,182845,2,0,B|96:348|40:288,1,134.999995976687,8|0
48,44,183131,2,0,B|84:100|56:188,2,134.999995976687,8|2|8
184,60,183559,5,2
364,84,183702,1,0
280,224,183845,1,2
452,268,183988,1,0
312,352,184131,6,0,B|348:316|356:252,1,90,4|0
360,184,184416,1,8
448,176,184559,1,8
404,100,184702,5,0
232,48,184845,1,0
360,184,184988,1,8
364,4,185131,2,0,B|256:168,1,180
120,48,185559,1,8
184,216,185702,1,8
232,48,185845,5,0
76,136,185988,1,0
244,128,186131,2,0,B|60:56,1,180,10|4
0,228,186559,5,0
172,172,186702,1,8
60,316,186845,1,8
272,196,186988,5,0
100,244,187131,1,0
276,288,187274,1,8
96,156,187416,6,0,B|276:196,1,180
96,32,187845,2,0,B|168:104,1,90,8|8
276,288,188131,2,0,B|352:220,1,90
352,272,188345,1,0
360,316,188416,2,0,B|456:356,1,90,10|2
468,264,188702,5,4
468,264,188845,1,0
384,156,188988,1,8
384,156,189131,1,8
344,28,189274,1,0
248,120,189416,1,0
384,156,189559,1,8
344,28,189702,6,0,B|320:36|320:36|312:24|312:24|304:40|304:40|232:16|164:56,1,180
108,96,190131,1,8
224,164,190274,1,8
88,180,190416,1,0
32,348,190559,1,0
240,376,190702,2,0,B|228:308|187:264|118:267,1,180,10|4
136,356,191131,5,0
36,264,191274,2,0,B|9:224|29:176,1,90,8|8
88,56,191559,1,0
140,128,191702,2,0,B|176:152|228:132,1,90,0|8
188,52,191988,5,4
452,104,192274,1,0
484,236,192416,1,8
244,360,192702,1,2
28,176,192988,1,2
256,192,193274,12,0,195559
