osu file format v9

[General]
AudioFilename: sakura.mp3
AudioLeadIn: 0
PreviewTime: 161182
Countdown: 0
SampleSet: Normal
StackLeniency: 0.9
Mode: 0
LetterboxInBreaks: 1

[Editor]
DistanceSpacing: 1.1
BeatDivisor: 4
GridSize: 4

[Metadata]
Title:Sakura Zensen Ijou Nashi
Artist:Hatsune Miku
Creator:Lalarun
Version:Hard
Source:WataruP
Tags:Vocaloid val0108

[Difficulty]
HPDrainRate:4
CircleSize:4
OverallDifficulty:6
ApproachRate:8
SliderMultiplier:1.6
SliderTickRate:2

[Events]
//Background and Video events
0,0,"bg.jpg"
//Break Periods
2,32188,37095
2,56121,64524
2,104331,112523
//Storyboard Layer 0 (Background)
//Storyboard Layer 1 (Fail)
//Storyboard Layer 2 (Pass)
//Storyboard Layer 3 (Foreground)
//Storyboard Sound Samples
//Background Colour Transformations
3,100,163,162,255

[TimingPoints]
1274,285.714285714286,4,1,1,70,1,0
10345,-133.333333333333,4,1,1,70,0,0
19488,-100,4,1,1,70,0,0
31988,-100,4,1,1,10,0,0
37774,-100,4,1,1,70,0,0
84702,-100,4,1,1,5,0,0
85202,-100,4,1,1,70,0,0
141988,-100,4,1,1,10,0,0
142345,-100,4,1,1,70,0,0
161274,-100,4,1,1,80,0,1
183274,-100,4,1,1,80,0,0
184131,-100,4,1,1,80,0,1
195559,-100,4,2,1,5,0,0

[Colours]
Combo1 : 243,139,199
Combo2 : 78,190,65
Combo3 : 227,132,68

[HitObjects]
44,316,10416,5,2
80,244,10702,1,2
56,168,10988,2,0,B|116:152|168:120,1,119.999996423721,2|0
232,164,11416,2,0,B|248:224|280:276,2,119.999996423721,0|0|2
272,96,12131,1,2
348,76,12416,1,0
464,180,12702,5,2
384,152,12988,1,2
324,212,13273,2,0,B|304:288|268:348,1,119.999996423721,2|0
212,280,13702,2,0,B|132:264|80:268,2,119.999996423721,2|2|2
280,324,14416,1,2
364,324,14702,1,0
472,212,14988,5,2
440,288,15273,1,2
368,244,15559,2,0,B|384:188|416:132,1,119.999996423721,2|0
464,72,15988,2,0,B|408:96|328:100,1,119.999996423721,2|2
280,60,16416,2,0,B|240:56|204:56,1,59.9999982118607,0|2
144,76,16702,1,2
108,152,16988,1,2
56,312,17273,5,2
64,228,17559,1,2
148,224,17845,2,0,B|212:216|272:192,1,119.999996423721,2|0
256,192,18273,12,0,19273
184,156,19559,6,0,B|264:184,1,80,4|0
332,132,19845,2,0,B|412:160,1,80,8|0
432,244,20131,2,0,B|360:276|272:288,1,160,0|8
208,340,20559,2,0,B|240:268|252:180,1,160
184,128,20988,2,0,B|104:156,1,80,8|0
84,240,21273,2,0,B|156:272|244:284,1,160,0|8
320,252,21702,1,0
312,164,21845,6,0,B|392:136,1,80,0|0
436,212,22131,2,0,B|464:292,1,80,8|0
384,328,22416,2,0,B|312:296|224:284,1,160,0|8
164,344,22845,2,0,B|196:272|208:184,1,160
240,108,23274,2,0,B|180:56,1,80,8|0
96,84,23559,1,0
44,156,23702,2,0,B|120:176,1,80,0|8
100,264,23988,1,0
188,272,24131,6,0,B|264:252,1,80,4|0
348,284,24416,2,0,B|428:292,1,80,8|0
496,236,24702,2,0,B|424:204|336:192,1,160,0|8
328,104,25131,2,0,B|256:136|168:148,1,160
88,132,25559,2,0,B|28:76,2,80,8|0|0
116,216,25988,1,0
52,276,26131,2,0,B|124:244|212:232,1,160,8|0
280,280,26559,1,0
324,204,26702,6,0,B|302:124,1,80,8|0
372,72,26988,2,0,B|440:116,2,80,0|0|8
288,44,27416,2,0,B|216:76|128:88,1,160,2|2
52,52,27845,2,0,B|84:124|96:212,2,160,10|2|10
256,192,28702,12,0,31988
96,336,37845,6,0,B|176:324|252:296,1,160,4|2
420,248,38416,2,0,B|340:236|264:208,1,160,0|2
200,148,38845,1,0
200,60,38988,2,0,B|120:72|44:100,2,160,0|2|0
352,148,39845,1,2
316,320,40131,6,0,B|396:308|472:280,1,160,0|2
352,148,40702,2,0,B|272:160|196:188,2,160,0|2|0
232,276,41559,2,0,B|188:280|144:272,2,80,2|0|0
64,328,42131,6,0,B|56:248,1,80,2|0
44,160,42416,2,0,B|124:148|200:120,2,160,0|2|0
212,216,43274,1,2
248,44,43559,1,0
292,120,43702,2,0,B|320:220,2,80,0|2|0
352,56,44131,2,0,B|432:68|508:96,1,160,0|2
492,184,44559,1,0
404,176,44702,6,0,B|392:256|364:332,2,160,0|2|0
276,300,45559,2,0,B|200:320,1,80,2|0
112,340,45845,1,0
52,288,46131,1,2
56,208,46416,5,10
244,200,46702,1,10
340,44,46988,6,0,B|260:56|184:84,1,160,4|2
56,208,47559,2,0,B|88:136|100:52,2,160,0|2|0
48,296,48274,2,0,B|120:340,1,80,0|2
256,232,48702,1,0
408,320,48988,6,0,B|452:248,2,80,2|0|0
408,144,49559,2,0,B|452:72,2,80,2|0|0
256,56,50131,2,0,B|176:80|96:88,2,160,2|0|2
256,144,50845,2,0,B|256:224,1,80
256,224,51274,6,0,B|256:304,1,80,2|0
344,292,51559,2,0,B|424:280,2,80,0|0|2
256,304,51988,1,0
168,292,52131,2,0,B|88:280,2,80,0|0|2
164,204,52559,1,0
112,132,52702,2,0,B|188:112|272:104,2,160,0|2|0
276,196,53559,6,0,B|356:224,1,80,2|0
428,268,53845,2,0,B|448:192|456:108,2,160,0|2|0
364,104,54702,2,0,B|284:88,1,80,2|0
204,124,54988,5,0
128,152,55274,1,2
52,180,55559,1,0
256,336,55845,5,6
108,168,65274,6,0,B|188:156|268:128,1,160,4|2
432,80,65845,2,0,B|420:160|392:240,1,160,0|2
400,324,66274,2,0,B|320:312|240:284,2,160
472,272,66988,1,0
308,208,67274,1,2
148,136,67559,6,0,B|228:124|308:96,1,160,0|2
244,32,67988,1,0
160,60,68131,2,0,B|148:140|120:220,2,160,0|2|0
24,172,68988,2,0,B|32:252,1,80,2|0
104,304,69274,1,0
256,216,69559,2,0,B|264:296,1,80,2|0
348,324,69845,6,0,B|388:256|416:180,2,160,0|2|0
324,148,70702,2,0,B|316:68,1,80,2|0
148,124,71131,2,0,B|228:116,2,80,0|2|0
104,48,71559,2,0,B|92:128|64:208,1,160,0|2
72,292,71988,1,0
152,256,72131,2,0,B|232:268|312:296,2,160,0|2|0
320,204,72988,6,0,B|400:196,1,80,2|0
468,252,73273,2,0,B|428:184|400:108,1,160,4|2
312,116,73702,2,0,B|244:76|168:48,2,160,4|0|0
296,204,74416,5,4
228,244,74702,1,2
160,284,74988,2,0,B|80:304,1,80,0|6
96,184,75559,5,0
164,144,75845,1,2
232,104,76131,2,0,B|312:84,1,80,0|2
316,204,76702,6,0,B|396:216|476:244,2,160,0|2|0
268,268,77559,1,2
216,328,77845,2,0,B|136:316|56:288,2,160,0|2|0
92,204,78702,6,0,B|80:124,1,80,2|0
168,116,78988,2,0,B|236:76|312:48,1,160,4|8
380,104,79416,1,0
320,168,79559,2,0,B|388:208|464:236,1,160,0|8
288,252,80131,6,0,B|220:292|144:320,1,160,0|8
72,268,80559,1,0
128,200,80702,2,0,B|88:132|60:56,2,160,0|8|4
256,80,81559,1,8
384,200,81845,2,0,B|424:132|452:56,1,160,0|12
256,192,82416,12,2,84702
256,176,85273,5,0
84,144,85559,2,0,B|152:104|228:76,2,160,2|4|2
136,216,86273,1,0
212,260,86416,2,0,B|280:300|356:328,1,160,0|2
352,152,86988,2,0,B|356:232,1,80
444,80,87416,2,0,B|448:160,1,80
292,76,87845,6,0,B|212:80,1,80,2|0
184,164,88131,2,0,B|160:244|124:312,1,160,0|2
56,256,88559,1,0
64,168,88702,2,0,B|144:192|212:228,1,160,0|2
368,312,89273,6,0,B|448:284,2,80,0|0|2
300,256,89702,1,0
380,216,89845,2,0,B|400:136|404:56,1,160,0|2
236,112,90416,5,0
76,96,90988,1,0
220,268,91559,1,0
60,252,92131,1,0
148,180,92416,5,4
256,192,92702,12,4,94702
348,320,94988,6,0,B|268:296|200:260,1,160,4|8
192,172,95416,2,0,B|112:196|44:232,2,160
276,200,96131,2,0,B|316:132|344:56,2,160,0|8|0
100,184,96988,6,0,B|124:264|160:332,1,160,0|4
224,272,97416,1,0
304,308,97559,1,8
304,220,97702,2,0,B|384:196|452:160,1,160,4|0
388,100,98131,2,0,B|308:88|228:84,1,160,12|0
220,172,98559,2,0,B|196:252|160:320,1,160,4|0
88,268,98988,5,4
52,188,99131,1,0
52,100,99273,1,12
256,192,99559,12,4,101559
256,192,101845,12,4,104131
424,188,113273,6,0,B|412:268|384:348,1,160,4|2
320,284,113702,1,0
328,196,113845,2,0,B|248:184|168:156,1,160,0|2
132,80,114273,2,0,B|212:68|292:40,2,160
84,156,114988,2,0,B|72:236|44:316,1,160,0|2
216,268,115559,6,0,B|296:280|376:308,1,160,0|2
444,256,115988,1,0
368,212,116131,2,0,B|336:140|324:56,1,160,0|2
160,120,116702,2,0,B|236:100,1,80
68,48,117131,2,0,B|68:128|52:208,1,160
76,292,117559,2,0,B|156:312,1,80,2|0
240,332,117845,6,0,B|312:276,2,80,0|0|2
212,248,118273,1,0
288,204,118416,2,0,B|376:216,2,80,0|0|2
208,164,118845,1,0
280,116,118988,2,0,B|360:92|440:88,2,160,0|2|0
280,116,120131,5,0
120,108,120702,1,0
60,256,121273,1,0
220,272,121845,6,0,B|312:244,1,80,2|0
440,324,122131,2,0,B|356:312,1,80,2|0
384,228,122416,6,0,B|372:148|372:68,1,160,6|2
456,40,122845,1,0
460,128,122988,2,0,B|380:140|300:140,1,160,0|2
212,140,123416,2,0,B|132:128|52:128,2,160
256,216,124131,1,0
80,216,124416,6,0,B|72:304,1,80,2|0
152,336,124702,2,0,B|180:260|188:180,1,160,0|2
112,132,125131,1,0
148,52,125273,2,0,B|224:80|304:88,1,160,0|2
312,176,125702,2,0,B|388:148|468:140,2,160
312,264,126416,1,0
472,340,126702,1,2
300,304,126988,6,0,B|224:332|144:340,1,160,0|2
60,316,127416,1,0
24,236,127559,2,0,B|100:208|180:200,1,160,0|2
264,224,127988,1,0
120,124,128273,1,0
204,96,128416,2,0,B|272:140,2,80,2|0|0
376,56,128988,6,0,B|364:136,1,80,2|0
448,164,129273,2,0,B|424:244|388:320,1,160,0|2
304,328,129702,1,0
304,240,129845,2,0,B|224:264|148:300,1,160,0|2
76,256,130273,1,0
148,204,130416,2,0,B|164:124|168:44,1,160,0|2
248,84,130845,2,0,B|168:100|88:104,2,160
328,48,131559,5,4
456,144,132131,1,0
368,132,132273,2,0,B|356:212|352:292,1,160
428,336,132702,5,2
268,264,132988,1,2
104,204,133273,1,2
408,180,133845,5,0
320,188,133988,2,0,B|240:176|164:152,1,160
120,76,134416,1,0
208,84,134559,2,0,B|196:164|172:240,1,160
100,292,134988,2,0,B|32:344,2,80,0|0|2
96,212,135559,5,2
92,132,135845,2,0,B|160:80,1,80,2|0
240,56,136131,2,0,B|316:44|404:40,1,160,4|8
460,104,136559,1,0
468,192,136702,2,0,B|392:180|304:176,1,160,0|8
252,244,137131,1,0
248,332,137273,2,0,B|324:320|412:316,2,160,0|8|0
72,340,138131,2,0,B|164:316,1,80,8|0
200,248,138416,5,4
224,172,138702,1,8
152,108,138988,1,0
128,184,139273,1,12
256,192,139559,12,0,141988
256,208,142416,5,0
428,240,142702,2,0,B|360:280|284:308,2,160,2|4|2
376,168,143416,1,0
300,124,143559,2,0,B|232:84|156:56,1,160,0|2
160,232,144131,2,0,B|156:152,1,80
68,304,144559,2,0,B|64:224,1,80
220,308,144988,6,0,B|300:304,1,80,2|0
328,220,145273,2,0,B|352:140|388:72,1,160,0|2
456,128,145702,1,0
448,216,145845,2,0,B|368:192|300:156,1,160,0|2
144,72,146416,6,0,B|64:100,2,80,0|0|2
212,128,146845,1,0
132,168,146988,2,0,B|112:248|108:328,1,160,0|2
276,272,147559,5,0
436,288,148131,1,0
292,116,148702,1,0
452,132,149273,1,0
364,204,149559,5,2
256,192,149845,12,4,151845
164,64,152131,6,0,B|244:88|312:124,1,160,4|8
320,212,152559,2,0,B|400:188|468:152,2,160
236,184,153273,2,0,B|196:252|168:328,2,160,0|8|0
412,200,154131,6,0,B|388:120|352:52,1,160,0|4
288,112,154559,1,0
208,76,154702,1,8
208,164,154845,2,0,B|128:188|60:224,1,160,4|0
124,284,155273,2,0,B|204:296|284:300,1,160,12|0
292,212,155702,2,0,B|316:132|352:64,1,160,4|0
424,116,156131,5,4
460,196,156273,1,0
460,284,156416,1,12
256,192,156702,12,4,158702
256,192,158988,12,4,160988
288,324,161273,6,0,B|368:320|448:300,1,160,0|8
420,216,161702,1,0
428,128,161845,2,0,B|348:132|268:152,1,160,0|8
196,200,162273,2,0,B|180:280,1,80
92,284,162559,2,0,B|76:204,1,80,0|8
132,136,162845,2,0,B|128:52,2,80
136,224,163273,6,0,B|140:308,1,80,8|0
224,324,163559,2,0,B|292:280|368:252,1,160,4|8
452,276,163988,1,0
384,332,164131,2,0,B|340:264|312:188,1,160,0|8
336,104,164559,1,0
424,112,164702,2,0,B|476:36,2,80,0|0|8
336,104,165131,1,0
268,48,165273,2,0,B|184:36|104:40,1,160,0|8
104,128,165702,1,0
176,176,165845,6,0,B|160:256|128:328,1,160,4|8
44,300,166273,1,0
68,216,166416,2,0,B|148:232|220:264,1,160,0|8
272,336,166845,1,0
360,328,166988,2,0,B|440:344,2,80,0|0|8
400,248,167416,2,0,B|480:232,2,80,0|0|0
312,236,167845,5,8
256,168,167988,1,0
172,144,168131,2,0,B|128:136|84:136,1,80,4|0
48,212,168416,5,8
104,280,168559,1,0
188,304,168702,2,0,B|232:312|276:312,1,80,4|0
356,308,168988,6,0,B|408:244|440:168,1,160,8|0
356,136,169416,1,0
424,80,169559,2,0,B|348:40,2,80,8|0|0
248,88,170131,6,0,B|216:56,3,40,12|0|0|0
180,76,170416,2,4,B|160:152|128:232,1,160,4|8
44,200,170845,2,0,B|64:124|96:44,2,160
128,228,171559,2,0,B|140:312,1,80
216,352,171845,1,8
272,284,171988,2,0,B|356:272,1,80
404,344,172273,2,0,B|488:332,2,80,0|8|0
432,260,172702,6,0,B|416:176|416:72,1,160,4|8
332,128,173131,2,0,B|248:112|144:112,1,160,4|0
92,144,173559,2,0,B|64:224,2,80,12|0|0
56,64,173988,2,0,B|136:44|208:8,1,160,4|0
288,44,174416,5,2
372,72,174559,1,2
456,100,174702,2,0,B|472:184,1,80,10|0
428,256,174988,6,0,B|412:340,2,80,4|0|12
360,200,175416,1,0
280,236,175559,2,0,B|296:320,2,80,0|0|8
228,164,175988,1,0
148,128,176131,6,0,B|64:144,2,80,0|0|8
152,216,176559,1,0
116,296,176702,2,0,B|32:280,2,80,0|0|8
204,288,177131,1,0
280,332,177274,6,0,B|356:316|448:312,1,160,4|8
412,228,177702,1,0
324,236,177845,2,0,B|308:160|304:68,1,160,0|8
392,64,178274,2,0,B|468:104,1,80
480,188,178559,2,0,B|412:228,1,80,0|8
324,236,178845,1,0
236,240,178988,2,0,B|168:196,2,80,0|0|8
256,192,179559,12,0,183274
252,200,183559,5,2
344,52,183845,1,2
328,228,184131,6,0,B|248:200,1,80,4|0
180,252,184416,2,0,B|100:224,1,80,10|0
80,140,184702,2,0,B|152:108|240:96,1,160,0|10
304,44,185131,2,0,B|272:116|260:204,1,160
328,256,185559,2,0,B|408:228,1,80,10|0
428,144,185845,2,0,B|356:112|268:100,1,160,0|10
192,132,186274,1,0
200,220,186416,6,0,B|120:248,1,80,0|0
76,172,186702,2,0,B|48:92,1,80,10|0
128,56,186988,2,0,B|200:88|288:100,1,160,0|10
348,40,187416,2,0,B|316:112|304:200,1,160
272,276,187845,2,0,B|332:328,1,80,10|0
416,300,188131,1,0
468,228,188274,2,0,B|392:208,1,80,0|10
412,120,188559,1,0
324,112,188702,6,0,B|248:132,1,80,4|0
164,100,188988,2,0,B|84:92,1,80,10|0
16,148,189274,2,0,B|88:180|176:192,1,160,0|10
184,280,189702,2,0,B|256:248|344:236,1,160
424,252,190131,2,0,B|484:308,2,80,10|0|0
396,168,190559,1,0
460,108,190702,2,0,B|388:140|300:152,1,160,10|0
232,104,191131,1,0
188,180,191274,6,0,B|210:260,1,80,10|0
140,312,191559,2,0,B|72:268,2,80,0|0|10
224,340,191988,2,0,B|296:308|384:296,1,160,2|2
460,332,192416,2,0,B|428:260|416:172,2,160,10|2|10
256,192,193274,12,0,195559
