osu file format v9

[General]
AudioFilename: sakura.mp3
AudioLeadIn: 0
PreviewTime: 161182
Countdown: 0
SampleSet: Normal
StackLeniency: 0.9
Mode: 0
LetterboxInBreaks: 1

[Editor]
DistanceSpacing: 1
BeatDivisor: 4
GridSize: 4

[Metadata]
Title:Sakura Zensen Ijou Nashi
Artist:Hatsune Miku
Creator:Lalarun
Version:Easy
Source:WataruP
Tags:Vocaloid val0108

[Difficulty]
HPDrainRate:2
CircleSize:3
OverallDifficulty:2
ApproachRate:3
SliderMultiplier:0.6
SliderTickRate:1

[Events]
//Background and Video events
0,0,"bg.jpg"
//Break Periods
2,32188,36405
2,56121,63834
2,104331,111833
//Storyboard Layer 0 (Background)
//Storyboard Layer 1 (Fail)
//Storyboard Layer 2 (Pass)
//Storyboard Layer 3 (Foreground)
//Storyboard Sound Samples
//Background Colour Transformations
3,100,163,162,255

[TimingPoints]
1274,285.714285714286,4,1,1,70,1,0
31988,-100,4,1,1,10,0,0
37774,-100,4,1,1,70,0,0
84702,-100,4,1,1,5,0,0
85774,-100,4,1,1,70,0,0
141988,-100,4,1,1,5,0,0
142916,-100,4,1,1,70,0,0
161274,-100,4,1,1,70,0,1
183274,-100,4,1,1,70,0,0
184131,-100,4,1,1,70,0,1
195559,-100,4,2,1,5,0,0

[Colours]
Combo1 : 243,139,199
Combo2 : 78,190,65
Combo3 : 227,132,68

[HitObjects]
152,308,10416,6,0,B|100:276,2,60,2|2|2
240,328,11416,2,0,B|396:300,1,150,2|2
412,184,12702,6,0,B|464:216,2,60,2|2|2
324,164,13702,2,0,B|168:192,1,150,2|2
100,284,14988,6,0,B|76:344,2,60,2|2|2
88,196,15988,2,0,B|60:40,1,150,2|2
180,64,17273,6,0,B|248:52,2,60,2|2|2
168,152,18273,2,0,B|196:308,1,150,2|2
312,324,19559,5,4
324,204,20131,1,8
420,276,20702,2,0,B|484:284,2,60,0|8|8
300,268,21845,6,0,B|256:144,1,120,0|8
140,144,22988,2,0,B|100:200,2,60,0|8|8
212,48,24131,5,4
332,60,24702,1,8
260,156,25274,1,0
380,168,25845,1,8
412,284,26416,6,0,B|292:272,1,120,0|8
184,324,27559,2,0,B|160:264,2,60,0|8|8
256,192,28702,12,0,31988
72,316,37845,6,0,B|196:296,1,120,4|2
312,296,38988,2,0,B|384:308,2,60,0|2|2
248,196,40131,6,0,B|188:176,2,60,0|0|2
368,184,41274,1,0
416,144,41559,1,2
448,92,41845,1,2
332,68,42416,6,0,B|264:56|200:52,1,120,0|2
60,72,43702,2,0,B|48:160,1,90
168,176,44702,6,0,B|236:188|300:192,2,120,0|2|0
64,236,46416,2,0,B|108:284,1,60,10|10
164,292,46988,5,4
284,308,47559,1,2
404,324,48131,2,0,B|468:332,2,60,0|2|2
360,212,49274,6,0,B|424:204,1,60
448,152,49845,2,0,B|464:88,1,60,2|0
408,64,50416,2,0,B|336:48|280:40,1,120,0|2
228,144,51559,6,0,B|268:192,2,60,0|0|2
132,72,52702,1,0
100,124,52988,1,2
80,180,53274,1,2
60,300,53845,6,0,B|184:272,1,120,0|2
296,260,54988,1,0
352,284,55274,1,2
408,308,55559,2,0,B|464:288,1,60,4|6
436,124,65274,6,0,B|312:104,1,120,0|2
196,104,66416,2,0,B|124:116,2,60,0|2|2
248,212,67559,5,0
188,316,68131,1,2
72,284,68702,2,0,B|60:212,2,60,0|2|2
188,316,69845,6,0,B|312:296,1,120,0|2
424,320,70988,1,0
440,260,71274,1,2
456,200,71559,1,2
396,96,72131,6,0,B|348:44,2,60,0|0|2
336,200,73273,2,0,B|212:180,1,120,0|2
108,132,74416,6,0,B|60:80,2,60,0|0|2
76,248,75559,1,0
112,296,75845,1,0
160,332,76131,1,2
252,256,76702,6,0,B|240:196,2,60,0|2|0
372,232,77845,2,0,B|384:292,2,60,0|2|0
408,124,78988,6,0,B|344:100|284:88,1,120,4|8
176,116,80131,2,0,B|132:160,2,60,0|8|8
256,208,81273,1,0
288,324,81845,1,0
256,192,82416,12,2,84702
80,256,85845,5,0
140,244,86131,1,2
200,232,86416,1,2
320,232,86988,2,0,B|380:244,2,60,0|2|2
256,332,88131,5,0
216,288,88416,1,2
200,232,88702,1,2
220,112,89273,2,0,B|244:56,2,60,0|2|2
316,184,90416,6,0,B|352:188|400:176|436:180,3,120,2|2|2|2
256,192,92702,12,4,94988
236,272,96131,6,0,B|224:336,2,60,0|8|8
332,200,97273,2,0,B|424:176,2,90,4|4|4
244,176,98559,2,0,B|96:132,1,150,0|6
256,192,99559,12,4,104131
376,156,113273,6,0,B|252:176,1,120,4|2
180,84,114416,2,0,B|108:72,2,60,0|2|2
136,196,115559,6,0,B|76:216,2,60,0|0|2
196,300,116702,1,0
252,320,116988,1,2
312,328,117273,1,2
420,276,117845,6,0,B|432:208|436:144,1,120,0|2
332,96,118988,2,0,B|380:48,2,60,0|2|2
300,212,120131,6,0,B|232:200|168:196,2,120,0|2|0
332,96,121845,2,0,B|284:52,1,60,2|2
228,48,122416,5,4
108,60,122988,1,2
56,168,123559,2,0,B|64:232,2,60,0|2|2
176,180,124702,6,0,B|240:172,1,60
284,208,125273,2,0,B|300:272,1,60,2|0
328,316,125845,2,0,B|392:324|452:316,1,120,0|2
444,196,126988,6,0,B|484:148,2,60,0|0|2
324,188,128131,1,0
288,140,128416,1,2
268,84,128702,1,2
152,56,129273,6,0,B|28:84,1,120,0|2
104,180,130416,1,0
112,240,130702,1,2
120,300,130988,1,2
240,296,131559,6,0,B|288:348,2,60,0|0|2
272,180,132702,1,0
328,156,132988,1,0
388,148,133273,1,2
460,244,133845,6,0,B|472:304,2,60,0|2|0
364,316,134988,2,0,B|352:256,2,60,0|2|0
304,324,135845,1,2
244,332,136131,6,0,B|220:268|208:208,1,120,4|8
140,120,137273,2,0,B|184:76,2,60,0|8|8
68,216,138416,1,4
68,336,138988,1,0
256,192,139559,12,2,141988
432,128,142988,5,0
372,140,143273,1,2
312,152,143559,1,2
192,152,144131,2,0,B|132:140,2,60,0|2|2
256,52,145273,5,0
296,96,145559,1,2
312,152,145845,1,2
292,272,146416,2,0,B|268:328,2,60,0|2|2
196,200,147559,6,0,B|160:196|112:208|76:204,3,120,2|2|2|2
256,192,149845,12,4,152131
276,112,153273,6,0,B|288:48,2,60,0|8|8
180,184,154416,2,0,B|92:208,2,90,4|4|4
268,208,155702,2,0,B|416:252,1,150,4|6
256,192,156702,12,4,159988
96,272,161273,6,0,B|216:248,1,120,4|8
272,244,162131,1,0
320,280,162416,2,0,B|308:340,2,60,0|8|8
436,248,163559,6,0,B|424:188,1,60
412,128,164131,2,0,B|352:116,1,60,8|0
292,108,164702,2,0,B|280:48,2,60,0|8|8
304,228,165845,6,0,B|232:216,1,60,0|8
196,252,166416,2,0,B|124:240,1,60,0|0
84,272,166988,2,0,B|68:144,1,120,0|8
164,80,168131,6,0,B|292:64,1,120,4|8
328,104,168988,1,4
388,100,169273,2,0,B|416:48,2,60,4|8|8
360,216,170416,6,0,B|352:288,1,60,0|0
344,336,170988,2,0,B|272:328,1,60,8|0
224,324,171559,2,0,B|224:260|240:192,1,120,0|8
120,232,172702,6,0,B|28:220,2,90
164,152,173988,2,0,B|176:60,1,90,2|2
292,100,174988,6,0,B|360:88,1,60,4|12
400,52,175559,1,0
468,152,176131,6,0,B|400:164,1,60,4|12
360,200,176702,1,0
408,312,177274,6,0,B|372:308|324:320|288:316,3,120,4|8|0|8
256,192,179559,12,4,182845
200,60,184131,5,4
188,180,184702,1,10
92,108,185274,2,0,B|28:100,2,60,0|10|10
212,116,186416,6,0,B|256:240,1,120,0|10
372,240,187559,2,0,B|412:184,2,60,0|10|10
300,336,188702,5,4
180,324,189274,1,10
252,228,189845,1,0
132,216,190416,1,10
204,120,190988,5,0
316,76,191559,2,0,B|388:128,2,90,10|0|0
256,60,192702,1,2
200,76,192988,1,2
256,192,193274,12,0,195559
