osu file format v5

[General]
AudioFilename: Hatsune Miku - sa i ha te.mp3
AudioLeadIn: 0
PreviewTime: -1
Countdown: 1
SampleSet: Soft
StackLeniency: 0.7
Mode: 0
LetterboxInBreaks: 1
EditorBookmarks: 13149,92156

[Metadata]
Title:Saihate
Artist:Hatsune Miku
Creator:tom800510
Version:Hard
Source:
Tags:

[Difficulty]
HPDrainRate:7
CircleSize:5
OverallDifficulty:7
SliderMultiplier:1.4
SliderTickRate:2

[Events]
//Background and Video events
0,0,"back ground.jpg"
//Break Periods
2,79730,91577
//Storyboard Layer 0 (Background)
//Storyboard Layer 1 (Failing)
//Storyboard Layer 2 (Passing)
//Storyboard Layer 3 (Foreground)
//Storyboard Sound Samples
//Background Colour Transformations
3,100,163,162,255

[TimingPoints]
13162,410.958904109589,4,2,0,100,1

[HitObjects]
176,48,13161,1,0
143,32,13367,1,0
107,32,13572,1,0
73,45,13778,1,0
52,74,13983,2,0,B|52:119|111:120,3,70
85,153,14805,5,0
51,166,15011,1,0
34,197,15216,1,0
35,233,15422,1,0
69,244,15627,2,0,B|114:269|61:314,3,70
100,326,16449,5,0
133,339,16655,1,0
168,339,16860,1,0
204,338,17066,1,0
239,338,17271,2,0,B|236:275|304:297,3,70
312,289,18093,6,0,B|366:316|354:373,3,70
390,333,18915,6,0,B|439:327|425:268,3,70
455,261,19737,5,0
472,229,19942,1,0
442,207,20148,1,0
463,177,20353,1,0
436,152,20559,2,0,B|472:108|416:72,3,70
407,68,21381,5,0
383,41,21586,1,0
350,56,21792,1,0
323,32,21997,1,0
298,58,22203,2,0,B|248:84|228:12,3,70
203,44,23025,5,0
167,39,23230,1,0
131,43,23435,1,0
94,41,23641,1,0
59,50,23846,2,0,B|33:100|95:112,3,70
112,105,24668,6,0,B|158:149|85:172,8,70,0|0|0|0|0|0|0|0|2
183,98,26723,6,0,B|201:60|273:61,1,70,0|0
340,103,27545,2,0,B|379:143|328:187,1,70
242,192,28367,2,0,B|208:232|266:259,1,70
353,283,29189,1,0
213,317,30011,6,0,B|161:319|165:247,1,70
273,281,30833,2,0,B|292:242|235:221,1,70
210,229,31244,2,0,B|157:250|91:228|80:146|73:157,1,140
94,147,31860,2,0,B|143:80|238:91|246:116,1,140
217,98,32477,1,2
360,85,33298,6,0,B|389:127|350:168,1,70
359,258,34120,2,0,B|381:300|352:350,1,70
255,333,34942,2,0,B|210:295|261:248,1,70
254,164,35764,1,2
165,50,36586,6,0,B|99:64|116:116,1,70
45,174,37408,1,0
44,210,37614,1,0
44,245,37819,2,0,B|43:304|120:326|151:302,1,140
145,269,38435,2,0,B|192:234|264:256|294:304,1,140
274,280,39052,1,2
414,311,39874,5,0
441,288,40079,1,0
448,252,40285,1,0
418,231,40490,1,0
383,220,40696,1,0
383,220,40901,2,0,B|326:192|327:136|377:104,1,140
119,313,43161,5,0
142,285,43367,1,0
142,249,43572,1,0
116,223,43778,1,0
80,221,43983,1,0
43,219,44189,2,0,B|43:133,2,70
42,255,44805,1,0
59,286,45011,2,0,B|86:356|193:348,1,140
209,346,45627,1,0
209,346,45833,1,0
316,339,46449,5,0
351,336,46655,1,0
366,303,46860,1,0
402,304,47066,1,0
437,305,47271,1,0
463,329,47477,2,0,B|509:268|449:185,1,140
454,162,48093,2,0,B|480:119|437:78,1,70
421,77,48504,2,0,B|388:41|344:61,1,70
322,57,48915,2,0,B|284:25|232:62,9,70
184,46,51175,5,0
149,56,51381,1,0
119,76,51586,1,0
92,100,51792,2,0,B|40:135|50:188,1,70
85,161,52203,2,0,B|124:200|69:228,1,70
56,243,52614,1,2
67,314,53025,5,0
102,313,53230,1,0
137,313,53435,1,0
173,313,53641,1,0
208,313,53846,1,0
243,310,54052,2,0,B|226:170|314:196,2,140
340,77,56312,5,0
376,76,56518,1,0
406,95,56723,1,0
433,118,56929,1,0
460,141,57134,1,0
463,176,57340,2,0,B|466:256|421:289|390:289,2,140
391,181,58572,1,0
354,180,58778,1,0
318,182,58983,1,0
262,89,59600,5,0
233,67,59805,1,0
196,67,60011,1,0
160,68,60216,1,0
129,87,60422,1,0
101,109,60627,2,0,B|38:153|67:206|122:212,2,140
252,310,62888,5,0
287,311,63093,1,0
322,311,63298,1,0
358,311,63504,1,0
393,310,63709,1,0
429,308,63915,2,0,L|481:249|399:236,2,140
373,62,66175,6,0,B|421:84|386:123,4,70
336,63,67203,1,0
263,63,67614,1,0
191,64,68025,1,0
87,293,69463,6,0,B|105:347|170:297,4,70
85,256,70490,1,0
43,197,70901,1,0
84,138,71312,1,0
155,135,71723,2,0,B|208:182|125:198,2,70
257,99,72751,6,0,B|308:64|317:54,4,70
288,117,73778,1,0
320,132,73983,1,0
352,147,74189,1,0
385,160,74394,1,0
417,175,74600,1,0
224,336,76038,6,0,B|309:336,4,70
188,328,77066,1,0
155,312,77271,1,0
123,294,77477,1,0
110,260,77682,1,0
104,224,77888,1,0
175,233,78298,6,0,B|212:196|158:143,1,70
144,174,78709,2,0,B|148:130|184:95|257:42|356:97|359:164|352:191,1,280,0|2
71,254,92477,5,0
106,252,92682,1,0
142,252,92888,1,0
177,252,93093,1,0
212,251,93298,1,0
220,215,93504,2,0,B|367:216,4,140
141,140,95764,5,0
177,140,95970,1,0
212,140,96175,1,0
248,140,96381,1,0
283,141,96586,1,0
318,141,96792,2,0,B|324:87|380:91,3,70
359,91,97614,1,0
430,93,98025,2,0,B|478:124|476:168,2,70
324,68,99052,5,0
290,55,99257,1,0
256,41,99463,2,0,B|175:29,1,70
153,44,99874,1,0
117,51,100079,2,0,B|28:63|46:160,1,140
94,200,100901,2,0,B|37:142,2,70
150,154,101723,5,0
174,127,101929,5,0
197,99,102134,5,0
226,78,102340,5,0
259,65,102545,5,0
295,63,102751,5,0
330,65,102956,5,0
361,82,103161,5,0
389,104,103367,5,0
414,129,103572,5,0
414,129,103778,6,0,B|480:82,2,70
414,129,104394,6,0,B|465:186,2,70
414,129,105011,6,0,B|348:176,1,70,0|2
398,228,105627,5,0
371,252,105833,1,0
343,275,106038,1,0
315,297,106244,1,0
283,314,106449,1,0
247,320,106655,2,0,B|171:319|87:270,2,140
69,141,108915,5,0
83,107,109120,1,0
99,74,109326,1,0
123,47,109531,1,0
158,38,109737,1,0
193,34,109942,2,0,B|268:39|328:115,2,140
195,106,111175,1,0
197,142,111381,1,0
197,177,111586,1,0
104,233,112203,5,0
122,263,112408,1,0
150,284,112614,1,0
182,299,112819,1,0
216,308,113025,1,0
251,313,113230,2,0,B|354:315|366:238,2,140
476,200,115490,5,0
456,169,115696,1,0
455,133,115901,1,0
454,96,116107,1,0
427,71,116312,1,0
392,60,116518,2,0,B|334:22|247:39,2,140
364,126,117751,1,0
340,153,117956,1,0
315,179,118161,1,0
264,83,118778,5,0
234,103,118983,1,0
203,122,119189,1,0
173,142,119394,1,0
142,121,119600,1,0
116,96,119805,2,0,B|39:140|46:232,2,140
256,305,122066,5,0
286,323,122271,1,0
322,323,122477,1,0
357,324,122682,1,0
393,323,122888,1,0
396,287,123093,2,0,B|342:216|384:142,2,140
467,297,124326,2,0,B|501:260|461:218,2,70
404,208,125353,5,0
370,221,125559,1,0
334,225,125764,2,0,B|279:226|264:175,1,70
264,161,126175,1,0
272,125,126381,1,0
290,93,126586,1,0
324,82,126792,1,0
359,84,126997,1,0
394,91,127203,1,0
256,192,127408,12,2,128230
143,64,128641,5,0
113,84,128846,1,0
88,110,129052,1,0
72,142,129257,1,0
72,178,129463,2,0,B|82:220|128:238,1,70
148,240,129874,1,0
183,233,130079,1,0
217,221,130285,1,0
239,192,130490,1,0
291,143,130901,6,0,B|249:109|301:71,2,70
426,192,132134,5,2
307,327,133162,6,0,B|252:265,3,70
260,274,133983,6,0,B|332:201,1,70
309,224,134394,2,0,B|246:164,1,70
258,175,134805,6,0,B|319:112,3,70
306,124,135627,6,0,B|238:58,1,70
255,75,136038,2,0,B|191:133,1,70
203,122,136449,6,0,B|129:55,3,70
151,75,137271,6,0,B|89:132,1,70
99,122,137682,2,0,B|163:180,1,70
150,169,138093,6,0,B|151:264,3,70,0|0|0|0
150,238,138915,6,0,B|148:337,3,70,0|0|0|0
148,307,139737,5,0
183,310,139942,1,0
219,310,140148,1,0
254,310,140353,1,0
290,308,140559,2,0,B|365:310,3,70
395,312,141381,5,0
417,283,141586,1,0
442,257,141792,1,0
464,229,141997,1,0
466,192,142203,2,0,B|465:112,3,70
462,86,143025,5,0
433,64,143230,1,0
403,44,143435,1,0
366,42,143641,1,0
330,39,143846,2,0,B|235:41,3,70
223,43,144668,6,0,B|137:44,3,70
124,66,145490,6,0,B|33:120,3,70
60,137,146312,1,0
59,245,146929,1,2
131,321,147545,5,0
165,327,147751,1,0
196,310,147956,2,0,B|254:320|248:242,1,70
231,244,148367,2,0,B|186:206|247:166,1,70,0|2
443,194,149189,5,0
256,328,149600,1,0
56,192,150011,1,0
255,53,150422,1,2
443,195,150833,5,0
413,214,151038,1,0
381,198,151244,2,0,B|324:174|313:248,1,70
323,250,151655,2,0,B|360:280|306:316,1,70,0|2
55,190,152477,5,0
256,328,152888,1,0
464,192,153298,1,0
256,57,153709,1,2
55,190,154120,5,0
55,225,154326,1,0
54,259,154531,2,0,B|92:298|138:244,1,70
151,265,154942,2,0,B|192:299|234:247,1,70,0|2
223,76,155764,6,0,B|324:61|321:163,1,140
263,186,156586,1,0
297,246,156997,1,0
236,280,157408,1,2
184,325,157819,6,0,B|127:305|164:255,1,70
142,239,158230,5,0
162,210,158435,6,0,B|197:237|239:202,1,70
256,191,158846,5,0
287,175,159052,5,0
319,161,159257,5,0
