osu file format v12

[General]
AudioFilename: Sadistic Music Factory.mp3
AudioLeadIn: 0
PreviewTime: 39977
Countdown: 0
SampleSet: Normal
StackLeniency: 0.7
Mode: 0
LetterboxInBreaks: 1

[Editor]
Bookmarks: 74977,86613,92431,104068,109886,121522,133159,147704
DistanceSpacing: 1
BeatDivisor: 4
GridSize: 4

[Metadata]
Title:Sadistic Music Factory
TitleUnicode:Sadistic Music Factory
Artist:Hatsune Miku
ArtistUnicode:Hatsune Miku
Creator:_Asagi_
Version:Sadistic
Source:Vocaloid
Tags:asagi hatsune miku vocaloid sadistic music factory project diva f
BeatmapID:266738
BeatmapSetID:100110

[Difficulty]
HPDrainRate:7
CircleSize:4
OverallDifficulty:7
ApproachRate:10
SliderMultiplier:1.00000000596046
SliderTickRate:1

[Events]
//Background and Video events
0,0,"sadistic__music_factory_by_yukkurin-d5k1p7e.png",0,0
//Break Periods
2,2722,3800
2,8631,10345
2,63631,71981
2,105813,109436
2,144981,147254
//Storyboard Layer 0 (Background)
//Storyboard Layer 1 (Fail)
//Storyboard Layer 2 (Pass)
//Storyboard Layer 3 (Foreground)
//Storyboard Sound Samples
//Background Colour Transformations
3,100,163,162,255

[TimingPoints]
2250,181.818181818182,4,1,0,60,1,0
16068,-71.4285714285714,4,1,0,60,0,0
17522,-55.5555555555556,4,1,0,60,0,0
19704,-55.5555555555556,4,1,0,60,0,0
25522,-55.5555555555556,4,1,0,60,0,1
25568,-55.5555555555556,4,1,0,60,0,0
121477,-55.5555555555556,4,1,0,60,0,1
121522,-55.5555555555556,4,1,0,60,0,0
133159,-50,4,1,0,60,0,1
144795,-50,4,1,0,60,0,0
150977,-50,4,1,0,60,0,1
151022,-50,4,1,0,60,0,0

[Colours]
Combo1 : 255,40,40
Combo2 : 11,244,192
Combo3 : 234,213,213

[HitObjects]
260,184,2250,1,0,0:0:0:0:
208,332,2431,1,0,0:0:0:0:
304,332,2522,1,0,0:0:0:0:
208,332,4250,5,0,0:0:0:0:
304,332,4340,1,0,0:0:0:0:
256,140,5159,5,0,0:0:0:0:
204,216,5250,1,0,0:0:0:0:
308,216,5340,1,0,0:0:0:0:
432,256,6250,5,0,0:0:0:0:
432,172,6340,1,0,0:0:0:0:
388,100,6431,1,0,0:0:0:0:
304,88,6522,1,0,0:0:0:0:
256,152,6613,2,0,L|256:368,2,200.000001192092
208,88,7431,1,0,0:0:0:0:
124,100,7521,1,0,0:0:0:0:
80,172,7612,1,0,0:0:0:0:
384,260,8068,5,0,0:0:0:0:
328,312,8159,1,0,0:0:0:0:
256,332,8250,1,0,0:0:0:0:
184,312,8340,1,0,0:0:0:0:
128,260,8431,1,0,0:0:0:0:
312,68,10795,5,0,0:0:0:0:
200,68,10886,1,0,0:0:0:0:
116,144,10977,2,0,L|116:260,2,100.000000596046
200,68,12431,1,0,0:0:0:0:
312,68,12522,1,0,0:0:0:0:
396,144,12613,1,0,0:0:0:0:
396,244,12704,1,0,0:0:0:0:
204,116,13977,5,0,0:0:0:0:
156,192,14068,1,0,0:0:0:0:
204,268,14159,1,0,0:0:0:0:
308,268,14250,1,0,0:0:0:0:
356,192,14340,1,0,0:0:0:0:
308,116,14431,1,0,0:0:0:0:
228,96,14613,6,0,P|204:136|152:160,1,100.000000596046
157,224,14977,2,0,P|204:248|228:288,1,100.000000596046
284,288,15340,2,0,P|308:248|360:224,1,100.000000596046
354,159,15704,2,0,P|308:136|284:96,1,100.000000596046
220,72,16068,6,0,P|176:128|100:156,1,139.999996562004
114,229,16431,2,0,P|176:256|220:312,1,139.999996562004
292,312,16795,2,0,P|336:256|397:229,1,139.999996562004
397,154,17159,2,0,P|336:128|292:72,1,139.999996562004
203,22,17522,6,0,P|172:96|88:144,1,179.999995579719
88,240,17886,2,0,P|172:288|203:361,1,179.999995579719
308,361,18250,2,0,P|340:288|424:240,1,179.999995579719
424,144,18613,2,0,P|340:96|308:22,1,179.999995579719
256,316,18977,5,0,0:0:0:0:
256,68,19159,1,0,0:0:0:0:
384,192,19340,1,0,0:0:0:0:
128,192,19522,1,0,0:0:0:0:
260,316,19704,6,0,L|320:383,1,89.9999977898594
388,320,19886,2,0,L|327:252,1,89.9999977898594,0|0,0:0|0:0,0:0:0:0:
252,316,20068,2,0,L|191:383,1,89.9999977898594
124,320,20250,2,0,L|184:252,1,89.9999977898594,0|0,0:0|0:0,0:0:0:0:
284,292,20431,6,0,L|360:352,1,89.9999977898594
428,280,20613,2,0,L|351:228,1,89.9999977898594,0|0,0:0|0:0,0:0:0:0:
228,292,20795,2,0,L|152:352,1,89.9999977898594
84,280,20977,2,0,L|160:228,1,89.9999977898594,0|0,0:0|0:0,0:0:0:0:
328,228,21159,6,0,L|436:228,1,89.9999977898594
416,140,21340,2,0,L|308:140,1,89.9999977898594,0|0,0:0|0:0,0:0:0:0:
184,228,21522,2,0,L|76:228,1,89.9999977898594
96,140,21704,2,0,L|204:140,1,89.9999977898594,0|0,0:0|0:0,0:0:0:0:
280,72,21886,6,0,L|350:16,1,89.9999977898594
424,84,22068,2,0,L|349:134,1,89.9999977898594,0|0,0:0|0:0,0:0:0:0:
232,72,22250,2,0,L|161:16,1,89.9999977898594
88,84,22431,2,0,L|162:134,1,89.9999977898594,0|0,0:0|0:0,0:0:0:0:
256,188,22613,5,0,0:0:0:0:
336,228,22704,1,0,0:0:0:0:
420,192,22795,1,0,0:0:0:0:
432,96,22886,2,0,P|416:44|364:4,1,89.9999977898594
304,68,23068,2,0,P|320:120|372:160,1,89.9999977898594
408,108,23250,6,0,P|392:56|340:16,1,89.9999977898594
280,76,23431,2,0,P|296:128|348:168,1,89.9999977898594
412,196,23613,1,0,0:0:0:0:
448,280,23704,1,0,0:0:0:0:
392,348,23795,1,0,0:0:0:0:
304,356,23886,1,0,0:0:0:0:
236,296,23977,1,0,0:0:0:0:
256,192,24068,12,0,25522,0:0:0:0:
8,224,25704,5,0,0:0:0:0:
32,312,25795,1,0,0:0:0:0:
112,356,25886,1,0,0:0:0:0:
200,336,25977,1,0,0:0:0:0:
252,264,26068,2,0,B|319:200|179:176|252:107,1,179.999995579719
312,48,26340,1,0,0:0:0:0:
400,28,26431,1,0,0:0:0:0:
480,72,26522,1,0,0:0:0:0:
504,160,26613,1,0,0:0:0:0:
472,244,26704,1,0,0:0:0:0:
400,300,26795,1,0,0:0:0:0:
324,252,26886,6,0,L|372:204,4,44.9999988949297
256,192,27159,2,0,L|200:248,4,44.9999988949297
192,128,27431,2,0,L|240:84,4,44.9999988949297
112,84,27704,1,0,0:0:0:0:
40,140,27795,1,0,0:0:0:0:
8,224,27886,1,0,0:0:0:0:
32,312,27977,1,0,0:0:0:0:
112,356,28068,1,0,0:0:0:0:
312,328,28431,6,0,P|356:312|404:248,1,89.9999977898594
336,208,28613,2,0,P|292:224|244:288,1,89.9999977898594
328,352,28795,6,0,P|372:336|420:272,1,89.9999977898594,0|0,0:0|0:0,0:0:0:0:
468,240,28977,1,0,0:0:0:0:
484,152,29068,1,0,0:0:0:0:
436,76,29159,1,0,0:0:0:0:
360,28,29250,1,0,0:0:0:0:
268,20,29340,2,0,P|180:32|108:96,2,179.999995579719
300,104,29795,6,0,P|268:133|224:149,1,89.9999977898594
160,88,29977,2,0,P|191:58|235:42,1,89.9999977898594
320,128,30159,6,0,P|288:157|244:173,1,89.9999977898594
112,89,30340,2,0,P|180:32|268:20,2,179.999995579719
48,152,30795,5,0,0:0:0:0:
8,232,30886,1,0,0:0:0:0:
32,320,30977,1,0,0:0:0:0:
116,372,31067,1,0,0:0:0:0:
204,376,31158,1,0,0:0:0:0:
296,364,31250,6,0,P|352:252|264:144,1,269.999993369578
238,236,31613,2,0,P|160:132|216:20,1,269.999993369578
308,28,31977,2,0,P|328:72|292:128,1,89.9999977898594
224,108,32159,2,0,P|211:70|231:26,2,89.9999977898594
256,192,32431,5,0,0:0:0:0:
288,276,32522,2,0,P|300:313|280:357,1,89.9999977898594
204,308,32704,2,0,P|184:264|196:226,1,89.9999977898594
276,180,32886,2,0,P|320:192|368:244,1,89.9999977898594
384,308,33068,2,0,P|348:352|264:368,2,134.999996684789
432,232,33431,5,0,0:0:0:0:
436,140,33522,1,0,0:0:0:0:
380,72,33613,1,0,0:0:0:0:
296,40,33704,1,0,0:0:0:0:
96,308,33886,2,0,L|96:208,1,89.9999977898594
184,236,34068,2,0,L|184:136,1,89.9999977898594
272,168,34250,2,0,L|272:68,1,89.9999977898594
360,92,34431,2,0,L|360:-8,2,89.9999977898594
436,140,34704,2,0,B|436:232|436:232|360:304,2,179.999995579719
368,192,35159,6,0,L|272:284,1,89.9999977898594
380,316,35340,2,0,L|444:253,1,89.9999977898594
352,180,35522,6,0,L|256:272,1,89.9999977898594
224,308,35704,1,0,0:0:0:0:
144,352,35795,1,0,0:0:0:0:
52,348,35886,1,0,0:0:0:0:
4,272,35977,1,0,0:0:0:0:
8,180,36068,1,0,0:0:0:0:
60,108,36159,1,0,0:0:0:0:
140,68,36250,6,0,P|256:44|380:88,2,224.999994474649
132,156,36795,6,0,L|60:240,1,89.9999977898594
152,272,36977,2,0,L|224:192,1,89.9999977898594
299,205,37159,2,0,L|360:272,1,89.9999977898594
438,224,37340,2,0,L|380:156,1,89.9999977898594
304,108,37522,2,0,L|192:108,2,89.9999977898594
388,144,37795,5,0,0:0:0:0:
436,220,37886,1,0,0:0:0:0:
400,304,37977,1,0,0:0:0:0:
324,352,38068,1,0,0:0:0:0:
236,356,38159,5,0,0:0:0:0:
152,324,38250,1,0,0:0:0:0:
84,264,38340,1,0,0:0:0:0:
52,180,38431,1,0,0:0:0:0:
56,88,38522,1,0,0:0:0:0:
120,24,38613,6,0,L|212:88,1,89.9999977898594
280,96,38795,2,0,L|216:168,1,89.9999977898594
136,196,38977,2,0,L|208:260,1,89.9999977898594
292,212,39159,6,0,L|365:264,1,89.9999977898594
420,204,39340,2,0,L|347:152,1,89.9999977898594
272,228,39522,6,0,L|345:280,1,89.9999977898594
436,184,39704,2,0,L|363:132,1,89.9999977898594
260,244,39886,6,0,L|344:308,1,89.9999977898594
348,368,40068,5,0,0:0:0:0:
256,368,40159,1,0,0:0:0:0:
164,368,40250,1,0,0:0:0:0:
68,216,40431,5,0,0:0:0:0:
112,136,40522,1,0,0:0:0:0:
168,64,40613,1,0,0:0:0:0:
256,56,40704,1,0,0:0:0:0:
344,64,40795,1,0,0:0:0:0:
400,136,40886,1,0,0:0:0:0:
444,216,40977,1,0,0:0:0:0:
356,236,41068,2,0,L|292:152,1,89.9999977898594
210,164,41250,2,0,L|156:236,1,89.9999977898594
20,28,41522,5,0,0:0:0:0:
256,192,41795,1,0,0:0:0:0:
492,356,42068,1,0,0:0:0:0:
256,192,42340,1,0,0:0:0:0:
196,352,42795,5,0,0:0:0:0:
112,324,42886,1,0,0:0:0:0:
52,260,42977,1,0,0:0:0:0:
40,172,43068,1,0,0:0:0:0:
80,92,43159,6,0,P|112:56|180:32,1,89.9999977898594
264,156,43340,2,0,P|232:192|195:210,1,89.9999977898594
140,152,43522,2,0,P|172:116|240:92,1,89.9999977898594
324,216,43704,2,0,P|292:252|255:270,1,89.9999977898594
320,344,43886,2,0,P|356:325|388:289,1,89.9999977898594
444,224,44068,5,0,0:0:0:0:
440,136,44159,1,0,0:0:0:0:
388,64,44250,1,0,0:0:0:0:
308,24,44340,1,0,0:0:0:0:
168,120,44522,1,0,0:0:0:0:
116,192,44613,1,0,0:0:0:0:
168,264,44704,1,0,0:0:0:0:
344,264,44886,1,0,0:0:0:0:
396,192,44977,1,0,0:0:0:0:
344,120,45068,1,0,0:0:0:0:
256,192,45340,5,0,0:0:0:0:
168,360,45522,5,0,0:0:0:0:
84,328,45613,1,0,0:0:0:0:
40,248,45704,1,0,0:0:0:0:
68,164,45795,1,0,0:0:0:0:
116,88,45886,2,0,L|180:88,2,44.9999988949297
196,188,46068,2,0,P|216:240|196:304,1,89.9999977898594
124,252,46250,2,0,P|113:301|122:338,1,89.9999977898594
389,338,46431,2,0,P|399:301|388:252,1,89.9999977898594
299,273,46613,2,0,P|296:240|316:188,1,89.9999977898594
408,196,46795,6,0,P|306:160|256:84,1,179.999995579719
252,16,47068,1,0,0:0:0:0:
247,105,47159,2,0,P|206:160|104:196,1,179.999995579719
88,96,47431,6,0,P|124:56|192:48,1,89.9999977898594
208,112,47613,2,0,P|172:152|104:160,1,89.9999977898594
84,68,47795,6,0,P|120:28|188:20,1,89.9999977898594
248,28,47977,1,0,0:0:0:0:
340,64,48068,1,0,0:0:0:0:
416,120,48159,1,0,0:0:0:0:
472,192,48250,1,0,0:0:0:0:
256,340,48431,2,0,L|280:302,2,44.9999988949297
168,316,48613,1,0,0:0:0:0:
96,264,48704,1,0,0:0:0:0:
32,200,48795,1,0,0:0:0:0:
60,108,48886,6,0,L|140:188,1,89.9999977898594
388,171,49068,2,0,L|452:108,1,89.9999977898594
372,68,49250,2,0,L|292:148,1,89.9999977898594
203,131,49431,2,0,L|140:68,1,89.9999977898594
256,16,49613,2,0,L|256:124,1,89.9999977898594
256,196,49795,6,0,B|340:192|404:239|396:316,1,179.999995579719
256,196,50068,2,0,B|172:192|107:239|116:316,1,179.999995579719
176,352,50340,2,0,P|220:348|260:296,1,89.9999977898594
336,352,50522,2,0,P|292:348|252:296,1,89.9999977898594
256,228,50704,1,0,0:0:0:0:
256,136,50795,1,0,0:0:0:0:
308,64,50886,1,0,0:0:0:0:
376,52,50977,2,0,P|420:76|460:132,1,89.9999977898594
396,176,51159,2,0,P|352:152|312:96,1,89.9999977898594
392,32,51340,6,0,P|436:56|500:188,1,179.999995579719
120,32,51704,6,0,P|76:56|12:188,1,179.999995579719
12,256,51977,1,0,0:0:0:0:
52,336,52068,1,0,0:0:0:0:
136,364,52159,1,0,0:0:0:0:
220,352,52250,2,0,P|264:340|308:288,1,89.9999977898594
240,244,52431,2,0,P|196:256|152:308,1,89.9999977898594
224,372,52613,6,0,P|268:360|312:308,1,89.9999977898594
324,244,52795,1,0,0:0:0:0:
256,184,52886,1,0,0:0:0:0:
188,128,52977,1,0,0:0:0:0:
204,40,53068,2,0,P|237:11|281:-1,1,89.9999977898594
336,86,53250,2,0,P|304:116|260:128,1,89.9999977898594
216,56,53431,6,0,P|249:27|293:15,1,89.9999977898594
376,20,53612,1,0,0:0:0:0:
460,48,53703,1,0,0:0:0:0:
500,128,53794,1,0,0:0:0:0:
448,204,53886,6,0,P|432:248|372:268,1,89.9999977898594
64,180,54068,2,0,P|80:136|140:116,1,89.9999977898594
400,192,54250,2,0,P|344:212|292:168,1,89.9999977898594
112,192,54431,2,0,P|168:172|220:216,1,89.9999977898594
256,248,54613,5,0,0:0:0:0:
308,320,54704,1,0,0:0:0:0:
396,328,54795,1,0,0:0:0:0:
468,276,54886,1,0,0:0:0:0:
464,184,54977,1,0,0:0:0:0:
392,128,55068,1,0,0:0:0:0:
308,100,55159,2,0,P|256:88|184:108,1,89.9999977898594
204,284,55340,2,0,P|256:296|328:276,1,89.9999977898594
312,76,55522,2,0,P|268:48|200:40,1,89.9999977898594
200,308,55704,2,0,P|280:344|376:328,2,179.999995579719
128,264,56159,6,0,P|104:224|104:156,1,89.9999977898594
204,124,56340,2,0,P|197:162|213:210,1,89.9999977898594
384,264,56522,2,0,P|408:224|413:181,1,89.9999977898594
308,124,56703,2,0,P|315:162|288:232,2,89.9999977898594
204,124,56977,2,0,P|197:162|256:288,1,179.999995579719
340,312,57250,5,0,0:0:0:0:
428,296,57340,1,0,0:0:0:0:
472,220,57431,1,0,0:0:0:0:
468,132,57522,1,0,0:0:0:0:
412,64,57613,2,0,L|320:144,1,89.9999977898594
296,48,57795,2,0,B|256:72|256:72|204:40,1,89.9999977898594
100,64,57977,2,0,L|192:144,2,89.9999977898594
44,132,58250,5,0,0:0:0:0:
40,220,58341,1,0,0:0:0:0:
84,296,58432,1,0,0:0:0:0:
172,312,58522,1,0,0:0:0:0:
256,276,58613,2,0,P|304:264|368:148,1,179.999995579719
256,276,58886,2,0,P|208:264|144:148,2,179.999995579719
228,184,59340,6,0,L|160:108,1,89.9999977898594
84,184,59522,2,0,L|144:251,1,89.9999977898594
284,184,59704,2,0,L|352:108,1,89.9999977898594
428,184,59886,2,0,L|368:251,1,89.9999977898594
256,276,60068,1,0,0:0:0:0:
256,184,60159,1,0,0:0:0:0:
256,92,60250,1,0,0:0:0:0:
408,292,60431,6,0,L|328:244,1,89.9999977898594
104,292,60704,6,0,L|184:244,1,89.9999977898594
256,44,60977,6,0,L|256:134,1,89.9999977898594
400,356,61250,5,0,0:0:0:0:
480,312,61341,1,0,0:0:0:0:
504,224,61432,1,0,0:0:0:0:
472,140,61523,1,0,0:0:0:0:
400,84,61614,1,0,0:0:0:0:
286,97,61706,2,0,L|320:128,4,44.9999988949297
287,223,61978,2,0,L|256:192,4,44.9999988949297
156,220,62251,2,0,L|188:252,4,44.9999988949297
112,300,62523,5,0,0:0:0:0:
40,244,62614,1,0,0:0:0:0:
8,160,62705,1,0,0:0:0:0:
32,72,62796,1,0,0:0:0:0:
112,28,62887,1,0,0:0:0:0:
200,48,62978,1,0,0:0:0:0:
256,116,63068,1,0,0:0:0:0:
256,208,63159,2,0,L|256:272,6,44.9999988949297
256,192,72431,12,0,74795,0:0:0:0:
32,192,74977,5,0,0:0:0:0:
68,112,75068,1,0,0:0:0:0:
136,52,75159,1,0,0:0:0:0:
220,32,75250,1,0,0:0:0:0:
308,32,75340,2,0,P|416:64|464:128,1,179.999995579719
380,164,75613,2,0,P|336:124|280:120,1,89.9999977898594
296,208,75795,2,0,P|256:224|208:200,1,89.9999977898594
204,117,75977,2,0,P|176:124|132:164,1,89.9999977898594
96,248,76159,5,0,0:0:0:0:
124,332,76250,1,0,0:0:0:0:
200,376,76340,1,0,0:0:0:0:
292,380,76431,1,0,0:0:0:0:
384,364,76522,1,0,0:0:0:0:
448,312,76613,2,0,P|480:276|480:212,1,89.9999977898594
404,184,76795,2,0,P|372:220|365:260,1,89.9999977898594
448,296,76977,6,0,P|480:260|480:196,1,89.9999977898594
476,128,77159,2,0,P|429:51|312:24,2,179.999995579719
392,156,77613,2,0,P|352:144|304:80,1,89.9999977898594
372,40,77795,6,0,P|412:52|446:84,1,89.9999977898594
452,176,77977,1,0,0:0:0:0:
416,260,78068,1,0,0:0:0:0:
352,324,78159,1,0,0:0:0:0:
264,352,78250,1,0,0:0:0:0:
163,363,78386,6,0,P|83:333|36:256,2,179.999995579719
200,260,78840,2,0,P|166:228|126:216,1,89.9999977898594
72,292,79022,6,0,P|106:324|146:336,1,89.9999977898594
256,332,79250,2,0,B|280:276|332:236|412:236,1,179.999995579719
256,332,79522,2,0,B|232:276|180:236|114:236,1,179.999995579719
36,188,79795,1,0,0:0:0:0:
12,100,79886,1,0,0:0:0:0:
68,32,79977,1,0,0:0:0:0:
156,12,80068,1,0,0:0:0:0:
136,100,80159,6,0,L|60:204,1,89.9999977898594
176,220,80340,2,0,L|244:120,1,89.9999977898594
376,100,80522,2,0,L|452:204,1,89.9999977898594
336,220,80703,2,0,L|268:120,1,89.9999977898594
256,60,80886,5,0,0:0:0:0:
176,20,80977,1,0,0:0:0:0:
84,44,81068,1,0,0:0:0:0:
40,124,81159,1,0,0:0:0:0:
64,204,81250,2,0,P|80:248|140:268,1,89.9999977898594
448,180,81432,2,0,P|432:136|372:116,1,89.9999977898594
112,192,81614,6,0,P|168:212|220:168,1,89.9999977898594
400,192,81795,2,0,P|344:172|292:216,1,89.9999977898594
140,256,81977,6,0,P|184:272|203:308,1,89.9999977898594
308,308,82159,2,0,P|328:272|372:256,1,89.9999977898594
372,128,82340,2,0,P|328:112|308:75,1,89.9999977898594
203,75,82522,2,0,P|184:112|140:128,1,89.9999977898594
140,256,82704,6,0,P|184:272|203:308,1,89.9999977898594
308,308,82886,2,0,P|328:272|372:256,1,89.9999977898594
372,128,83067,2,0,P|328:112|308:75,1,89.9999977898594
203,75,83249,2,0,P|184:112|140:128,1,89.9999977898594
124,228,83431,6,0,L|220:248,1,89.9999977898594
388,228,83613,2,0,L|299:246,1,89.9999977898594
116,192,83795,6,0,L|206:192,1,89.9999977898594
396,192,83977,2,0,L|306:192,1,89.9999977898594
124,156,84159,6,0,L|212:137,1,89.9999977898594
388,156,84341,2,0,L|292:136,1,89.9999977898594
256,64,84522,5,0,0:0:0:0:
256,96,84613,1,0,0:0:0:0:
256,128,84704,1,0,0:0:0:0:
256,160,84795,1,0,0:0:0:0:
256,192,84886,5,0,0:0:0:0:
256,224,84977,1,0,0:0:0:0:
256,256,85068,1,0,0:0:0:0:
256,288,85159,1,0,0:0:0:0:
208,230,85250,6,0,L|208:320,1,89.9999977898594
304,248,85431,2,0,L|304:140,1,89.9999977898594
204,98,85613,2,0,L|204:188,1,89.9999977898594
304,34,85795,2,0,L|304:124,1,89.9999977898594
386,194,85977,2,0,B|344:216|344:216|168:168|168:168|136:192,2,269.999993369578
256,112,86977,5,0,0:0:0:0:
256,272,87159,1,0,0:0:0:0:
336,192,87340,1,0,0:0:0:0:
176,192,87522,1,0,0:0:0:0:
276,104,87704,5,0,0:0:0:0:
236,280,87886,1,0,0:0:0:0:
348,208,88067,1,0,0:0:0:0:
164,176,88249,1,0,0:0:0:0:
296,96,88431,5,0,0:0:0:0:
216,288,88613,1,0,0:0:0:0:
360,224,88794,1,0,0:0:0:0:
152,160,88976,1,0,0:0:0:0:
316,88,89159,5,0,0:0:0:0:
196,296,89341,1,0,0:0:0:0:
376,240,89522,1,0,0:0:0:0:
136,144,89704,1,0,0:0:0:0:
336,80,89885,5,0,0:0:0:0:
176,304,90067,1,0,0:0:0:0:
392,256,90248,1,0,0:0:0:0:
120,128,90430,1,0,0:0:0:0:
356,72,90613,5,0,0:0:0:0:
156,312,90795,1,0,0:0:0:0:
408,272,90976,1,0,0:0:0:0:
104,112,91158,1,0,0:0:0:0:
376,64,91340,5,0,0:0:0:0:
136,320,91522,1,0,0:0:0:0:
424,288,91703,1,0,0:0:0:0:
88,96,91885,1,0,0:0:0:0:
256,192,92068,5,0,0:0:0:0:
448,192,92431,5,0,0:0:0:0:
412,108,92522,1,0,0:0:0:0:
340,52,92613,1,0,0:0:0:0:
252,40,92704,1,0,0:0:0:0:
164,52,92795,1,0,0:0:0:0:
92,104,92886,2,0,L|24:204,1,89.9999977898594
136,240,93068,2,0,L|212:136,1,89.9999977898594
108,116,93250,6,0,L|40:216,1,89.9999977898594
124,232,93431,2,0,L|200:128,1,89.9999977898594
92,104,93613,6,0,B|40:180|40:180|76:272,1,179.999995579719
132,332,93886,1,0,0:0:0:0:
208,376,93977,1,0,0:0:0:0:
300,376,94068,5,0,0:0:0:0:
380,336,94159,1,0,0:0:0:0:
436,268,94250,2,0,P|492:196|472:80,2,179.999995579719
352,192,94704,2,0,P|368:136|400:108,1,89.9999977898594
444,140,94886,2,0,P|428:196|396:224,1,89.9999977898594
288,160,95068,2,0,P|304:104|336:76,2,89.9999977898594
288,252,95340,5,0,0:0:0:0:
212,300,95431,1,0,0:0:0:0:
124,284,95522,1,0,0:0:0:0:
72,212,95613,1,0,0:0:0:0:
88,124,95704,2,0,L|152:36,1,89.9999977898594
371,51,95886,2,0,L|423:123,1,89.9999977898594
167,168,96068,2,0,L|220:96,1,89.9999977898594
292,96,96250,2,0,L|344:168,1,89.9999977898594
412,228,96431,5,0,0:0:0:0:
452,308,96522,1,0,0:0:0:0:
404,384,96613,1,0,0:0:0:0:
308,384,96704,1,0,0:0:0:0:
260,304,96795,1,0,0:0:0:0:
256,212,96886,2,0,L|256:144,4,44.9999988949297
256,76,97159,1,0,0:0:0:0:
256,167,97250,2,0,L|256:212,6,44.9999988949297
136,204,97613,2,0,P|172:280|260:304,1,179.999995579719
384,204,97886,2,0,P|348:279|260:303,1,179.999995579719
256,212,98159,6,0,P|288:168|340:156,1,89.9999977898594
376,228,98340,2,0,P|356:272|296:296,1,89.9999977898594
256,356,98522,1,0,0:0:0:0:
156,356,98613,1,0,0:0:0:0:
76,312,98704,1,0,0:0:0:0:
44,228,98795,1,0,0:0:0:0:
88,148,98886,6,0,L|160:244,1,89.9999977898594
258,192,99068,2,0,L|312:120,1,89.9999977898594
200,120,99250,2,0,L|254:192,1,89.9999977898594
370,220,99431,2,0,L|424:148,1,89.9999977898594
312,120,99613,2,0,B|256:192|256:192|256:288,1,179.999995579719
256,360,99886,5,0,0:0:0:0:
168,352,99977,1,0,0:0:0:0:
88,312,100068,1,0,0:0:0:0:
68,224,100159,1,0,0:0:0:0:
80,136,100250,1,0,0:0:0:0:
152,88,100340,2,0,L|260:44,1,89.9999977898594
360,296,100522,2,0,L|252:340,1,89.9999977898594
192,116,100704,2,0,L|282:116,1,89.9999977898594
320,268,100886,2,0,L|230:268,1,89.9999977898594
392,352,101068,6,0,P|436:328|500:196,1,179.999995579719
500,128,101341,1,0,0:0:0:0:
460,48,101432,1,0,0:0:0:0:
376,20,101523,1,0,0:0:0:0:
288,20,101614,2,0,P|244:32|200:84,1,89.9999977898594
260,136,101795,2,0,P|304:124|348:72,1,89.9999977898594
284,4,101977,6,0,P|240:16|196:68,1,89.9999977898594
188,140,102159,1,0,0:0:0:0:
256,200,102250,1,0,0:0:0:0:
324,256,102341,5,0,0:0:0:0:
308,344,102432,2,0,P|275:373|231:385,1,89.9999977898594
176,298,102614,2,0,P|208:268|252:256,1,89.9999977898594
296,320,102795,6,0,P|263:349|219:361,1,89.9999977898594
136,364,102976,1,0,0:0:0:0:
56,328,103067,1,0,0:0:0:0:
28,248,103158,1,0,0:0:0:0:
48,160,103250,6,0,P|64:116|124:96,1,89.9999977898594
464,224,103431,2,0,P|448:268|388:288,1,89.9999977898594
96,172,103614,6,0,P|152:152|204:196,1,89.9999977898594
416,212,103795,2,0,P|360:232|308:188,1,89.9999977898594
256,256,103977,1,0,0:0:0:0:
256,96,104068,2,0,L|256:176,34,44.9999988949297
256,288,109886,5,0,0:0:0:0:
164,216,109977,1,0,0:0:0:0:
204,128,110068,1,0,0:0:0:0:
308,128,110159,1,0,0:0:0:0:
348,216,110250,1,0,0:0:0:0:
256,192,110431,12,0,112431,0:0:0:0:
256,344,112795,5,0,0:0:0:0:
188,284,112886,1,0,0:0:0:0:
124,220,112977,1,0,0:0:0:0:
60,156,113068,1,0,0:0:0:0:
4,88,113159,1,0,0:0:0:0:
256,40,114250,5,0,0:0:0:0:
324,100,114341,1,0,0:0:0:0:
388,164,114432,1,0,0:0:0:0:
452,228,114523,1,0,0:0:0:0:
508,296,114614,1,0,0:0:0:0:
256,344,115704,5,0,0:0:0:0:
324,284,115795,1,0,0:0:0:0:
388,220,115886,1,0,0:0:0:0:
452,156,115977,1,0,0:0:0:0:
508,88,116068,1,0,0:0:0:0:
256,40,116977,5,0,0:0:0:0:
188,100,117068,1,0,0:0:0:0:
124,164,117159,1,0,0:0:0:0:
60,228,117250,1,0,0:0:0:0:
4,296,117341,1,0,0:0:0:0:
256,272,118613,5,0,0:0:0:0:
328,220,118704,1,0,0:0:0:0:
300,132,118795,1,0,0:0:0:0:
212,128,118886,1,0,0:0:0:0:
180,212,118977,1,0,0:0:0:0:
256,112,119340,5,0,0:0:0:0:
328,164,119431,5,0,0:0:0:0:
300,252,119522,5,0,0:0:0:0:
212,256,119613,5,0,0:0:0:0:
180,172,119704,5,0,0:0:0:0:
256,192,120159,12,0,121431,0:0:0:0:
24,216,121522,5,0,0:0:0:0:
52,132,121613,1,0,0:0:0:0:
120,72,121704,1,0,0:0:0:0:
204,40,121795,1,0,0:0:0:0:
292,36,121886,2,0,P|380:56|452:144,1,179.999995579719
404,200,122159,2,0,P|342:137|254:117,1,179.999995579719
208,196,122431,6,0,P|296:216|357:278,1,179.999995579719
308,356,122704,2,0,P|246:293|158:273,1,179.999995579719
88,332,122977,6,0,P|123:363|204:372,1,89.9999977898594
256,372,123159,1,0,0:0:0:0:
344,360,123250,2,0,P|432:340|504:252,1,179.999995579719
456,196,123523,2,0,P|394:258|306:278,1,179.999995579719
216,272,123795,1,0,0:0:0:0:
188,188,123886,6,0,P|256:176|332:192,2,134.999996684789
112,236,124250,2,0,B|72:152|72:152|112:60,1,179.999995579719
196,168,124522,2,0,B|236:80|236:80|312:12,1,179.999995579719
213,24,124795,2,0,B|276:80|276:80|316:168,1,179.999995579719
405,72,125068,2,0,B|440:152|440:152|400:236,1,179.999995579719
336,300,125340,5,0,0:0:0:0:
256,340,125431,1,0,0:0:0:0:
176,300,125522,1,0,0:0:0:0:
168,212,125613,2,0,B|256:160|256:160|256:40,1,179.999995579719
344,212,125886,2,0,B|256:160|256:160|256:40,1,179.999995579719
176,36,126159,5,0,0:0:0:0:
92,68,126250,1,0,0:0:0:0:
56,148,126340,1,0,0:0:0:0:
56,240,126431,2,0,B|112:317|112:317|208:364,1,179.999995579719
174,257,126704,2,0,B|256:296|256:296|336:256,1,179.999995579719
323,354,126977,2,0,B|399:317|399:317|456:240,1,179.999995579719
456,148,127250,5,0,0:0:0:0:
332,20,127431,1,0,0:0:0:0:
256,184,127613,1,0,0:0:0:0:
180,20,127795,1,0,0:0:0:0:
52,148,127977,1,0,0:0:0:0:
84,232,128068,6,0,P|164:268|224:352,1,179.999995579719
292,339,128340,2,0,P|348:268|428:232,1,179.999995579719
428,152,128613,2,0,P|348:116|288:32,1,179.999995579719
219,44,128886,2,0,P|164:116|84:152,1,179.999995579719
92,148,129159,6,0,B|124:64|124:64|227:40,1,179.999995579719
300,43,129431,2,0,B|388:64|388:64|420:148,1,179.999995579719
420,236,129704,2,0,B|388:320|388:320|285:344,1,179.999995579719
211,340,129977,2,0,B|124:320|124:320|92:236,1,179.999995579719
92,148,130250,2,0,B|124:64|124:64|227:40,1,179.999995579719
308,32,130522,5,0,0:0:0:0:
400,32,130613,1,0,0:0:0:0:
400,124,130704,1,0,0:0:0:0:
308,124,130795,1,0,0:0:0:0:
192,192,130886,2,0,B|288:192|288:192|360:240,1,179.999995579719
256,256,131159,2,0,B|256:160|256:160|324:92,1,179.999995579719
320,192,131431,2,0,B|224:192|224:192|164:120,1,179.999995579719
256,128,131704,2,0,B|256:224|256:224|256:308,1,179.999995579719
180,356,131977,5,0,0:0:0:0:
100,312,132068,1,0,0:0:0:0:
92,224,132159,1,0,0:0:0:0:
120,140,132250,2,0,B|180:68|180:68|272:44,1,179.999995579719
392,244,132522,2,0,B|332:316|332:316|240:340,1,179.999995579719
256,172,132795,6,0,L|256:228,6,44.9999988949297
212,72,133159,6,0,L|136:4,1,100.000000596046
48,80,133340,2,0,L|122:146,1,100.000000596046
300,72,133522,2,0,L|374:5,1,100.000000596046
464,80,133703,2,0,L|389:146,1,100.000000596046
300,312,133886,6,0,L|374:378,1,100.000000596046
464,304,134068,2,0,L|389:237,1,100.000000596046
300,72,134250,2,0,L|374:5,1,100.000000596046
464,80,134431,2,0,L|389:146,1,100.000000596046
300,312,134613,6,0,L|374:378,1,100.000000596046
464,304,134795,2,0,L|389:237,1,100.000000596046
212,312,134977,2,0,L|136:380,1,100.000000596046
48,304,135158,2,0,L|122:237,1,100.000000596046
212,72,135340,6,0,L|138:5,1,100.000000596046
48,80,135521,2,0,L|123:146,1,100.000000596046
212,312,135703,2,0,L|138:378,1,100.000000596046
48,304,135885,2,0,L|123:237,1,100.000000596046
212,72,136068,6,0,L|136:4,1,100.000000596046
48,80,136249,2,0,L|122:146,1,100.000000596046
300,72,136431,2,0,L|374:5,1,100.000000596046
464,80,136612,2,0,L|389:146,1,100.000000596046
163,330,136795,6,0,L|88:264,1,100.000000596046
88,120,136977,2,0,L|163:54,1,100.000000596046
349,54,137158,2,0,L|424:120,1,100.000000596046
424,264,137340,2,0,L|349:330,1,100.000000596046
163,330,137522,2,0,L|88:264,1,100.000000596046
88,120,137704,2,0,L|163:54,1,100.000000596046
349,54,137886,2,0,L|424:120,1,100.000000596046
334,189,138068,2,0,L|300:152,6,50.000000298023
181,196,138431,2,0,L|216:232,6,50.000000298023
244,320,138795,5,0,0:0:0:0:
144,312,138886,1,0,0:0:0:0:
60,256,138977,1,0,0:0:0:0:
72,164,139068,2,0,P|96:112|140:76,1,100.000000596046
200,136,139250,2,0,P|176:188|145:216,1,100.000000596046
44,136,139431,6,0,P|76:88|128:52,1,100.000000596046
208,36,139613,1,0,0:0:0:0:
308,36,139704,1,0,0:0:0:0:
408,48,139795,2,0,P|441:75|473:123,1,100.000000596046
375,199,139976,2,0,P|345:171|321:119,1,100.000000596046
400,80,140158,6,0,P|431:109|455:161,1,100.000000596046
460,256,140340,1,0,0:0:0:0:
396,332,140431,1,0,0:0:0:0:
304,372,140522,1,0,0:0:0:0:
208,368,140613,5,0,0:0:0:0:
116,332,140704,1,0,0:0:0:0:
52,256,140795,1,0,0:0:0:0:
76,160,140886,6,0,L|148:84,1,100.000000596046
436,224,141068,2,0,L|364:300,1,100.000000596046
104,184,141250,6,0,L|172:111,1,100.000000596046
408,200,141432,2,0,L|339:272,1,100.000000596046
132,208,141613,6,0,L|200:135,1,100.000000596046
380,176,141795,2,0,L|311:248,1,100.000000596046
272,300,141977,6,0,L|204:228,1,100.000000596046
240,84,142159,2,0,L|309:157,1,100.000000596046
244,324,142340,6,0,L|176:252,1,100.000000596046
268,60,142522,2,0,L|337:133,1,100.000000596046
216,348,142704,6,0,L|148:276,1,100.000000596046
296,36,142886,2,0,L|365:109,1,100.000000596046
236,168,143068,2,0,L|276:204,3,50.000000298023
256,64,143340,5,0,0:0:0:0:
168,312,143522,1,0,0:0:0:0:
388,168,143704,1,0,0:0:0:0:
124,168,143886,1,0,0:0:0:0:
344,312,144068,1,0,0:0:0:0:
236,192,144250,6,0,L|284:192,13,44.9999988949297
164,108,147704,6,0,P|256:72|348:108,1,200.000001192092
256,192,147977,1,0,0:0:0:0:
164,276,148068,2,0,P|256:312|348:276,2,200.000001192092
116,172,148522,2,0,P|96:120|120:64,1,100.000000596046
256,56,148704,2,0,L|256:172,1,100.000000596046
396,172,148886,2,0,P|416:120|392:64,1,100.000000596046
8,216,149159,5,0,0:0:0:0:
28,120,149250,1,0,0:0:0:0:
108,64,149340,1,0,0:0:0:0:
204,84,149431,1,0,0:0:0:0:
256,168,149522,5,0,0:0:0:0:
272,264,149613,1,0,0:0:0:0:
354,320,149704,1,0,0:0:0:0:
448,299,149795,1,0,0:0:0:0:
504,216,149886,6,0,L|504:144,1,50.000000298023
484,120,149977,2,0,L|420:56,1,50.000000298023
404,64,150067,6,0,L|340:64,1,50.000000298023
308,84,150158,2,0,L|272:119,1,50.000000298023
256,168,150249,6,0,L|256:240,1,50.000000298023
239,264,150340,2,0,L|204:300,1,50.000000298023
158,320,150431,6,0,L|108:320,1,50.000000298023
63,299,150521,2,0,L|28:264,2,50.000000298023
256,192,150977,12,0,156431,0:0:0:0:
