osu file format v12

[General]
AudioFilename: Sadistic Music Factory.mp3
AudioLeadIn: 0
PreviewTime: 39977
Countdown: 0
SampleSet: Normal
StackLeniency: 0.7
Mode: 0
LetterboxInBreaks: 1

[Editor]
Bookmarks: 72613,74977,86613,92431,104068,109886,121522,133159,144250,147704
DistanceSpacing: 0.9
BeatDivisor: 4
GridSize: 4

[Metadata]
Title:Sadistic Music Factory
TitleUnicode:Sadistic Music Factory
Artist:Hatsune Miku
ArtistUnicode:Hatsune Miku
Creator:_Asagi_
Version:Hard
Source:Vocaloid
Tags:asagi hatsune miku vocaloid sadistic music factory project diva f
BeatmapID:266861
BeatmapSetID:100110

[Difficulty]
HPDrainRate:5
CircleSize:4
OverallDifficulty:6
ApproachRate:7
SliderMultiplier:1.00000000596046
SliderTickRate:1

[Events]
//Background and Video events
0,0,"sadistic__music_factory_by_yukkurin-d5k1p7e.png",0,0
//Break Periods
2,8631,9895
2,45903,48986
2,52994,59440
//Storyboard Layer 0 (Background)
//Storyboard Layer 1 (Fail)
//Storyboard Layer 2 (Pass)
//Storyboard Layer 3 (Foreground)
//Storyboard Sound Samples
//Background Colour Transformations
3,100,163,162,255

[TimingPoints]
2250,181.818181818182,4,1,0,60,1,0

[Colours]
Combo1 : 255,40,40
Combo2 : 11,244,192
Combo3 : 234,213,213

[HitObjects]
256,136,2250,1,0,0:0:0:0:
256,220,2431,2,0,L|256:280,1,50.000000298023
256,292,4250,6,0,L|256:220,1,50.000000298023
204,192,4977,1,0,0:0:0:0:
256,192,5068,1,0,0:0:0:0:
308,192,5159,1,0,0:0:0:0:
408,304,6250,5,0,0:0:0:0:
364,300,6340,1,0,0:0:0:0:
320,284,6431,1,0,0:0:0:0:
284,256,6522,1,0,0:0:0:0:
256,212,6613,2,0,L|256:80,2,125.000000745057
140,280,7340,2,0,L|92:320,2,50.000000298023
256,192,8068,6,0,L|256:136,4,50.000000298023
44,76,10795,5,0,0:0:0:0:
128,148,10977,2,0,L|128:220,4,50.000000298023
384,236,12431,2,0,L|384:164,4,50.000000298023
96,332,13886,6,0,L|144:232,1,100.000000596046
196,304,14250,2,0,L|244:204,1,100.000000596046
304,268,14613,2,0,L|352:168,1,100.000000596046
404,240,14977,2,0,L|452:140,1,100.000000596046
416,52,15340,6,0,L|368:152,1,100.000000596046
316,80,15704,2,0,L|268:180,1,100.000000596046
208,116,16067,2,0,L|160:216,1,100.000000596046
108,144,16431,2,0,L|60:244,1,100.000000596046
60,144,16795,6,0,L|160:144,1,100.000000596046
156,264,17159,2,0,L|256:264,1,100.000000596046
280,88,17522,2,0,L|380:88,1,100.000000596046
412,308,17886,6,0,L|512:308,1,100.000000596046
216,376,18250,2,0,L|316:376,1,100.000000596046
304,192,18613,2,0,L|404:192,1,100.000000596046
140,88,18977,2,0,L|240:88,1,100.000000596046
100,280,19340,2,0,L|160:280,4,50.000000298023
80,152,19886,5,0,0:0:0:0:
80,244,20068,1,0,0:0:0:0:
80,152,20250,2,0,B|80:108|80:108|124:60,1,100.000000596046
208,68,20613,5,0,0:0:0:0:
116,68,20795,1,0,0:0:0:0:
208,68,20977,2,0,B|208:112|208:112|248:164,1,100.000000596046
244,248,21340,5,0,0:0:0:0:
240,156,21522,1,0,0:0:0:0:
244,248,21704,2,0,B|296:248|296:248|352:284,1,100.000000596046
416,316,22068,1,0,0:0:0:0:
472,248,22250,2,0,B|472:196|472:196|432:160,1,100.000000596046
332,96,22613,5,0,0:0:0:0:
316,96,22704,1,0,0:0:0:0:
300,96,22795,1,0,0:0:0:0:
284,96,22886,1,0,0:0:0:0:
268,96,22977,1,0,0:0:0:0:
252,96,23068,2,0,L|192:96,10,50.000000298023
256,192,24068,12,0,25431,0:0:0:0:
104,76,25522,5,0,0:0:0:0:
104,76,25613,1,0,0:0:0:0:
104,76,25704,1,0,0:0:0:0:
104,76,25795,1,0,0:0:0:0:
104,76,25886,2,0,L|272:76,1,150.000000894069
88,76,28431,6,0,P|64:100|88:176,1,100.000000596046
156,136,28795,1,0,0:0:0:0:
220,200,28977,2,0,P|244:176|228:108,1,100.000000596046
184,40,29340,1,0,0:0:0:0:
276,40,29522,2,0,P|320:80|332:128,1,100.000000596046
328,208,29886,1,0,0:0:0:0:
264,272,30068,2,0,P|232:304|172:312,2,100.000000596046
448,344,30795,5,0,0:0:0:0:
448,344,30886,1,0,0:0:0:0:
448,344,30977,2,0,P|416:268|300:276,1,200.000001192092
344,352,31522,1,0,0:0:0:0:
400,280,31704,1,0,0:0:0:0:
312,268,31886,1,0,0:0:0:0:
256,336,32068,1,0,0:0:0:0:
256,336,32159,1,0,0:0:0:0:
256,336,32250,2,0,P|224:308|236:244,1,100.000000596046
292,188,32613,1,0,0:0:0:0:
316,100,32795,2,0,P|264:96|216:140,1,100.000000596046
180,200,33159,2,0,P|144:156|148:112,1,100.000000596046
332,48,33704,5,0,0:0:0:0:
332,48,33795,1,0,0:0:0:0:
332,48,33886,2,0,B|284:48|256:104|256:104|228:48|168:48,1,200.000001192092
176,140,34431,1,0,0:0:0:0:
256,180,34613,1,0,0:0:0:0:
336,140,34795,1,0,0:0:0:0:
404,84,34977,2,0,P|433:138|344:240,1,200.000001192092
284,260,35522,1,0,0:0:0:0:
196,252,35704,2,0,P|144:228|116:192,1,100.000000596046
196,152,36068,2,0,P|164:116|100:104,1,100.000000596046
44,348,36613,5,0,0:0:0:0:
44,348,36704,1,0,0:0:0:0:
44,348,36795,2,0,P|68:252|164:248,1,200.000001192092
128,328,37340,1,0,0:0:0:0:
156,244,37522,1,0,0:0:0:0:
236,288,37704,1,0,0:0:0:0:
208,372,37886,2,0,P|291:370|316:268,1,200.000001192092
256,196,38431,5,0,0:0:0:0:
264,112,38613,2,0,P|308:124|336:184,1,100.000000596046
392,240,38977,2,0,P|420:200|420:148,1,100.000000596046
368,76,39340,1,0,0:0:0:0:
284,40,39522,5,0,0:0:0:0:
284,40,39613,1,0,0:0:0:0:
284,40,39704,1,0,0:0:0:0:
284,40,39795,1,0,0:0:0:0:
284,40,39886,1,0,0:0:0:0:
192,36,40068,2,0,L|132:36,2,50.000000298023
148,116,40431,1,0,0:0:0:0:
128,116,40522,1,0,0:0:0:0:
108,116,40613,1,0,0:0:0:0:
60,192,40795,2,0,L|10:192,4,50.000000298023
164,340,41522,1,0,0:0:0:0:
348,340,41795,1,0,0:0:0:0:
164,340,42068,1,0,0:0:0:0:
256,120,42431,1,0,0:0:0:0:
396,64,42795,5,0,0:0:0:0:
396,64,42886,1,0,0:0:0:0:
396,64,42977,2,0,P|432:96|436:156,1,100.000000596046
348,144,43340,1,0,0:0:0:0:
440,144,43522,1,0,0:0:0:0:
392,220,43704,1,0,0:0:0:0:
480,244,43886,1,0,0:0:0:0:
480,244,43977,1,0,0:0:0:0:
480,244,44068,2,0,P|462:286|396:316,1,100.000000596046
336,276,44431,5,0,0:0:0:0:
300,248,44522,1,0,0:0:0:0:
272,212,44613,2,0,P|248:164|268:100,1,100.000000596046
328,64,44977,5,0,0:0:0:0:
292,40,45068,1,0,0:0:0:0:
248,40,45159,2,0,P|200:60|172:112,1,100.000000596046
64,88,45522,2,0,L|64:40,4,25.0000001490115
120,208,49886,6,0,L|244:128,1,125.000000745057
284,136,50250,2,0,L|408:236,1,150.000000894069
60,76,51704,5,0,0:0:0:0:
60,76,51795,1,0,0:0:0:0:
60,76,51886,2,0,L|152:156,1,100.000000596046
180,56,52250,1,0,0:0:0:0:
272,108,52431,1,0,0:0:0:0:
272,224,52613,2,0,L|204:300,1,100.000000596046
256,56,60340,6,0,B|256:140|256:140|312:196,1,150.000000894069
282,232,60704,6,0,L|232:232,1,50.000000298023
209,191,60886,6,0,L|239:151,1,50.000000298023
172,88,61159,5,0,0:0:0:0:
124,164,61340,1,0,0:0:0:0:
80,244,61522,1,0,0:0:0:0:
148,304,61704,6,0,L|180:328,4,25.0000001490115
180,272,61977,2,0,L|199:288,4,25.0000001490115
216,244,62250,2,0,L|252:264,4,25.0000001490115
252,216,62522,2,0,L|368:216,2,100.000000596046
256,124,63068,6,0,L|256:80,5,25.0000001490115
