osu file format v9

[General]
AudioFilename: sabamiso.mp3
AudioLeadIn: 0
PreviewTime: 65044
Countdown: 0
SampleSet: Soft
StackLeniency: 0.7
Mode: 0
LetterboxInBreaks: 0

[Editor]
Bookmarks: 72291,124882
DistanceSpacing: 1
BeatDivisor: 4
GridSize: 4

[Metadata]
Title:Sabamiso!
Artist:Hatsune Miku
Creator:val0108
Version:Easy!
Source:bibuko
Tags:Vocaloid 285

[Difficulty]
HPDrainRate:3
CircleSize:3
OverallDifficulty:2
ApproachRate:3
SliderMultiplier:0.7
SliderTickRate:1

[Events]
//Background and Video events
0,0,"sabamiso.jpg"
//Break Periods
2,24055,32793
2,86325,89874
//Storyboard Layer 0 (Background)
//Storyboard Layer 1 (Fail)
//Storyboard Layer 2 (Pass)
//Storyboard Layer 3 (Foreground)
//Storyboard Sound Samples
//Background Colour Transformations
3,100,163,162,255

[TimingPoints]
1801,324.324324324324,4,2,0,70,1,0
2773,-133.333333333333,4,2,0,70,0,0
10882,-100,4,2,1,70,0,0
11125,-100,4,1,2,70,0,0
11287,-100,4,2,1,70,0,0
13719,-100,4,2,2,70,0,0
13882,-100,4,2,1,70,0,0
14287,-100,4,2,2,70,0,0
14530,-100,4,2,1,70,0,0
16314,-100,4,2,2,70,0,0
16476,-100,4,2,1,70,0,0
16963,-100,4,2,2,70,0,0
17125,-100,4,2,1,70,0,0
34476,-100,4,2,2,70,0,0
34638,-100,4,2,1,70,0,0
35125,-100,4,2,2,70,0,0
35287,-100,4,2,1,70,0,0
37071,-100,4,2,2,70,0,0
37233,-100,4,2,1,70,0,0
37719,-100,4,2,2,70,0,0
37882,-100,4,2,1,70,0,0
39665,-100,4,2,2,70,0,0
39828,-100,4,2,1,70,0,0
39990,-100,4,1,2,70,0,0
40152,-100,4,2,1,70,0,0
40963,-100,4,2,2,70,0,0
41125,-100,4,2,1,70,0,0
41287,-100,4,1,2,70,0,0
41449,-100,4,2,1,70,0,0
45503,-100,4,2,2,70,0,0
45665,-100,4,2,1,70,0,0
47449,-100,4,2,2,70,0,0
47611,-100,4,2,1,70,0,0
48746,-100,4,2,2,70,0,0
48909,-100,4,2,1,70,0,0
55233,-100,4,2,2,70,0,0
55395,-100,4,2,1,70,0,0
55557,-100,4,1,2,70,0,0
55719,-100,4,2,1,70,0,0
57828,-100,4,2,2,70,0,0
57990,-100,4,2,1,70,0,0
58152,-100,4,1,2,70,0,0
58314,-100,4,2,1,70,0,0
59125,-100,4,2,2,70,0,0
59287,-100,4,2,1,70,0,0
59449,-100,4,1,2,70,0,0
59611,-100,4,2,1,70,0,0
62936,-100,4,2,2,70,0,0
63260,-100,4,2,1,70,0,0
65368,-100,4,2,1,70,0,1
65611,-100,4,2,2,70,0,1
65773,-100,4,2,1,70,0,1
66909,-100,4,2,2,70,0,1
67071,-100,4,2,1,70,0,1
68206,-100,4,2,2,70,0,1
68368,-100,4,2,1,70,0,1
69503,-100,4,2,2,70,0,1
69665,-100,4,2,1,70,0,1
75098,-100,4,2,1,70,0,0
75746,-100,4,2,1,70,0,1
75990,-100,4,2,2,70,0,1
76152,-100,4,2,1,70,0,1
77287,-100,4,2,2,70,0,1
77449,-100,4,2,1,70,0,1
78584,-100,4,2,2,70,0,1
78746,-100,4,2,1,70,0,1
79882,-100,4,2,2,70,0,1
80044,-100,4,2,1,70,0,1
84828,-100,4,2,1,70,0,0
91557,-100,4,2,2,70,0,0
91719,-100,4,2,1,70,0,0
92206,-100,4,2,2,70,0,0
92368,-100,4,2,1,70,0,0
94152,-100,4,2,2,70,0,0
94314,-100,4,2,1,70,0,0
94800,-100,4,2,2,70,0,0
94963,-100,4,2,1,70,0,0
96746,-100,4,2,2,70,0,0
96909,-100,4,2,1,70,0,0
97071,-100,4,1,2,70,0,0
97233,-100,4,2,1,70,0,0
98044,-100,4,2,2,70,0,0
98206,-100,4,2,1,70,0,0
98368,-100,4,1,2,70,0,0
98530,-100,4,2,1,70,0,0
101855,-100,4,2,2,70,0,0
102098,-100,4,2,1,70,0,0
102260,-100,4,1,2,70,0,0
102422,-100,4,2,1,70,0,0
104530,-100,4,2,2,70,0,0
104692,-100,4,2,1,70,0,0
105828,-100,4,2,2,70,0,0
105990,-100,4,2,1,70,0,0
112071,-100,4,2,1,70,0,1
112314,-100,4,2,2,70,0,1
112882,-100,4,2,1,70,0,1
114909,-100,4,2,2,70,0,1
115395,-100,4,2,1,70,0,1
116206,-100,4,2,2,70,0,1
116855,-100,4,2,1,70,0,1
120098,-100,4,2,2,70,0,1
120260,-100,4,2,1,70,0,1
121395,-100,4,2,2,70,0,1
121557,-100,4,2,1,70,0,1
121800,-100,4,2,1,70,0,0
122449,-100,4,2,1,70,0,1
122692,-100,4,2,2,70,0,1
122855,-100,4,2,1,70,0,1
123990,-100,4,2,2,70,0,1
124152,-100,4,2,1,70,0,1
125287,-100,4,2,2,70,0,1
125449,-100,4,2,1,70,0,1
126503,-100,4,2,2,70,0,1
126828,-100,4,2,1,70,0,1
131530,-100,4,2,1,70,0,0

[Colours]
Combo1 : 255,128,255
Combo2 : 0,255,255
Combo3 : 255,0,128
Combo4 : 255,128,0

[HitObjects]
256,68,3098,1,0
124,192,4395,1,2
256,316,5692,1,0
388,192,6989,1,2
256,72,8287,6,0,B|256:184,1,104.999996870756,2|0
216,276,9584,2,0,B|229:301|254:313|285:303|298:270,1,104.999996870756,2|0
180,192,10882,6,0,B|32:192,1,140,4|2
40,121,11855,1,2
109,121,12179,2,0,B|248:120,1,140,2|4
312,244,13476,6,0,B|349:279|398:279|441:241,2,140,4|8|8
171,244,15422,2,0,B|171:168,1,70,8|8
171,103,16071,2,0,B|208:67|257:67|300:105,2,140,12|8|8
30,103,18017,2,0,B|30:179,1,70,8|8
30,242,18665,5,4
140,328,19314,1,8
224,216,19963,1,6
112,132,20611,1,8
256,192,21260,12,4,23855
300,144,34233,6,0,B|348:175|348:227|304:263,2,140,4|2|0
256,11,36179,2,0,B|256:87,1,70,2|8
212,147,36828,2,0,B|164:178|164:230|208:266,2,140,4|2|2
120,40,38773,1,2
120,40,39098,1,8
120,40,39422,6,0,B|56:92|44:160|104:236,1,210,4|8
152,184,40719,2,0,B|216:132|284:144|336:208,1,210,2|8
372,268,42017,1,6
444,148,42665,1,2
324,76,43314,1,2
200,140,43963,2,0,B|204:188|232:216,2,70,2|8|4
104,36,45260,6,0,B|252:36,1,140,0|2
380,72,46557,2,0,B|380:144,1,70,2|8
336,196,47206,2,0,B|184:196,1,140,4|2
104,300,48503,2,0,B|256:300,1,140,4|2
380,268,49800,6,0,B|456:268,2,70,4|8|2
296,156,51098,2,0,B|220:156,2,70,2|8|2
344,24,52395,6,0,B|488:24,2,140,12|8|8
220,88,54341,2,0,B|152:56,1,70,6|8
92,84,54990,6,0,B|136:156|52:196|104:296,1,210,4|8
169,287,56287,1,2
224,160,56936,2,0,B|256:140|256:140|288:164,1,70,2|8
281,229,57584,2,0,B|302:295|359:307|413:299|435:224,1,210,4|8
432,164,58882,2,0,B|412:97|358:88|301:100|280:167,1,210,0|8
216,196,60179,5,4
88,256,60828,1,2
216,312,61476,1,2
356,312,62125,1,2
308,180,62773,6,0,B|400:56,1,140,8|8
412,208,64071,2,0,B|320:332,1,140,2|4
256,192,65368,6,0,B|256:52,1,140,4|8
256,192,66665,2,0,B|108:192,1,140,12|8
256,192,67963,2,0,B|256:332,1,140,4|8
256,192,69260,2,0,B|404:192,1,140,4|8
368,328,70557,6,0,B|448:328,2,70,4|8|8
244,260,71855,2,0,B|164:260,2,70,2|8|8
288,128,73152,2,0,B|432:128,1,140
508,244,74449,2,0,B|364:244,1,140
256,332,75746,6,0,B|256:192,1,140
116,192,77044,2,0,B|256:192,1,140,4|8
256,52,78341,2,0,B|256:192,1,140
396,192,79638,2,0,B|256:192,1,140,12|8
148,100,80936,5,2
256,12,81584,1,2
368,100,82233,1,4
256,188,82882,2,0,B|256:256,1,70,2|8
256,192,83530,12,4,86125
212,144,91314,6,0,B|164:175|164:227|208:263,2,140,4|2|0
256,11,93260,2,0,B|256:87,1,70,2|8
300,147,93909,2,0,B|348:178|348:230|304:266,2,140,4|2|2
392,40,95854,1,2
392,40,96179,1,8
392,40,96503,6,0,B|456:92|468:160|408:236,1,210,4|10
360,184,97800,2,0,B|295:132|227:144|175:208,1,210,0|8
204,272,99098,6,0,B|232:328|284:348|328:316,1,140
376,196,100395,2,0,B|348:140|296:120|252:152,1,140
364,48,101692,6,0,B|148:48,1,210,4|8
83,48,102990,1,2
192,136,103638,2,0,B|192:208,1,70,2|8
262,206,104287,2,0,B|414:206,1,140,4|2
468,328,105584,2,0,B|316:328,1,140,2|2
192,320,106881,6,0,B|116:320,2,70,4|8|2
192,179,108179,2,0,B|268:179,2,70,2|8|8
60,132,109476,2,0,B|132:80|216:64|296:64|368:80|472:132,1,420,0|4
498,260,112071,6,0,B|426:304|386:220|286:272,1,210,4|8
288,336,113368,1,12
257,199,114017,2,0,B|225:179|225:179|193:203,1,70,8|8
196,268,114665,2,0,B|174:334|117:346|63:338|41:263,1,210,8|8
48,200,115963,2,0,B|67:133|121:124|178:136|199:203,1,210,8|8
268,201,117260,5,4
268,60,117909,1,8
388,128,118557,1,2
268,201,119206,1,8
144,132,119855,6,0,B|56:120|28:48,1,140,12|8
48,196,121152,2,0,B|136:208|164:280,1,140,12|8
294,322,122449,6,0,B|260:289|292:229|256:189,1,140,4|8
385,154,123746,2,0,B|340:200|296:144|256:192,1,140,8|8
209,66,125044,2,0,B|196:128|264:120|256:192,1,140,8|8
128,228,126341,2,0,B|173:182|217:238|257:190,1,140,8|8
144,328,127638,6,0,B|64:328,2,70,4|8|8
284,328,128936,2,0,B|364:328,2,70,2|8|8
256,192,130233,12,4,132828
