osu file format v9

[General]
AudioFilename: SYMPHONIC DIVE (DIVA edit).mp3
AudioLeadIn: 1996
PreviewTime: 6809
Countdown: 0
SampleSet: Normal
StackLeniency: 0.7
Mode: 0
LetterboxInBreaks: 1

[Editor]
Bookmarks: 142274
DistanceSpacing: 0.8
BeatDivisor: 4
GridSize: 8

[Metadata]
Title:SYMPHONIC DIVE (DIVA edit)
Artist:Hatsune Miku
Creator:banvi
Version:Easy
Source:Re:nG
Tags:Vocaloid Vocaloid2 Project DIVA Arcade MakJang

[Difficulty]
HPDrainRate:2
CircleSize:3
OverallDifficulty:2
ApproachRate:2
SliderMultiplier:0.8
SliderTickRate:1

[Events]
//Background and Video events
0,0,"BG.jpg"
//Break Periods
2,33332,35830
2,104557,107443
//Storyboard Layer 0 (Background)
//Storyboard Layer 1 (Fail)
//Storyboard Layer 2 (Pass)
//Storyboard Layer 3 (Foreground)
//Storyboard Sound Samples
//Background Colour Transformations
3,100,163,162,255

[TimingPoints]
616,387.096774193548,4,1,0,40,1,0
5648,-100,4,1,1,40,0,0
6809,-100,4,1,0,50,0,0
27217,-100,4,2,0,50,0,0
27507,-100,4,2,0,65,0,0
27894,-100,4,2,0,80,0,0
28390,-100,4,2,0,60,0,0
33132,-100,4,1,0,10,0,0
36990,-100,4,1,0,30,0,0
60698,-100,4,1,0,40,0,0
77149,-100,4,1,1,40,0,0
78035,-100,4,1,0,50,0,0
98438,-100,4,2,0,50,0,0
98728,-100,4,2,0,65,0,0
99115,-100,4,2,0,80,0,0
99616,-100,4,2,0,60,0,0
104357,-100,4,1,0,10,0,0
108615,-100,4,1,0,50,0,0
124293,-100,4,2,0,60,0,0
130099,-100,4,2,0,40,0,0
130855,-100,4,2,0,60,0,0
132500,-100,4,2,0,40,0,0
133565,-100,4,2,0,60,0,0
136806,-100,4,2,0,50,0,0
147886,-100,4,1,0,60,0,0
149261,-100,4,1,0,50,0,1
166950,-100,4,2,0,70,0,1
167772,-100,4,1,0,50,0,1
169659,-100,4,2,0,50,0,1
170046,-100,4,2,0,65,0,1
170433,-100,4,2,0,80,0,1
170841,-100,4,2,0,60,0,1
175583,-100,4,1,0,90,0,0

[Colours]
Combo1 : 255,128,0
Combo2 : 0,255,0
Combo3 : 255,255,0
Combo4 : 0,0,255

[HitObjects]
56,120,616,2,0,B|104:64|168:56|224:88|248:168,1,240,4|0
272,216,2164,2,0,B|292:284|348:316|412:308|460:252,1,240
456,192,3712,6,0,B|456:32,2,160
456,320,6035,1,8
456,320,6422,1,8
392,320,6809,6,0,B|312:320|312:320|240:264,1,160,4|8
184,272,7970,1,0
120,272,8357,2,0,B|120:192|120:192|176:120,1,160,0|8
216,80,9519,1,0
256,32,9906,6,0,B|288:24|320:48|336:80|360:112|400:104,2,160,0|8|8
256,160,12228,1,8
256,224,12615,1,8
224,280,13003,6,0,B|176:344|64:320,1,160,4|8
48,200,14551,2,0,B|96:136|208:160,1,160,0|8
256,184,15712,1,8
320,184,16099,6,0,B|488:184,2,160,0|8|0
192,184,18422,1,8
128,184,18809,1,8
64,184,19196,6,0,B|16:248|16:248|72:328,1,160,4|8
104,360,20357,1,0
144,312,20745,2,0,B|189:246|189:246|141:182,1,160,0|8
96,136,21906,1,0
96,72,22293,5,0
216,32,23067,1,8
336,72,23841,1,0
456,32,24615,2,0,B|456:128,2,80,8|8|4
336,72,26164,6,0,B|264:16|184:48,1,160,8|0
136,80,27325,1,4
96,128,27712,1,4
80,192,28099,1,4
256,192,28486,12,4,30035
256,192,30809,5,2
256,192,31196,1,2
256,192,31583,12,0,33132
96,264,37390,5,0
96,264,37777,2,0,B|160:328|256:296,1,160,4|0
360,352,39325,2,0,B|392:256|304:200,1,160
256,192,40486,1,0
193,174,40874,6,0,B|120:128|152:32,1,160
268,84,42422,2,0,B|352:56|416:120,1,160
456,168,43583,1,0
448,232,43970,6,0,B|448:328|344:352,2,160
448,104,46293,1,0
448,104,46680,1,0
384,104,47067,6,0,B|296:104,2,80
344,224,48615,2,0,B|424:224,2,80
280,224,49777,1,0
256,288,50164,6,0,B|232:328|176:336,1,80,4|8
128,328,50938,2,0,B|80:312|64:264,1,80,0|8
48,216,51712,2,0,B|24:144|72:88,2,120,0|0|8
80,272,53261,6,0,B|120:296|168:280,1,80,0|8
216,272,54035,2,0,B|256:248|304:264,1,80,0|8
360,264,54809,2,0,B|432:248|448:168,2,120,0|0|8
304,240,56357,6,0,B|256:160|160:160,2,160,0|8|8
320,304,58293,2,0,B|416:304,2,80,0|8|0
256,304,59454,6,0,B|176:304|176:304|144:336|144:336|104:304|104:304|32:304,1,240,8|8
24,240,61003,1,0
40,176,61390,1,8
72,120,61777,1,0
128,88,62164,1,8
192,72,62551,6,0,B|232:48|280:64,1,80,4|8
328,80,63325,2,0,B|360:104|360:160,1,80,0|8
368,216,64099,2,0,B|464:216,2,80,0|8|0
320,264,65261,1,8
272,312,65648,6,0,B|248:352|192:344,1,80,0|8
144,328,66422,2,0,B|104:304|104:256,1,80,0|8
88,200,67196,2,0,B|48:112|128:48,1,160,0|8
184,40,68357,1,8
248,48,68745,6,0,B|344:48,2,80,4|8|0
216,104,69906,1,8
184,160,70293,2,0,B|104:160,2,80,0|8|0
216,216,71454,1,8
256,264,71841,6,0,B|304:328|304:328|384:336,1,160,4|8
448,336,73003,1,0
448,272,73390,2,0,B|400:208|400:208|320:200,1,160,4|8
256,192,74551,1,0
192,192,74938,5,4
256,80,75712,1,4
384,80,76486,2,0,B|376:48|352:24,2,60,4|0|0
384,80,77648,1,8
432,120,78035,6,0,B|472:144|472:192,2,80,4|8|0
400,176,79196,1,8
336,176,79583,2,0,B|328:216|272:232,2,80,0|8|0
272,160,80745,1,8
224,120,81132,6,0,B|192:88|192:88|152:88|152:88|120:56|120:56|80:56,2,160,0|8|8
192,240,83454,1,8
256,256,83841,1,8
320,240,84228,6,0,B|480:240,2,160,4|8|0
256,240,86164,1,8
200,264,86551,1,0
144,240,86938,1,8
80,240,87325,6,0,B|16:168|48:88,1,160,0|8
160,144,88874,2,0,B|200:128|240:152,1,80,0|8
296,168,89648,2,0,B|336:192|384:168,1,80,0|8
432,160,90422,6,0,B|496:232,2,80,4|8|0
384,112,91583,1,8
320,112,91970,2,0,B|320:16,2,80,0|8|0
256,112,93132,1,8
192,112,93519,5,0
88,192,94293,1,8
168,296,95067,1,0
296,296,95841,2,0,B|384:296,2,80,8|8|4
256,176,97390,6,0,B|256:80,2,80,8|0|0
256,240,98551,1,4
256,304,98938,1,4
256,304,99325,1,4
256,192,99712,12,4,101261
256,192,102035,5,2
256,192,102422,1,2
256,192,102809,12,0,104357
456,144,109003,6,0,B|440:114|401:107|366:116|326:120|306:85,1,160,4|0
256,56,110164,1,8
192,48,110551,2,0,B|144:40|112:64,1,80,0|8
104,128,111325,2,0,B|64:144|40:192,1,80,0|8
80,232,112099,6,0,B|128:240|160:352|200:336,1,160,0|0
256,352,113261,1,8
312,320,113648,2,0,B|352:336|400:328,2,80,0|8|0
280,264,114809,1,8
248,208,115196,6,0,B|224:168|136:192|96:144,1,160,4|0
80,88,116357,1,8
120,40,116745,2,0,B|160:24|200:32,1,80,0|8
264,40,117519,2,0,B|312:40|344:80,1,80,0|8
360,128,118293,5,4
376,192,118680,1,8
376,256,119067,2,0,B|384:304|352:336,1,80,0|8
296,352,119841,1,4
232,360,120228,1,8
168,344,120615,2,0,B|128:336|96:296,1,80,0|8
64,248,121390,5,4
48,184,121777,1,8
56,120,122164,1,4
88,64,122551,1,8
144,40,122938,2,0,B|192:16|272:32|312:80|304:160,1,240
256,192,124486,5,4
192,296,125261,1,2
192,296,125648,1,0
192,296,126035,1,2
320,296,126809,1,2
320,296,127196,1,0
320,296,127583,6,0,B|360:224|360:224|304:152,1,160,2|2
208,232,129132,2,0,B|160:160|160:160|200:80,1,160,2|2
224,40,130293,1,0
288,40,130680,1,0
416,40,131454,6,0,B|496:96|440:192,1,160,2|2
400,224,132615,2,0,B|424:312,2,80,4|4|4
344,192,133777,5,2
256,288,134551,1,2
168,192,135325,1,2
256,96,136099,1,8
256,96,136486,1,8
256,96,136874,6,0,B|336:96|336:96|384:160,1,160,4|8
416,216,138035,1,0
352,232,138422,2,0,B|272:232|272:232|224:168,1,160,0|8
192,112,139583,1,0
128,112,139970,6,0,B|48:112,2,80,0|8|0
192,112,141132,1,8
256,112,141519,2,0,B|312:112|312:112|336:144|336:144|400:144,1,160,0|8
464,144,142680,1,8
464,144,143067,1,4
464,272,143841,6,0,B|424:344|320:320,1,160
264,304,145003,1,8
208,272,145390,1,8
184,216,145777,1,8
256,192,146164,12,4,147712
256,192,148099,6,0,B|256:272,2,80,0|0|0
256,128,149261,6,0,B|232:88|184:88,1,80,4|8
128,80,150035,1,0
72,104,150422,1,8
32,152,150809,2,0,B|8:192|24:240,1,80,0|8
40,288,151583,1,0
88,328,151970,1,8
152,336,152357,6,0,B|240:368|312:312,1,160,0|8
360,280,153519,1,0
384,224,153906,2,0,B|416:176|384:136,1,80,0|8
368,88,154680,1,0
320,48,155067,1,8
256,40,155454,6,0,B|208:40|208:40|176:96|176:96|120:96,1,160,4|0
64,96,156615,2,0,B|64:176,1,80,8|0
64,240,157390,1,8
120,272,157777,1,0
176,240,158164,1,8
240,240,158551,6,0,B|272:232|304:256|320:288|344:320|384:312,2,160
176,240,160486,1,8
128,200,160874,1,0
104,144,161261,1,8
104,80,161648,6,0,B|112:32|160:24,1,80,4|8
168,88,162422,1,0
224,120,162809,1,8
248,176,163196,2,0,B|296:160|296:112,1,80,0|8
320,56,163970,1,0
320,56,164357,1,8
384,40,164745,6,0,B|432:32|464:72,1,80,0|8
408,104,165519,2,0,B|448:128|440:176,1,80,0|8
376,160,166293,2,0,B|384:208|336:232,1,80,0|8
304,176,167067,2,4,B|280:216|232:208,2,80
216,80,168615,6,0,B|184:56|136:56|96:80|88:128,1,160,8|0
80,192,169777,1,4
96,256,170164,1,4
144,304,170551,1,4
256,192,170938,12,4,172486
256,192,173261,5,2
256,192,173648,1,2
256,192,174035,12,4,175583
