osu file format v9

[General]
AudioFilename: Romeo and Cinderella C.mp3
AudioLeadIn: 500
PreviewTime: 69975
Countdown: 0
SampleSet: Soft
StackLeniency: 0.7
Mode: 0
LetterboxInBreaks: 1

[Editor]
Bookmarks: 23477,45713,69007,96536,121683,156536,185213,197213,220771
DistanceSpacing: 0.9
BeatDivisor: 4
GridSize: 8

[Metadata]
Title:Romeo and Cinderella
Artist:Hatsune Miku
Creator:Nekoo[]
Version:Easy
Source:VOCALOID
Tags:samiljul Glass doriko kiru

[Difficulty]
HPDrainRate:2
CircleSize:3
OverallDifficulty:3
ApproachRate:3
SliderMultiplier:1
SliderTickRate:2

[Events]
//Background and Video events
0,0,"RaC.jpg"
//Break Periods
2,14050,23881
2,99991,109998
2,186109,196116
//Storyboard Layer 0 (Background)
//Storyboard Layer 1 (Fail)
//Storyboard Layer 2 (Pass)
//Storyboard Layer 3 (Foreground)
//Storyboard Sound Samples
//Background Colour Transformations
3,100,163,162,255

[TimingPoints]
2390,352.941176470588,4,2,1,80,1,0
10684,-100,4,2,1,20,0,0
12448,-100,4,2,1,80,0,0
13674,352.941176470588,4,2,1,70,1,0
71556,-100,4,2,1,80,0,1
96968,-100,4,2,1,70,0,0
157673,-100,4,2,1,80,0,1
183085,-100,4,2,1,70,0,0
225438,-100,4,2,1,80,0,1
247938,-100,4,2,1,80,0,0
248026,-100,4,2,1,80,0,1
262144,-100,4,2,1,70,0,0

[Colours]
Combo1 : 21,46,142
Combo2 : 214,155,126
Combo3 : 118,37,116

[HitObjects]
112,192,1684,2,0,B|128:216|184:216|200:192,1,100,2|2
272,136,2390,2,0,B|336:96|400:96|464:136,2,200,0|2|0
256,296,4507,5,2
184,344,4860,1,0
176,256,5213,2,0,B|48:232|48:88|176:56,1,300,2|0
265,56,6625,6,0,B|364:56,2,100,2|0|2
265,146,7684,1,0
328,209,8037,6,0,B|339:305|240:345|184:305,1,200,2|0
240,232,9095,1,2
176,168,9448,2,0,B|176:64,2,100,2|0|2
112,232,10507,1,2
256,192,10860,12,0,12272
256,168,13674,6,0,B|256:216,1,50,2|2
112,264,25321,5,8
168,328,25673,1,0
256,352,26026,1,8
344,328,26379,2,0,B|464:272|464:112|344:48,1,350
256,152,28144,5,8
168,128,28497,1,0
128,48,28850,1,8
48,88,29203,2,0,B|-40:224|64:336|192:304,1,350
320,256,30968,6,0,B|408:200,2,100,8|0|8
192,128,32379,2,0,B|104:184,2,100,8|0|8
256,192,33438,12,0,36085
424,112,36968,6,0,B|424:216,1,100,0|8
424,302,37674,2,0,B|312:384|128:342|112:238,1,350
116,120,39438,6,0,B|100:144|36:144|20:120,2,100,8|0|8
179,56,40497,2,0,B|307:8|435:56|467:176,1,350
392,288,42262,5,8
328,224,42615,1,0
137,33,43674,1,8
200,96,44026,1,0
263,159,44379,1,8
256,192,44732,12,8,46497
128,256,47556,6,0,B|176:344|336:344|384:256,1,300,4|8
382,167,48968,2,0,B|334:79|174:79|126:167,1,300,4|8
190,228,50379,2,0,B|230:268|286:268|326:228,1,150,4|0
448,288,51438,5,8
384,351,51791,2,0,B|232:351,1,150,4|0
56,176,53203,6,0,B|72:64|216:24|288:120,1,300,4|8
304,200,54615,2,0,B|288:312|144:352|72:256,1,300,4|8
256,192,56026,12,8,57791
112,280,58850,6,0,B|240:360|296:224|400:280,1,300,4|8
398,188,60262,2,0,B|334:124|198:124|118:188,1,300,4|8
80,104,61674,2,0,B|128:96|176:72|208:32,1,150,4|0
343,32,62732,5,8
406,95,63085,2,0,B|462:135|387:204|427:236,1,150,4|0
224,344,64497,6,0,B|128:360|48:296|64:200,1,250,4|0
168,120,65909,5,4
231,183,66262,2,0,B|263:279|391:279|415:183,1,250,8|0
256,192,67497,12,0,70144
256,112,71556,5,6
336,72,71909,1,10
424,104,72262,1,0
472,184,72615,2,0,B|512:288|432:360|336:336,1,250,10|0
256,240,74026,5,8
192,304,74379,2,0,B|88:272|88:104|192:72,1,300,6|8
256,136,75791,2,0,B|336:168|448:144|488:80,1,250,6|4
464,216,77203,6,0,B|496:264|488:328|432:356,1,150,6|0
308,349,78262,1,8
244,285,78615,2,0,B|188:229|156:309|92:269,1,150,6|2
7,179,79674,5,8
70,115,80026,2,0,B|126:171|158:91|222:131,1,150,6|2
346,125,81085,5,8
432,128,81438,2,0,B|432:176|392:224|320:216,1,150,4|2
72,264,82850,6,0,B|40:160|96:56|224:40,1,300,6|8
288,88,84262,2,0,B|288:144|336:184|392:184,1,150,6|0
384,318,85321,5,8
296,344,85674,2,0,B|168:384|64:344|24:240,1,300,6|8
64,176,87085,2,0,B|192:136|296:176|336:280,1,300,6|8
400,312,88497,6,0,B|482:185,1,150,6|0
384,88,89556,1,8
304,48,89909,2,0,B|145:48,1,150,6|2
40,240,91321,6,0,B|32:296|88:336|144:328,1,150,6|2
184,200,92379,1,8
272,208,92732,2,0,B|280:152|232:104|176:112,1,150,6|2
104,320,94144,6,0,B|8:264|8:128|104:72,1,300,6|8
193,72,95556,2,0,B|296:72,3,100,4|8|0|8
256,192,96968,12,4,99791
296,56,111438,5,2
360,120,111791,1,2
448,96,112144,1,0
488,176,112497,2,0,B|472:344|256:384|168:320,1,400,2|0
88,320,114262,6,0,B|8:256,2,100,2|2|0
136,240,115321,2,0,B|152:72|368:32|456:96,1,400,2|0
480,168,117085,5,8
416,231,117438,1,0
145,231,118497,1,8
208,167,118850,1,0
271,230,119203,1,8
256,192,119556,12,0,122203
88,328,123085,5,0
24,264,123438,1,8
112,240,123791,2,0,B|168:168|264:168|336:312|440:312|480:248,1,400
408,192,125556,5,8
456,112,125909,1,0
456,112,126262,1,8
368,112,126615,2,0,B|304:8|184:0|64:64|64:176,1,400
128,228,128379,6,0,B|208:292,2,100,8|0|8
308,228,129791,2,0,B|228:164,2,100,8|0|8
256,192,130850,12,8,132615
384,144,133674,6,0,B|408:248|296:336|184:304,1,300,4|8
128,240,135085,2,0,B|104:136|216:48|328:80,1,300,4|8
296,168,136497,1,4
48,56,137556,5,8
48,56,137909,2,0,B|88:112|8:144|48:200,1,150,4|0
232,336,139321,6,0,B|288:256|176:128|272:32,1,300,4|8
349,46,140732,2,0,B|445:141|325:269|385:348,1,300,4|8
256,192,142144,12,8,143909
40,200,144968,6,0,B|128:200|128:200|128:136|208:88|280:136|280:168,1,300,4|8
216,232,146379,2,0,B|215:262|287:310|367:262|367:198|367:198|463:198,1,300,4|8
456,107,147791,2,0,B|456:51|352:51|352:107,1,150,4|0
216,107,148850,5,8
208,200,149203,2,0,B|152:200|112:144|120:88,1,150,4|0
160,320,150615,6,0,B|72:328|0:248|24:136,1,250,4|0
152,192,152026,5,4
152,192,152379,2,0,B|288:208|208:64|360:56,1,250,8|0
256,192,153615,12,0,156262
256,296,157674,5,6
168,320,158026,1,10
192,232,158379,1,0
192,232,158732,2,0,B|176:144|240:72|352:96,1,250,10|0
472,152,160144,5,8
424,232,160497,2,0,B|392:336|224:336|192:232,1,300,6|8
272,192,161909,2,0,B|256:96|184:40|80:56,1,250,6|4
32,176,163321,6,0,B|8:232|40:288|96:296,1,150,6|0
222,294,164379,6,0,B|398:294|398:294|454:246,1,250,8|0
454,110,165791,2,0,B|397:61|397:61|221:61,1,250,8|0
112,136,167203,2,0,B|40:136|40:136|16:184|16:184|40:232|40:232|112:232,1,250,8|2
304,344,168968,6,0,B|448:264|192:144|360:24,1,350,6|2
384,120,170556,2,0,B|488:120,1,100,0|2
504,237,171438,5,8
413,237,171791,2,0,B|421:341|301:413|189:341,1,300,6|8
152,264,173203,2,0,B|144:160|264:88|376:160,1,300,6|8
458,155,174615,6,0,B|504:208|408:248|472:304,1,150,6|0
344,360,175674,2,0,B|256:272|184:408|112:344,1,250,8|2
48,224,177085,5,8
48,224,177438,2,0,B|105:213|137:165|129:101,1,150,6|2
265,114,178497,1,8
352,112,178850,2,0,B|360:168|312:208|256:208,1,150,6|2
40,152,180262,6,0,B|-8:264|80:368|208:352,1,300,6|8
168,264,181674,2,0,B|96:256|120:184,3,100,4|8|0|8
256,192,183085,12,4,185909
72,216,197556,6,0,B|96:296|192:296|216:216,1,200,2|0
280,152,198615,2,0,B|285:35|413:35|424:152,1,250,2|0
368,272,200026,6,0,B|336:352|240:376|152:344,1,250,2|0
112,216,201438,2,0,B|144:136|240:112|328:144,1,250,2|0
128,40,203203,6,0,B|120:96|80:128|24:136,1,150,2|0
80,256,204262,2,0,B|120:344|296:344|336:256,1,300,2|0
334,169,205674,2,0,B|296:81|118:81|78:169,1,300,2|0
144,224,207085,5,2
208,288,207438,2,0,B|232:344|288:360|344:352,1,150,0|2
464,160,208850,6,0,B|408:168|352:144|336:80,1,150,0|0
206,96,209909,2,0,B|126:24|14:72|14:160,1,250,2|0
48,280,211321,6,0,B|128:352|240:304|240:216,1,250,2|0
280,96,212732,2,0,B|320:176|456:176|488:96,1,250,2|0
486,324,214497,6,0,B|430:324|382:292|366:228,1,150,0|0
288,136,215556,2,0,B|224:48|88:48|32:136,1,300,2|0
31,226,216968,2,0,B|95:314|231:314|287:226,1,300,2|0
350,289,218379,5,2
413,225,218732,2,0,B|461:177|365:145|421:81,1,150,0|2
280,64,219791,6,0,B|200:144,1,100,8|8
145,70,220497,2,0,B|65:150,1,100,8|8
138,204,221203,2,0,B|58:284,1,100,8|8
131,338,221909,2,0,B|235:338,1,100,8|8
256,192,222615,12,12,224026
256,272,225438,6,0,B|216:320|144:336|72:312,1,200,6|0
112,232,226497,2,0,B|48:160|80:56|192:56,1,250,10|0
322,56,227909,5,8
400,104,228262,2,0,B|280:216|448:288|296:376,1,300,6|8
280,280,229674,2,0,B|32:280,1,250,6|4
30,144,231085,6,0,B|86:168|142:136|150:80,1,150,6|0
280,48,232144,5,8
256,136,232497,2,0,B|328:144|368:96|368:40,1,150,6|0
256,136,233556,5,8
168,112,233909,2,0,B|160:184|208:224|264:224,1,150,6|0
376,264,234968,6,0,B|344:352|248:376|168:344,1,250,8|2
56,152,236732,6,0,B|80:264|208:296|304:232,1,300,6|8
240,168,238144,2,0,B|184:176|120:128|136:64,1,150,6|0
256,32,239203,5,8
344,48,239556,2,0,B|472:72|504:200|448:296,1,300,6|8
376,248,240968,2,0,B|384:352|288:392|200:344,1,250,6|4
80,304,242379,6,0,B|126:251|30:211|94:155,1,150,6|0
179,69,243438,2,0,B|267:-19|339:117|411:53,1,250,8|2
410,188,244850,5,8
336,240,245203,2,0,B|208:328,1,150,6|2
80,312,246262,1,8
152,256,246615,2,0,B|280:168,1,150,6|2
256,48,248026,5,6
344,48,248379,1,10
416,96,248732,1,0
456,176,249085,2,0,B|472:288|400:344|288:320,1,250,10|0
256,200,250497,5,8
208,280,250850,2,0,B|112:320|-8:208|56:104,1,300,6|8
144,88,252262,2,0,B|224:120|336:96|376:32,1,250,6|4
472,128,253674,6,0,B|504:176|496:240|440:268,1,150,6|0
320,248,254732,1,8
232,216,255085,2,0,B|80:160,1,150,6|2
24,48,256144,5,8
112,80,256497,2,0,B|264:136,1,150,6|2
368,56,257556,5,8
368,56,257909,2,0,B|368:216,1,150,4|2
208,368,259321,6,8,B|96:232|312:216|200:88,1,300,6|0
144,160,260732,2,0,B|40:160,3,100,4|8|0|8
256,192,262144,12,4,264968
