osu file format v9

[General]
AudioFilename: Romeo and Cinderella.mp3
AudioLeadIn: 0
PreviewTime: 224743
Countdown: 0
SampleSet: Soft
StackLeniency: 0.6
Mode: 0
LetterboxInBreaks: 1

[Editor]
DistanceSpacing: 1
BeatDivisor: 4
GridSize: 8

[Metadata]
Title:Romeo and Cinderella
Artist:Hatsune Miku
Creator:EnPassant
Version:Insane
Source:
Tags:

[Difficulty]
HPDrainRate:7
CircleSize:4
OverallDifficulty:6
ApproachRate:8
SliderMultiplier:1.6
SliderTickRate:1

[Events]
//Background and Video events
Video,705,"Romeo and Cinderella PV04.wmv"
0,0,"R&C base3.jpg"
//Break Periods
2,98222,110507
2,186104,196801
//Storyboard Layer 0 (Background)
//Storyboard Layer 1 (Fail)
//Storyboard Layer 2 (Pass)
//Storyboard Layer 3 (Foreground)
//Storyboard Sound Samples
//Background Colour Transformations
3,100,0,0,0

[TimingPoints]
2375.36350992382,352.941176470588,4,2,0,100,1,0
71566,-100,4,2,0,100,0,1
98390,-100,4,2,0,100,0,0
157331,-100,4,2,0,100,0,1
185743,-100,4,2,0,100,0,0
185919,-100,4,2,0,100,0,1
186096,-100,4,2,0,100,0,0
225096,-100,4,2,0,100,0,1
247860,-100,4,2,0,100,0,0
248037,-100,4,2,0,100,0,1
259155,-100,4,2,0,100,0,0

[Colours]
Combo1 : 95,239,152
Combo2 : 250,33,108
Combo3 : 151,0,0

[HitObjects]
112,128,23551,2,0,B|256:3|400:128,1,320,0|4
384,312,24522,1,4
128,312,24787,1,4
256,128,25140,5,0
192,176,25316,1,2
216,248,25493,1,0
296,248,25669,1,2
320,176,25845,1,2
400,200,26022,2,0,B|368:288,1,80,0|2
328,344,26375,6,0,B|304:376|256:372|208:376|184:344,1,160,2|0
139,275,26904,2,0,B|112:200,1,80,2|0
160,136,27257,1,2
256,80,27434,1,2
352,136,27610,1,6
256,264,27963,5,0
184,224,28140,2,0,B|256:192,1,80,2|0
328,152,28493,2,2,B|256:120,1,80
184,88,28845,1,0
256,48,29022,1,2
328,80,29198,6,2,B|400:112|400:112|400:192,1,160
400,272,29728,2,2,B|400:352|400:352|320:376,1,160
272,272,30257,1,0
224,168,30434,1,2
176,64,30610,5,4
112,112,30786,1,0
136,184,30963,1,2
216,184,31139,1,2
240,112,31316,2,2,B|256:88|312:72|368:112|368:144,2,160
216,184,32198,5,0
136,184,32375,1,2
112,112,32551,1,0
176,64,32728,2,2,B|344:64,1,160
320,224,33434,6,0,B|312:256|256:288|200:256|192:224,1,160,0|2
256,176,33963,1,0
320,128,34140,2,0,B|312:96|256:64|200:96|192:128,1,160,2|0
256,176,34669,1,4
256,176,35022,5,0
256,272,35198,1,2
152,208,35374,1,0
192,96,35551,1,2
320,96,35727,1,0
360,208,35904,1,2
256,272,36081,1,0
256,176,36257,5,4
256,176,36434,1,0
184,136,36610,1,2
184,136,36787,1,0
112,152,36963,1,2
112,152,37140,1,0
64,216,37316,1,2
64,216,37493,1,0
80,296,37669,6,2,B|107:371|216:328,1,160
296,328,38198,2,2,B|406:372|433:297,1,160
360,216,38728,1,2
256,192,38904,1,2
152,216,39081,6,0,B|120:184|120:144,1,80
256,192,39434,2,2,B|256:112,1,80
360,216,39787,2,0,B|392:184|392:144,1,80
368,72,40140,1,0
256,48,40316,1,2
152,72,40493,6,2,B|56:104|40:184,1,160
41,254,41022,2,2,B|55:327|150:359,1,160
256,288,41551,1,2
152,216,41728,1,2
256,144,41904,5,4
320,192,42081,1,0
296,272,42257,1,2
216,272,42434,1,2
192,192,42610,2,2,B|120:128|48:192,2,160
216,272,43493,5,0
296,272,43669,1,2
320,192,43845,1,2
255,152,44022,2,2,B|165:116|189:23,2,160
256,152,45257,1,2
256,192,45434,12,8,46493
128,168,46845,5,0
176,96,47022,1,8
256,56,47198,1,0
336,96,47375,1,8
384,168,47551,2,0,B|328:208|328:312,1,160,4|0
184,312,48081,2,0,B|184:208|128:168,1,160,4|0
88,232,48610,5,8
104,312,48787,1,0
184,312,48963,2,0,B|272:312|288:208,1,160,8|0
224,176,49493,2,0,B|240:72|336:72,1,160,4|0
408,72,50022,1,8
424,152,50198,1,0
408,232,50375,6,0,B|400:320|304:336,1,160,8|0
208,336,50904,2,0,B|112:320|104:232,1,160,4|0
136,160,51434,1,0
192,96,51610,1,8
256,48,51787,1,2
320,96,51964,1,2
296,168,52140,1,8
216,168,52317,1,4
184,328,52669,6,0,B|256:376|336:328,1,160
392,272,53198,1,8
416,192,53375,1,0
392,112,53551,1,8
336,56,53728,2,2,B|256:8|184:56,1,160,2|2
128,112,54257,1,8
104,192,54434,1,2
128,272,54610,1,8
184,328,54787,6,2,B|256:376|336:328,2,160,2|10|2
128,272,55669,1,8
128,192,55845,1,0
192,136,56022,1,8
344,192,56375,1,2
256,192,56551,12,8,57787
256,104,58140,5,2
168,192,58316,1,8
256,280,58493,1,2
344,192,58669,1,2
344,192,58845,6,0,B|360:168|416:152|472:168|488:192,1,160,4|0
488,288,59375,2,2,B|472:312|416:328|360:312|344:288,1,160,2|10
280,240,59904,1,8
232,176,60081,1,0
168,128,60257,2,0,B|152:104|96:88|40:104|24:128,1,160,4|0
24,224,60787,2,0,B|40:248|96:264|152:248|168:224,1,160,0|8
232,176,61316,5,8
280,112,61493,1,0
344,64,61669,2,0,B|360:40|416:24|472:40|488:64,1,160,4|0
488,160,62198,2,0,B|472:184|416:200|360:184|344:160,1,160,0|8
280,112,62728,1,8
208,152,62904,5,2
224,232,63081,1,2
248,312,63257,1,8
176,352,63434,1,2
112,304,63610,1,4
112,144,63963,6,0,B|120:96|160:80,2,80,8|0|8
112,224,64493,1,0
184,248,64669,2,0,B|256:184|328:248,2,160,0|8|0
256,104,65728,6,0,B|256:176,2,40
296,256,66257,1,0
216,256,66434,1,8
128,120,66787,1,8
256,24,67140,1,4
384,120,67493,5,0
384,120,67581,1,0
384,120,67669,1,0
360,200,67845,1,0
296,248,68022,1,0
216,248,68198,1,0
152,200,68375,1,0
128,120,68551,1,0
256,24,68904,1,4
256,192,69081,12,4,70140
256,48,71375,1,2
256,48,71551,2,2,B|256:104|296:144|360:144,1,160
432,104,72081,1,2
496,152,72257,1,2
496,232,72434,1,2
432,272,72610,1,2
360,239,72787,6,0,B|296:240|256:280|256:336,1,160,4|0
255,336,73316,1,0
255,336,73493,2,0,B|256:280|216:240|152:240,1,160,4|0
72,216,74022,2,2,B|48:192|128:144,1,80
184,120,74375,2,2,B|256:72|336:120,1,160
400,168,74904,1,2
120,168,75257,5,2
176,232,75434,1,2
256,256,75610,1,2
336,232,75787,2,2,B|288:160|200:160,1,160
240,88,76316,2,2,B|327:87|375:159,2,160
160,104,77198,1,4
384,240,77551,1,0
384,240,77728,1,0
160,368,78081,6,2,B|128:336,2,40
272,304,78434,1,0
160,240,78610,1,2
272,176,78787,1,0
160,112,78963,1,2
272,48,79140,1,4
392,152,79493,5,2
456,200,79669,1,2
432,272,79845,1,2
352,272,80022,1,2
328,200,80198,2,2,B|256:136|184:200,1,160
152,272,80728,5,0
72,272,80904,1,0
60,236,80993,1,2
48,200,81081,1,2
112,152,81257,1,0
256,48,81434,1,4
256,336,81787,5,2
256,336,81963,1,4
464,192,82316,1,4
304,192,82669,1,0
224,192,82845,1,4
144,192,83022,2,2,B|96:184|88:136,1,80,2|0
88,64,83375,6,2,B|104:24|152:16,1,80,2|0
224,16,83728,1,2
304,16,83904,1,0
368,64,84081,1,0
344,136,84257,1,0
264,136,84434,1,2
232,208,84610,1,0
288,264,84787,1,2
152,344,85140,5,0
96,280,85316,2,2,B|152:224,1,80
208,168,85669,2,0,B|152:112|152:112|96:168,1,160
96,256,86198,2,0,B|152:312|152:312|208:256,1,160
152,184,86728,1,2
96,128,86904,1,2
128,56,87081,6,0,B|192:8|280:40,1,160,4|0
352,72,87610,1,4
96,192,87963,1,2
352,312,88316,1,2
352,312,88493,2,0,B|440:248|352:184,1,160,4|0
304,248,89022,1,0
144,248,89375,6,2,B|88:248,2,40
192,184,89728,1,0
272,208,89904,1,2
272,288,90081,1,0
192,312,90257,1,2
144,248,90434,1,4
248,128,90787,5,0
312,80,90963,1,2
384,112,91140,1,0
392,192,91316,1,2
320,160,91493,2,2,B|256:208|256:208|328:240,1,160
168,304,92198,5,2
128,320,92287,1,2
88,336,92375,1,2
88,192,92551,1,2
88,192,92728,1,4
424,192,93081,5,8
424,192,93257,1,4
256,48,93610,1,4
256,336,93963,2,0,B|248:328|248:328|264:328|264:328|248:320|248:320|264:320|264:320|248:312|248:312|264:312|264:312|248:304|248:304|264:304|264:304|248:296|248:296|264:296|264:296|248:288|248:288|264:288|264:288|248:280|248:280|264:280|264:280|248:272|248:272,1,240
200,216,94669,6,2,B|176:192|152:144|176:96|200:72,1,160
256,144,95198,1,2
256,144,95375,1,2
312,216,95551,2,2,B|336:192|360:144|336:96|312:72,1,160
440,168,96257,2,2,B|416:192|392:240|416:288|440:312,1,160
256,192,96963,12,4,98022
128,32,111257,5,0
200,72,111433,1,0
200,152,111610,1,0
128,192,111786,1,0
56,232,111963,1,0
56,312,112139,1,0
128,352,112316,1,0
168,336,112404,1,0
200,312,112493,6,0,B|208:264|288:232|328:272,1,160
280,336,113022,2,0,B|320:376|400:344|408:296,1,160
400,216,113551,1,0
336,160,113728,1,0
256,136,113904,1,4
184,160,114081,5,0
120,208,114257,1,0
144,288,114434,1,0
224,288,114610,1,0
248,208,114787,1,0
184,160,114963,1,0
120,208,115140,1,0
80,200,115228,1,0
48,176,115316,2,2,B|48:80|152:80,1,160
232,80,115845,2,2,B|336:80|336:176,1,160
256,160,116375,5,2
128,160,116551,1,8
192,264,116728,1,4
320,328,117081,5,0
400,304,117257,1,0
344,248,117434,2,2,B|320:224|320:160|368:120|392:120,2,160
400,304,118316,1,0
472,272,118493,1,2
480,192,118669,1,0
472,112,118845,2,2,B|448:56|416:40|368:40|344:64,1,160
256,192,119551,6,2,B|256:272,2,80
208,128,120081,1,0
166,62,120257,2,2,B|144:40|96:40|64:56|40:112,2,160
240,88,121140,5,0
351,125,121316,1,2
314,245,121493,1,0
202,208,121669,1,2
91,171,121845,1,0
54,292,122022,1,2
165,329,122198,1,0
304,352,122551,5,0
376,312,122728,1,2
376,232,122904,1,2
304,192,123081,1,0
304,112,123257,1,0
376,72,123434,1,2
448,112,123610,5,0
448,192,123787,2,2,B|304:272,1,160
232,232,124316,2,2,B|376:152,1,160
448,272,124845,2,0,B|360:320,1,80
304,352,125198,1,0
240,312,125375,5,2
176,352,125551,1,2
120,296,125728,1,2
152,224,125904,1,0
232,232,126081,1,0
264,160,126257,5,2
200,112,126434,1,2
136,152,126610,2,2,B|80:184|16:120|64:64,1,160
120,24,127140,2,2,B|200:-8|280:24,1,160
384,24,127669,1,0
448,112,127845,1,2
432,216,128022,5,4
408,296,128198,1,0
328,296,128375,1,0
304,216,128551,1,0
368,168,128728,1,0
256,56,129081,1,0
144,168,129434,5,0
80,216,129610,1,0
104,296,129787,1,0
184,296,129963,1,0
208,216,130140,2,0,B|208:168|256:139|304:168|304:216,1,160
256,192,130845,12,8,132610
440,152,132963,5,0
456,232,133140,1,0
416,304,133316,1,0
336,328,133493,1,0
256,328,133669,2,0,B|200:304|200:224|256:200,1,160,4|0
330,191,134198,2,0,B|384:168|384:88|328:64,1,160,4|0
256,32,134728,5,8
184,56,134904,1,0
128,112,135081,2,0,B|104:208|200:232,1,160,8|0
240,160,135610,2,0,B|336:184|320:280,1,160,4|0
272,352,136140,1,8
192,376,136316,1,0
112,352,136493,6,0,B|64:320|64:248|112:216,1,160,8|0
160,280,137022,2,0,B|208:248|208:176|160:144,1,160,4|0
80,128,137551,1,8
160,64,137728,1,0
256,32,137904,1,8
352,64,138081,1,0
432,128,138257,1,0
351,144,138434,2,0,B|304:176|304:248|352:280,1,160,4|8
416,240,138963,5,0
480,288,139140,1,8
448,360,139316,1,0
368,360,139493,1,8
320,296,139669,1,0
320,296,139845,2,0,B|304:256|256:246|208:256|192:296,1,160
144,360,140375,5,8
64,360,140551,1,0
32,288,140728,1,8
64,216,140904,2,0,B|80:168|160:152|200:184,1,160,0|8
256,336,141610,5,0
336,312,141787,1,8
400,256,141963,1,0
400,176,142140,2,0,B|400:80|296:80,1,160,8|0
213,80,142669,2,0,B|112:80|112:176,1,160,8|4
256,248,143375,1,0
256,32,143728,1,0
176,120,143904,1,0
336,120,144081,1,0
256,192,144257,5,8
192,144,144434,1,0
216,72,144610,1,8
296,72,144787,1,0
320,144,144963,2,0,B|344:240|256:272,1,160,4|0
255,271,145493,2,0,B|168:240|192:144,1,160,4|0
216,72,146022,5,8
296,72,146198,1,8
320,144,146375,2,0,B|368:224|456:200,1,160,4|0
432,128,146904,2,0,B|384:48|296:72,1,160,8|0
216,72,147434,1,8
192,144,147610,1,8
256,192,147787,6,0,B|312:192|352:264|320:312,1,160,4|0
248,352,148316,2,0,B|192:352|152:280|184:232,1,160,8|0
256,272,148845,1,8
256,272,149022,1,8
328,312,149198,1,0
384,256,149375,1,8
344,184,149551,1,0
264,192,149728,1,4
104,208,150081,6,2,B|40:240|56:312|128:312,1,160
200,288,150610,1,2
256,232,150787,2,2,B|288:136|184:112,2,160,2|10|2
392,144,151845,1,2
392,144,151934,1,2
392,144,152022,2,2,B|432:176|392:272|336:264,1,160,10|2
264,240,152551,2,0,B|240:216|264:152|280:168|296:184|320:120|296:96,2,160,8|0|4
200,96,153610,5,2
168,120,153698,1,2
136,144,153787,1,2
136,224,153963,1,8
208,264,154140,1,2
280,224,154316,1,2
280,144,154493,1,8
208,184,154669,1,2
472,184,155022,1,2
472,184,155198,1,4
256,192,155375,12,4,156257
264,72,157140,21,0
248,104,157228,1,0
240,144,157316,1,0
248,184,157404,1,0
264,216,157493,1,0
328,264,157669,1,4
392,216,157845,1,2
368,136,158022,1,2
288,136,158198,1,2
264,56,158375,5,2
328,8,158551,1,2
392,56,158728,1,2
368,136,158904,2,2,B|176:136,1,160
160,200,159434,1,2
208,264,159610,2,2,B|368:264,1,160
416,200,160140,1,2
368,136,160316,1,2
416,72,160493,6,6,B|344:36|288:88|296:136,1,160,6|2
288,216,161022,2,0,B|224:216|184:168|200:104,2,160
272,136,161904,2,2,B|344:100|400:152|392:200,1,160,6|2
376,272,162434,2,2,B|328:312|272:312|224:296,1,160,2|4
160,152,163140,5,2
160,152,163316,2,2,B|168:184|208:216|256:208|296:176,1,160
232,128,163845,1,4
288,280,164198,1,2
248,288,164287,1,2
208,288,164375,1,2
128,272,164551,5,8
64,224,164728,1,2
88,152,164904,1,2
168,152,165081,1,8
184,224,165257,1,4
208,64,165610,5,2
288,64,165787,1,2
368,80,165963,1,2
440,120,166140,1,2
424,200,166316,1,2
344,208,166493,1,2
312,136,166669,2,2,B|256:136|224:208|264:256,1,160
263,255,167198,5,2
136,192,167375,1,2
136,192,167551,1,4
256,64,167904,1,2
256,64,168081,1,4
472,192,168434,1,4
256,368,168787,1,4
184,344,168963,6,2,B|144:320|160:272,1,80
184,200,169316,2,2,B|192:152|136:144,1,80
88,208,169669,2,2,B|48:184|56:136,1,80
112,88,170022,1,2
192,72,170198,6,2,B|288:48|328:128,1,160
344,208,170728,1,2
328,288,170904,2,2,B|288:366|192:342,1,160,6|2
176,264,171434,1,2
176,152,171610,1,2
272,208,171787,6,2,B|312:232|368:208|392:160|376:120,1,160,4|2
336,72,172316,2,2,B|296:48|240:72|216:120|232:160,1,160
312,144,172845,1,2
392,152,173022,1,2
456,200,173198,2,2,B|472:288|384:328,1,160
312,352,173728,2,0,B|231:390|169:315,1,160,4|0
320,256,174434,5,0
240,248,174610,2,2,B|256:192|304:160|352:176|368:200,1,160
320,256,175140,1,4
256,112,175493,1,2
256,112,175581,1,2
256,112,175669,1,2
160,88,175845,5,4
256,24,176022,1,8
352,88,176198,1,2
312,192,176375,1,2
200,192,176551,1,4
336,288,176904,2,2,B|256:328|176:288,1,160
256,232,177434,1,2
336,176,177610,2,2,B|256:136|176:176,1,160
312,336,178316,5,0
200,336,178493,1,0
336,248,178669,1,2
176,248,178845,1,4
312,160,179198,1,2
200,160,179375,1,4
256,8,179728,1,4
200,160,180081,1,0
312,160,180257,1,4
392,304,180610,5,0
408,224,180787,2,2,B|448:192|432:104|376:96,1,160
296,112,181316,1,0
352,168,181493,1,0
256,192,181669,12,0,183787
256,192,184140,5,0
256,192,184228,1,0
256,192,184316,1,0
256,192,184404,1,0
256,192,184493,2,2,B|224:136|152:136,1,120
224,40,185022,2,0,B|257:82|288:40,1,80
355,136,185463,2,2,B|288:136|256:192,1,120
256,272,185904,1,4
256,192,197551,21,0
256,192,197728,2,0,B|311:207|367:127|327:79,2,160
256,192,198610,2,0,B|200:176|144:256|184:304,1,160
248,344,199140,2,0,B|303:359|359:279|319:231,2,160
255,268,200022,5,0
176,128,200375,1,0
176,128,200551,2,0,B|208:104|304:104|336:128,1,160
255,268,201257,1,0
256,184,201434,2,0,B|184:216|136:176|128:112,1,160
256,184,201963,2,0,B|328:216|376:176|384:112,1,160
40,344,203198,5,0
120,344,203375,2,0,B|175:359|231:279|191:231,2,160
120,264,204257,2,0,B|65:279|9:199|49:151,1,160
120,184,204787,2,0,B|175:199|231:119|191:71,1,160
196,78,205316,1,0
256,136,205493,1,0
315,78,205669,6,0,B|281:119|337:199|392:184,1,160
468,158,206199,2,0,B|503:199|447:279|392:264,1,160
256,344,206904,1,0
160,248,207081,1,4
352,248,207434,1,0
256,160,207610,1,4
256,344,207963,1,4
88,104,208845,5,0
128,176,209022,2,2,B|183:191|239:111|199:63,2,160
56,216,209904,2,0,B|40:272|120:328|168:288,1,160,8|0
240,296,210434,2,0,B|256:240|176:184|128:224,2,160,4|0|4
160,288,211316,5,2
320,288,211669,1,2
400,272,211845,2,0,B|440:240|408:144|344:152,1,160,8|0
328,224,212375,1,0
272,168,212551,1,8
248,248,212728,2,0,B|176:280|128:240|120:176,1,160
168,128,213257,2,2,B|96:96|48:136|40:200,1,160,2|6
472,40,214492,5,0
392,40,214669,2,2,B|337:25|281:105|321:153,2,160
392,120,215551,2,2,B|447:105|503:185|463:233,1,160
392,200,216081,2,2,B|337:185|281:265|321:313,1,160
316,306,216610,1,0
256,248,216787,1,8
197,306,216963,22,0,B|231:265|175:185|120:200,1,160,4|0
44,226,217493,2,2,B|9:185|65:105|120:120,1,160
256,40,218198,1,0
352,136,218375,1,4
160,136,218728,1,0
256,224,218904,1,4
256,40,219257,21,4
256,229,219610,1,0
256,350,219787,1,4
50,192,220140,1,4
256,33,220493,1,4
461,192,220845,1,4
50,350,221198,21,4
50,33,221551,1,4
461,33,221904,1,4
461,350,222257,1,4
256,192,222610,21,4
256,61,222787,1,0
134,145,222963,1,0
181,285,223140,1,0
330,285,223316,1,0
377,145,223493,1,0
256,192,223669,1,0
256,126,223757,1,0
256,61,223845,1,0
256,61,224022,1,4
256,192,225081,6,0,B|196:268|256:336,2,160,0|4|0
328,152,225963,1,0
408,168,226140,1,0
440,240,226316,1,0
400,312,226493,1,0
320,344,226669,2,0,B|304:384|256:400|208:384|192:344,1,160,4|0
120,312,227198,1,0
72,248,227375,2,0,B|56:144|152:128,1,160,4|0
152,208,227904,5,4
200,272,228081,1,0
232,200,228257,2,0,B|272:120|368:152,1,160,4|0
448,176,228787,2,0,B|408:256|312:224,1,160
368,152,229316,1,4
408,88,229493,1,0
328,80,229669,2,4,B|272:136|288:200|312:224,1,160
368,320,230198,5,4
144,328,230551,1,4
256,136,230904,1,0
328,168,231081,6,0,B|304:216|240:232|192:184,1,160,4|0
184,104,231610,2,0,B|216:40|304:48|328:104,1,160
256,136,232140,1,4
192,184,232316,1,0
216,256,232493,1,4
296,256,232669,1,2
320,184,232845,1,2
256,136,233022,5,4
96,136,233375,1,2
416,136,233728,1,2
440,208,233904,1,2
400,272,234081,1,2
328,128,234434,2,2,B|256:64|184:128,1,160,2|10
146,132,234875,5,8
104,136,234963,1,8
80,208,235140,1,0
120,272,235316,1,4
400,272,235669,1,0
256,272,235845,1,4
336,136,236198,1,4
176,136,236551,1,4
176,56,236728,6,0,B|256:32|336:56,1,160,8|0
400,96,237257,1,2
400,176,237434,1,2
328,216,237610,1,0
256,168,237787,1,2
184,216,237963,1,0
112,176,238140,1,2
112,96,238316,1,2
184,56,238493,1,0
184,136,238669,2,4,B|256:72|328:136,1,160
328,56,239198,5,0
400,96,239375,1,0
440,160,239551,2,0,B|448:256|344:272,1,160,4|0
360,192,240081,2,0,B|280:192|248:280|296:320,1,160,4|0
344,344,240610,1,2
424,360,240787,1,2
496,320,240963,1,4
344,280,241316,5,0
344,280,241493,1,4
472,184,241845,1,4
344,88,242198,1,0
344,168,242375,2,0,B|296:248|208:240,1,160
136,216,242904,1,4
184,64,243258,5,0
184,64,243345,1,0
184,64,243434,1,0
112,88,243611,1,0
112,168,243787,1,2
184,192,243964,1,8
232,128,244140,1,2
304,160,244316,2,0,B|336:200|312:280|256:288,1,160,4|0
176,288,244845,5,8
96,280,245022,1,8
40,224,245198,1,2
40,144,245375,2,2,B|48:88|120:64|168:96,2,160
40,224,246257,1,0
96,280,246434,1,0
176,288,246610,5,4
440,280,246963,1,0
440,192,247140,1,4
176,192,247493,1,4
312,368,247845,1,4
312,368,248022,6,2,B|344:328|312:296,1,80
272,232,248375,2,2,B|240:200|272:160,1,80
304,88,248728,2,2,B|336:56|304:16,1,80
232,48,249081,1,8
160,80,249257,2,0,B|104:112|104:176|160:208,1,160,4|0
240,184,249787,1,2
320,168,249963,2,0,B|376:200|376:264|320:296,1,160,4|0
240,280,250492,5,2
176,232,250669,1,2
152,160,250845,2,0,B|184:64|288:96,1,160,4|0
240,168,251375,2,0,B|332:196|364:100,1,160,4|0
424,48,251904,1,8
496,88,252081,1,2
480,168,252257,1,4
344,280,252610,5,2
344,280,252787,1,4
216,184,253139,1,4
344,88,253492,1,2
424,104,253669,2,0,B|376:184|288:176,1,160
264,104,254198,1,4
344,240,254552,5,0
344,192,254640,1,0
344,144,254728,1,8
248,200,254905,1,2
280,312,255081,1,8
408,312,255258,1,8
440,200,255434,1,2
344,240,255610,2,0,B|349:290|285:344|234:321,1,160,4|0
152,320,256139,5,2
88,272,256316,1,8
120,200,256492,1,8
200,200,256669,2,2,B|255:209|300:148|285:93,2,160
160,128,257551,1,0
216,64,257728,1,0
286,95,257904,5,4
288,344,258257,1,0
288,344,258434,1,4
448,208,258787,1,4
152,208,259140,1,4
184,280,259316,6,0,B|256:248|256:144,1,160
112,80,259845,2,0,B|40:112|40:216,1,160,4|0
120,304,260375,1,0
256,352,260551,1,0
392,304,260728,2,0,B|464:248|464:168,1,160,4|0
408,96,261257,1,0
328,56,261434,2,0,B|256:112|256:192,1,160,4|0
256,335,262140,6,4,B|320:277|377:206|392:149|356:106|291:106|256:152|256:152|220:106|162:106|127:141|134:206|191:277|256:335,1,640
344,272,263816,1,0
296,160,264081,2,0,B|256:144|216:160,1,80,0|4
168,272,264522,1,0
256,352,264787,2,0,B|256:272,1,80,0|4
