osu file format v9

[General]
AudioFilename: Romeo and Cinderella.mp3
AudioLeadIn: 0
PreviewTime: 224743
Countdown: 0
SampleSet: Soft
StackLeniency: 0.6
Mode: 0
LetterboxInBreaks: 1

[Editor]
DistanceSpacing: 1
BeatDivisor: 2
GridSize: 8

[Metadata]
Title:Romeo and Cinderella
Artist:Hatsune Miku
Creator:EnPassant
Version:Easy+
Source:
Tags:Doriko

[Difficulty]
HPDrainRate:4
CircleSize:3
OverallDifficulty:2
ApproachRate:3
SliderMultiplier:1
SliderTickRate:1

[Events]
//Background and Video events
Video,705,"Romeo and Cinderella PV04.wmv"
0,0,"R&C base3.jpg"
//Break Periods
2,94707,109832
//Storyboard Layer 0 (Background)
//Storyboard Layer 1 (Fail)
//Storyboard Layer 2 (Pass)
//Storyboard Layer 3 (Foreground)
//Storyboard Sound Samples
//Background Colour Transformations
3,100,0,0,0

[TimingPoints]
2390.36350992382,352.941176470588,4,2,0,100,1,0
71566,-100,4,2,0,100,0,1
98390,-100,4,2,0,100,0,0
157331,-100,4,2,0,100,0,1
185743,-100,4,2,0,100,0,0
185919,-100,4,2,0,100,0,1
186096,-100,4,2,0,100,0,0
225096,-100,4,2,0,100,0,1
247860,-100,4,2,0,100,0,0
248037,-100,4,2,0,100,0,1
259155,-100,4,2,0,100,0,0

[Colours]
Combo1 : 95,239,152
Combo2 : 250,33,108
Combo3 : 151,0,0

[HitObjects]
104,80,25155,1,0
152,80,25331,2,0,B|176:80|208:144|192:160,1,100
120,232,26037,1,0
184,312,26390,6,0,B|216:296|256:288|296:296|328:312,1,150
392,232,27272,1,0
320,160,27626,2,0,B|304:144|336:80|360:80,1,100
408,80,28154,5,0
456,168,28508,2,0,B|480:216,2,50
368,216,29213,1,0
256,312,29743,1,0
144,216,30272,1,0
56,168,30625,6,0,B|32:216,2,50
184,96,31508,2,0,B|256:56|328:96,1,150
256,168,32390,2,0,B|256:224,2,50
312,256,33096,1,0
200,256,33449,1,0
256,120,33978,1,0
256,120,34155,2,0,B|352:112|376:192,1,150
384,288,35037,5,0
384,288,35213,2,0,B|362:337|310:349,1,100
288,256,35919,1,0
408,88,36449,1,0
408,136,36625,2,0,B|408:160|344:192|328:176,1,100
256,104,37331,1,0
256,200,37684,6,0,B|216:216|224:248|256:256|288:264|296:296|256:312,1,150
160,336,38566,1,0
112,312,38743,2,0,B|95:295|127:231|112:216,1,100
56,136,39448,5,0
16,232,39802,2,0,B|16:288,2,50
112,216,40507,1,0
256,264,41037,1,0
400,216,41566,1,0
496,232,41919,6,0,B|496:296,2,50
440,88,42802,2,0,B|368:48|296:88,1,150
208,128,43684,2,0,B|160:80,2,50
168,224,44390,1,0
184,320,44743,1,0
328,320,45272,1,0
328,320,45449,2,0,B|360:224|304:128,1,200
112,192,46860,5,0
160,280,47213,1,0
256,320,47566,2,0,B|312:312|352:280,2,100
256,216,48625,1,0
256,216,48978,2,0,B|232:168|256:120,2,100
344,168,50037,5,0
344,168,50390,2,0,B|368:120|344:72,2,100
304,264,51449,1,0
208,264,51802,1,0
168,168,52155,2,0,B|144:120|168:72,2,100
192,256,53213,6,0,B|259:174,1,100
320,256,53919,2,0,B|252:176,1,100
256,80,54625,2,0,B|240:56|184:56|168:80,2,100
344,80,55683,1,0
344,80,56037,2,0,B|328:56|272:56|256:80,1,100
256,192,56566,12,0,57802
352,104,58508,1,0
256,64,58861,2,0,B|200:72|160:104,2,100
256,168,59920,1,0
256,168,60273,2,0,B|280:216|256:264,2,100
168,216,61332,5,0
168,216,61685,2,0,B|144:264|168:312,2,100
208,120,62744,1,0
304,120,63097,1,0
344,216,63449,2,0,B|368:264|344:312,2,100
320,128,64508,5,0
320,128,64684,2,0,B|253:210,1,100
192,128,65390,2,0,B|260:208,1,100
256,256,65919,1,0
160,256,66271,1,0
160,304,66448,2,0,B|176:320|240:320|256:304,2,100
256,192,67331,12,0,70155
256,192,71213,6,0,B|232:176|184:176|160:192,2,100
232,288,72272,1,0
336,288,72625,1,0
336,288,72802,2,0,B|360:240|336:192,3,100
304,152,74037,1,0
208,152,74390,2,0,B|160:176|112:152,1,100
111,151,74919,2,0,B|136:200|112:248,1,100
216,360,75802,2,0,B|240:312|216:264,1,100
215,263,76331,2,0,B|263:287|311:263,1,100
256,120,77213,6,0,B|208:144|192:192,1,100
288,216,77919,1,0
328,304,78272,2,0,B|376:280|392:232,2,100
288,216,79331,1,0
328,120,79684,2,0,B|376:144|392:200,1,100
288,216,80390,1,0
248,312,80743,2,0,B|200:288|184:232,1,100
288,216,81449,5,0
232,120,81802,1,0
232,120,81978,1,0
344,120,82331,1,0
256,192,82860,6,0,B|280:208|328:208|352:192,1,100
280,96,83566,1,0
176,96,83919,1,0
176,96,84096,2,0,B|152:144|176:192,3,100
208,232,85331,1,0
304,232,85684,2,0,B|352:208|400:232,1,100
401,233,86213,2,0,B|376:184|400:136,1,100
216,24,87096,2,0,B|240:72|216:120,1,100
215,121,87625,2,0,B|263:97|311:121,1,100
256,264,88507,6,0,B|304:240|320:192,1,100
224,168,89213,1,0
184,80,89566,2,0,B|136:104|120:152,2,100
224,168,90625,1,0
184,264,90978,2,0,B|136:240|120:184,1,100
224,168,91684,1,0
264,72,92037,2,0,B|312:96|328:152,1,100
224,168,92743,5,0
280,264,93096,1,0
280,264,93272,1,0
168,264,93625,1,0
224,168,93978,2,0,B|264:96|184:96|224:24,1,150
256,192,111272,5,0
256,192,111448,2,0,B|256:248|208:272,1,100
152,192,112154,2,0,B|152:136|200:112,1,100
312,112,112860,2,0,B|360:136|360:192,1,100
304,272,113566,2,0,B|256:248|256:192,1,100
312,112,114272,5,0
408,112,114625,1,0
464,192,114978,1,0
400,264,115331,2,0,B|352:288|304:264,1,100
303,263,115860,2,0,B|256:240|208:264,1,100
207,264,116390,2,0,B|160:288|112:264,1,100
