osu file format v9

[General]
AudioFilename: .mp3
AudioLeadIn: 0
PreviewTime: 56804
Countdown: 1
SampleSet: Normal
StackLeniency: 0.7
Mode: 0
LetterboxInBreaks: 1

[Editor]
Bookmarks: 30232,40946,77911
DistanceSpacing: 1
BeatDivisor: 2
GridSize: 16

[Metadata]
Title:Rhyme Light Girl
Artist:Hatsune Miku
Creator:K o h a k u
Version:Normal
Source:vocalod
Tags:kusoinaka-p

[Difficulty]
HPDrainRate:3
CircleSize:3
OverallDifficulty:3
ApproachRate:3
SliderMultiplier:1
SliderTickRate:1

[Events]
//Background and Video events
0,0,"pididi.jpg"
//Break Periods
2,12176,20921
2,77781,86855
//Storyboard Layer 0 (Background)
//Storyboard Layer 1 (Fail)
//Storyboard Layer 2 (Pass)
//Storyboard Layer 3 (Foreground)
//Storyboard Sound Samples
//Background Colour Transformations
3,100,163,162,255

[TimingPoints]
9010,329.67032967033,4,1,0,52,1,0
57141,-100,4,1,0,52,0,1
77581,-100,4,1,0,52,0,0
175823,-100,4,1,0,52,0,1
186207,-100,4,1,0,52,0,0
186372,-100,4,1,0,52,0,1
196262,-100,4,1,0,52,0,0

[Colours]
Combo1 : 128,255,0
Combo2 : 128,255,0
Combo3 : 255,0,255
Combo4 : 0,255,0
Combo5 : 255,0,255

[HitObjects]
256,192,9010,12,0,10988
256,192,11317,5,0
256,256,11647,2,0,B|336:256|336:256,2,50
256,192,22361,6,0,B|256:256|256:256,2,50
256,48,23185,1,0
160,48,23515,1,0
160,144,23845,1,0
160,240,24174,2,0,B|32:240|32:240,2,100
304,304,25328,5,0
304,144,25823,1,0
400,144,26152,2,0,B|400:32,1,100
304,48,26812,2,0,B|192:48|192:48,2,100
256,128,28130,5,0
96,240,28789,1,0
288,240,29448,1,0
256,48,30108,1,0
112,48,30603,6,0,B|64:48|64:48,2,50
112,144,31262,2,0,B|32:144|32:144,2,50
112,240,31922,2,0,B|48:240|48:240,4,50
256,240,33075,21,0
256,144,33405,1,0
256,48,33735,2,0,B|368:48,1,100
416,128,34394,2,0,B|416:240,1,100
368,320,35053,2,0,B|256:320,1,100
144,240,36042,6,0,B|64:144,1,100
128,80,36702,1,0
224,80,37031,1,0
320,80,37361,2,0,B|320:192,1,100
320,288,38020,2,0,B|192:288,1,100
112,192,39010,5,0
256,48,39669,1,0
400,192,40328,1,0
256,320,40988,1,0
160,304,41317,6,0,B|96:304|96:304,2,50
160,208,41977,2,0,B|96:208|96:208,2,50
160,160,42471,6,0,B|96:160|96:160,4,50,0|0|0|0|0
288,96,43625,5,0
288,192,43955,2,0,B|288:304,1,100
384,288,44614,1,0
384,192,44944,1,0
384,192,45108,2,0,B|384:144|384:128,5,50
400,240,46262,6,0,B|256:240,1,100
192,240,46922,1,0
48,240,47251,1,0
48,240,47581,1,0
48,240,47911,2,0,B|48:192|48:176,4,50
48,96,48900,5,0
144,96,49229,1,0
240,96,49559,2,0,B|240:-16|240:-16,2,100
336,96,50548,2,0,B|336:-16|336:-16,2,100
336,240,51867,5,0
192,240,52526,1,0
192,240,53185,1,0
192,144,53515,2,0,B|64:144,1,100
96,48,54174,2,0,B|208:48,1,100
304,48,54834,2,0,B|304:96,1,50
304,192,55328,1,0
224,128,55658,2,0,B|224:64|224:64,4,50
112,64,56812,22,0,B|80:144|112:208,1,100
272,272,57801,1,0
352,208,58130,2,0,B|352:144,1,50
352,64,58625,1,0
160,64,59284,6,0,B|160:192,1,100
160,320,60108,2,0,B|240:320,1,50
304,320,60603,1,0
304,224,60933,2,0,B|304:160|304:160,4,50
304,80,62086,6,0,B|176:80,1,100
96,80,62746,2,0,B|96:208,1,100
96,180,63240,1,0
96,180,63570,1,0
208,272,64064,1,0
304,272,64394,1,0
400,272,64724,1,0
400,176,65053,6,0,B|400:112,1,50
320,64,65548,2,0,B|320:128,1,50
272,128,65878,2,0,B|272:224|272:208,4,50
128,128,67031,6,0,B|128:240,1,100
128,336,67691,2,0,B|0:336|16:320,2,100
208,272,68680,1,0
208,272,68845,2,0,B|320:272,1,100
480,176,69834,5,0
400,96,70163,2,0,B|352:128|256:144,1,150
258,143,70823,1,0
258,143,71152,1,0
176,80,71482,2,0,B|176:16|176:16,4,50
80,192,72636,6,0,B|144:256|176:272,1,100
256,288,73295,1,0
304,272,73460,2,0,B|352:240|384:208,1,100
416,112,74119,1,0
256,192,74944,12,0,77581
256,192,88295,6,0,B|256:128|256:128,2,50
256,336,89119,1,0
160,336,89449,1,0
160,240,89779,1,0
160,144,90108,2,0,B|32:144|32:144,2,100
288,64,91262,5,0
304,240,91757,1,0
400,240,92086,2,0,B|400:352,1,100
304,336,92746,2,0,B|192:336|192:336,2,100
256,256,94064,5,0
96,144,94723,1,0
288,144,95382,1,0
256,336,96042,1,0
112,336,96537,6,0,B|64:336|64:336,2,50
112,240,97196,2,0,B|32:240|32:240,2,50
112,144,97856,2,0,B|48:144|48:144,4,50
256,144,99009,21,0
256,240,99339,1,0
256,336,99669,2,0,B|368:336,1,100
416,256,100328,2,0,B|416:144,1,100
368,64,100987,2,0,B|256:64,1,100
144,144,101976,6,0,B|64:240,1,100
128,304,102636,1,0
224,304,102965,1,0
320,304,103295,2,0,B|320:192,1,100
320,96,103954,2,0,B|192:96,1,100
112,192,104944,5,0
256,336,105603,1,0
400,192,106262,1,0
256,64,106922,1,0
160,80,107251,6,0,B|96:80|96:80,2,50
160,176,107911,2,0,B|96:176|96:176,2,50
160,224,108405,2,0,B|96:224|96:224,4,50,0|0|0|0|0
288,288,109559,5,0
288,192,109889,2,0,B|288:80,1,100
384,96,110548,1,0
384,192,110878,1,0
384,192,111042,2,0,B|384:240|384:256,5,50
400,144,112196,6,0,B|256:144,1,100
192,144,112856,1,0
48,144,113185,1,0
48,144,113515,1,0
48,144,113845,2,0,B|48:192|48:208,4,50
48,288,114834,5,0
144,288,115163,1,0
240,288,115493,2,0,B|240:400|240:400,2,100
336,288,116482,2,0,B|336:400|336:400,2,100
336,192,117471,1,0
336,96,117801,1,0
240,96,118130,2,0,B|160:96,1,50
96,96,118625,1,0
256,192,118955,12,0,120108
