osu file format v9

[General]
AudioFilename: .mp3
AudioLeadIn: 0
PreviewTime: 56804
Countdown: 3
SampleSet: Normal
StackLeniency: 0.7
Mode: 0
LetterboxInBreaks: 1

[Editor]
DistanceSpacing: 1
BeatDivisor: 4
GridSize: 4

[Metadata]
Title:Rhyme Light Girl
Artist:Hatsune Miku
Creator:K o h a k u
Version:Insane
Source:vocaloid
Tags:Kusoinaka-p

[Difficulty]
HPDrainRate:7
CircleSize:4
OverallDifficulty:8
ApproachRate:9
SliderMultiplier:1.5
SliderTickRate:1

[Events]
//Background and Video events
0,0,"pididi.jpg"
//Break Periods
2,77781,87695
2,152286,157091
2,164648,172585
//Storyboard Layer 0 (Background)
//Storyboard Layer 1 (Fail)
//Storyboard Layer 2 (Pass)
//Storyboard Layer 3 (Foreground)
//Storyboard Sound Samples
//Background Colour Transformations
3,100,163,162,255

[TimingPoints]
9010,329.67032967033,4,1,0,52,1,0
20466,-100,4,1,0,61,0,0
20630,-100,4,1,0,71,0,0
20795,-100,4,1,0,80,0,0
20960,-100,4,1,0,91,0,0
21619,-50,4,1,0,51,0,0
22691,-100,4,1,0,51,0,0
22938,-100,4,1,0,49,0,0
32499,-100,4,1,0,81,0,0
32663,-100,4,1,0,51,0,0
32746,-100,4,1,0,80,0,0
32993,-100,4,1,0,51,0,0
43130,-100,4,1,0,49,0,0
43625,-100,4,1,0,51,0,0
48488,-100,4,1,0,79,0,0
48652,-100,4,1,0,49,0,0
51125,-100,4,1,0,82,0,0
51290,-100,4,1,0,51,0,0
54092,-100,4,1,0,65,0,0
54422,-100,4,1,0,80,0,0
54751,-100,4,1,0,91,0,0
55081,-100,4,1,0,78,0,0
56812,-100,4,1,0,52,0,1
66125,-100,4,1,0,78,0,1
66455,-100,4,1,0,51,0,1
67031,-100,4,1,0,36,0,0
67608,-100,4,1,0,52,0,1
73707,-100,4,1,0,73,0,1
74531,-100,4,1,0,100,0,1
74696,-100,4,1,0,52,0,1
77404,-100,4,1,0,0,0,1
77404,-100,4,1,0,0,0,0
77980,-100,4,1,0,100,0,0
78310,-100,4,1,0,52,0,0
88213,-100,4,1,0,82,0,0
88625,-100,4,1,0,52,0,0
98020,-100,4,1,0,69,0,0
98268,-100,4,1,0,82,0,0
98433,-100,4,1,0,56,0,0
98597,-100,4,1,0,53,0,0
108817,-100,4,1,0,69,0,0
108982,-100,4,1,0,82,0,0
109147,-100,4,1,0,91,0,0
109312,-100,4,1,0,100,0,0
109477,-100,4,1,0,53,0,0
111702,-100,4,1,0,79,0,0
112031,-100,4,1,0,52,0,0
114422,-100,4,1,0,79,0,0
114586,-100,4,1,0,53,0,0
118872,-100,4,1,0,62,0,0
119037,-100,4,1,0,53,0,0
123652,-100,4,1,0,70,0,0
124147,-100,4,1,0,81,0,0
124806,-100,4,1,0,91,0,0
128927,-100,4,1,0,100,0,0
129079,-100,4,1,0,52,0,0
129079,-100,4,1,0,100,0,0
140713,-200,4,1,0,52,0,0
141207,-200,4,1,0,52,0,0
142596,-200,4,1,0,77,0,0
142761,-200,4,1,0,51,0,0
159669,-100,4,1,0,31,0,0
162718,-100,4,1,0,59,0,0
164449,-100,4,1,0,50,0,0
175823,-100,4,1,0,50,0,1
186207,-100,4,1,0,69,0,0
186372,-100,4,1,0,69,0,1
196427,-100,4,1,0,69,0,0

[Colours]
Combo1 : 0,128,192
Combo2 : 128,255,0
Combo3 : 255,0,255

[HitObjects]
256,192,9010,12,4,10988
256,188,11317,5,0
112,320,11647,1,0
112,320,11729,1,0
112,320,11812,1,0
112,320,11894,1,0
112,320,11977,1,0
112,320,12059,1,0
112,320,12141,1,0
160,256,12306,6,0,B|48:224|96:80|176:64|176:80,1,225,6|0
153,80,12966,6,0,B|224:144,1,75
256,64,13295,2,0,B|336:16,1,75
400,48,13625,2,0,B|464:112,1,75
464,176,13955,2,0,B|496:160|496:160,2,37.5
384,160,14284,2,0,B|336:224,1,75
320,288,14614,2,0,B|240:320|160:272,1,150,0|6
156,276,15026,5,0
136,272,15108,1,0
116,268,15191,1,0
100,260,15273,1,0
88,248,15356,1,0
80,232,15438,1,0
72,216,15520,1,0
64,200,15603,2,0,B|60:160|60:160,4,37.5
64,144,16097,6,0,B|64:64|192:48,1,150
240,48,16592,2,0,B|240:96|240:96,2,37.5
320,48,16922,1,0
400,48,17086,2,0,B|400:128,1,75
472,144,17416,1,0
480,224,17581,6,0,B|416:272|320:272,1,150,6|0
272,240,18075,2,0,B|176:224,2,75
272,160,18570,2,0,B|352:144|352:144,2,75
272,80,19064,2,0,B|192:48,2,75
352,64,19559,2,0,B|400:32|448:48,1,75
464,112,19889,2,0,B|496:80|496:80,2,37.5
444,144,20218,5,6
432,156,20301,1,0
416,164,20383,1,0
396,168,20466,1,0
376,172,20548,1,0
356,172,20630,1,0
336,172,20713,1,0
316,168,20795,1,0
300,164,20878,1,0
284,156,20960,1,0
268,144,21042,1,0
248,140,21125,1,0
228,136,21207,1,0
208,136,21290,1,0
188,140,21372,1,0
168,140,21455,1,0
256,192,21537,12,0,22691
112,224,22856,6,0,B|64:160,1,75,4|0
176,112,23185,2,0,B|224:192,1,75
272,320,23515,2,0,B|368:336,1,75,8|0
352,224,23845,2,0,B|400:192,2,37.5
352,48,24174,2,0,B|416:96,1,75,8|0
432,192,24504,2,0,B|480:272|480:256,2,75,0|0|8
400,256,24999,2,0,B|416:304,2,37.5
336,288,25328,6,0,B|240:336,1,75,0|8
224,256,25658,2,0,B|144:224,1,75
112,176,25988,1,0
96,112,26152,2,0,B|128:80|176:80|208:96|228:156,1,150,8|0
264,200,26647,1,0
340,188,26812,2,0,B|404:140,1,75,8|0
448,80,27141,2,0,B|496:80,2,37.5
361,85,27471,1,8
361,85,27636,1,0
288,96,27801,2,0,B|256:32|256:32,2,37.5
224,112,28130,5,8
144,112,28295,1,0
64,96,28460,2,0,B|16:96,2,37.5,4|0|0
64,192,28790,1,8
64,192,28955,1,0
128,240,29119,2,4,B|128:288,2,37.5,4|0|4
208,256,29449,1,8
288,256,29614,1,0
336,192,29779,2,0,B|288:160,2,37.5,4|0|4
407,200,30108,2,0,B|448:160|432:160,4,37.5,8|0|0|0|0
368,272,30603,22,0,B|432:320,1,75
368,176,30933,2,0,B|448:128,1,75
288,176,31262,2,0,B|208:112,2,75
288,176,31922,2,0,B|368:128,1,75
368,64,32251,1,0
288,48,32416,1,0
208,32,32581,1,0
128,32,32746,2,0,B|128:-16,2,37.5
96,96,33075,6,0,B|48:160,1,75,0|0
144,192,33405,2,0,B|192:128,1,75,4|0
288,272,33735,2,0,B|224:320,1,75,8|0
304,112,34064,2,0,B|352:192,1,75,0|0
416,32,34394,2,0,B|336:32,1,75,8|0
256,64,34724,5,0
256,64,34889,2,0,B|160:112,1,75,0|8
128,144,35218,2,0,B|32:144,1,75,0|0
48,224,35548,2,0,B|64:272|112:272,1,75,0|8
176,272,35878,1,0
256,256,36042,2,0,B|336:256|416:192,1,150,0|8
432,144,36537,1,0
432,144,36702,1,0
400,80,36867,1,0
336,48,37031,2,0,B|176:48,1,150,8|0
16,96,37691,6,0,B|128:208,1,150,8|0
122,202,38185,1,0
176,256,38350,2,0,B|176:320|176:304,2,37.5,8|0|0
240,224,38680,5,0
304,176,38845,1,0
304,96,39010,2,0,B|304:32|304:48,2,37.5,12|0|4
384,96,39339,1,0
432,160,39504,1,0
432,240,39669,2,0,B|480:240,2,37.5,12|0|4
352,256,39999,1,0
288,208,40163,1,0
224,160,40328,2,4,B|224:112,2,37.5,12|0|4
240,240,40658,2,0,B|240:304,4,37.5
144,272,41152,22,0,B|80:320,1,75
144,176,41482,2,0,B|64:128,1,75
224,176,41812,2,0,B|304:112,2,75
224,176,42471,2,0,B|144:128,1,75
96,112,42801,2,0,B|96:48|96:48,2,37.5
48,176,43130,2,0,B|16:160|16:160,4,37.5
80,224,43625,6,0,B|144:272,1,75,0|0
256,240,43955,2,0,B|192:192,1,75,12|0
128,96,44284,2,0,B|176:32,1,75
288,48,44614,2,0,B|224:128,1,75,8|0
156,180,44944,1,0
268,188,45108,2,0,B|312:188|336:152|348:116|336:68|332:68,1,150,4|0
412,84,45603,2,0,B|400:32|400:32|340:0|340:0|280:8,1,150,4|0
116,36,46262,6,0,B|116:116,1,75,0|0
200,188,46592,1,8
288,116,46757,2,0,B|288:40,1,75
396,8,47086,1,0
468,96,47251,2,8,B|408:156,1,75,8|0
316,204,47581,2,0,B|344:128,1,75
334,37,47911,5,8
272,131,48075,1,0
215,33,48240,1,8
151,126,48405,1,0
94,29,48570,1,8
128,256,48900,6,0,B|59:313,1,75,0|0
383,249,49229,2,0,B|451:307,1,75,4|0
253,308,49559,2,0,B|255:219,1,75,8|0
256,108,49889,2,0,B|256:22,1,75
332,36,50218,5,8
392,80,50383,2,0,B|392:148|392:148|320:172|320:172|252:240,1,225,0|8
196,192,51042,1,0
120,188,51207,1,0
64,288,51537,6,0,B|112:336|224:320,2,150,0|4|0
64,96,52526,2,0,B|112:48|224:64,2,150,0|4|0
0,176,53350,5,0
16,208,53433,1,4
32,240,53515,2,0,B|64:272|112:288,1,75
176,288,53845,1,0
176,288,54010,1,0
256,272,54174,1,0
256,272,54339,1,0
336,240,54504,1,4
336,240,54669,1,0
400,176,54834,1,0
400,176,54999,1,0
448,96,55163,1,4
448,96,55328,1,0
496,16,55493,1,0
496,16,55658,1,4
432,32,55823,5,0
400,32,55905,1,0
368,48,55988,1,0
352,80,56070,1,0
336,112,56152,1,0
304,144,56235,1,0
272,176,56317,1,0
240,192,56400,1,0
208,192,56482,1,0
176,176,56564,1,0
144,144,56647,1,0
112,112,56729,1,0
112,80,56812,6,0,B|272:80,1,150,0|4
368,80,57306,1,0
416,144,57471,1,8
416,144,57636,2,0,B|416:224|368:208,1,75
352,272,57966,21,0
352,272,58130,1,8
272,256,58295,2,0,B|140:256|80:144,1,225,0|8
87,153,58955,1,0
48,96,59119,5,0
64,80,59202,1,0
80,64,59284,2,0,B|112:48|160:64,1,75,0|8
224,64,59614,2,0,B|224:112|224:112,4,37.5
288,48,60108,1,8
288,48,60273,2,0,B|384:48,1,75
368,128,60603,2,0,B|432:192,1,75,0|8
480,240,60933,6,0,B|432:288|400:288,1,75
368,240,61262,2,0,B|336:192|304:192,1,75,0|8
252,148,61592,1,0
308,96,61757,1,0
308,60,61839,1,0
308,24,61922,1,0
386,29,62086,6,0,B|384:111|384:107,1,75,12|0
251,30,62416,2,0,B|248:116,1,75
120,25,62746,2,0,B|123:118|122:118,1,75,8|0
55,135,63075,1,0
55,135,63240,1,0
66,209,63405,5,8
66,209,63570,2,0,B|98:273|226:289,1,150
256,256,64064,1,8
256,256,64147,1,0
256,256,64229,1,0
336,240,64394,1,0
336,240,64477,1,0
336,240,64559,1,0
400,192,64724,1,8
400,192,64806,1,0
400,192,64889,1,0
400,192,64971,1,0
400,192,65053,6,0,B|432:176|464:48,1,150,0|8
461,58,65548,1,0
461,58,65713,1,0
384,48,65878,2,0,B|320:96,1,75,0|8
324,93,66207,2,0,B|256:32,1,75
192,16,66537,1,0
240,160,66867,1,0
176,112,67031,2,0,B|144:80|144:64,6,37.5
112,144,67691,6,0,B|112:224|208:240,1,150,4|8
280,228,68185,2,0,B|328:208|340:156|340:156,2,75
288,304,68680,1,8
288,304,68845,2,0,B|208:344|144:272,1,150
76,288,69339,1,8
108,220,69504,1,0
120,144,69669,1,0
52,172,69834,5,0
44,96,69999,2,0,B|44:16|140:0,1,150,8|0
184,60,70493,1,0
216,128,70658,1,8
260,68,70823,2,0,B|352:76|372:180,1,150
424,112,71317,1,8
480,164,71482,2,0,B|464:244|400:292,1,150
336,272,71977,1,8
324,236,72059,1,0
312,200,72141,1,0
320,124,72306,2,0,B|232:124,1,75
224,208,72636,6,0,B|160:288,1,75,12|0
160,160,72966,2,0,B|208:96,1,75
96,112,73295,2,0,B|48:176,1,75,8|0
80,240,73625,1,0
128,304,73790,1,0
208,304,73955,1,8
256,240,74119,1,0
260,164,74284,5,0
260,128,74367,1,0
260,92,74449,1,0
260,56,74531,1,0
260,20,74614,1,4
256,192,74944,12,0,77581
128,96,88295,5,0
128,96,88378,1,0
128,96,88460,2,0,B|48:144|32:224,1,150,0|8
160,208,88955,2,0,B|112:272,1,75
208,128,89284,2,0,B|240:64|256:48,1,75,0|8
336,48,89614,2,0,B|384:32,2,37.5
336,128,89944,1,0
400,160,90108,6,0,B|480:96,1,75,8|0
496,176,90438,1,0
448,256,90603,1,0
368,304,90768,1,8
272,288,90933,2,0,B|176:288,1,75
96,272,91262,6,0,B|32:224,2,75,0|8|0
144,336,91757,2,0,B|192:304|208:192,1,150,0|8
272,144,92251,1,0
352,176,92416,1,0
416,224,92581,2,0,B|480:144,1,75,0|8
496,272,92911,2,0,B|400:304,1,75
352,288,93240,2,0,B|288:272,2,37.5,0|0|8
272,288,93570,1,0
192,272,93735,1,0
112,256,93900,1,0
80,176,94064,5,8
80,176,94229,1,0
160,176,94394,2,0,B|160:128,2,37.5
240,176,94724,1,8
240,176,94889,1,0
320,176,95053,2,0,B|320:128,2,37.5
407,184,95383,1,8
407,184,95548,1,0
480,144,95713,1,0
480,144,95795,1,0
480,144,95878,1,0
416,96,96042,1,8
416,96,96207,1,0
472,48,96372,2,0,B|512:4|512:4,2,37.5
396,40,96702,5,0
336,84,96867,1,0
280,36,97031,1,0
228,92,97196,1,0
176,40,97361,6,0,B|80:-8,1,75
80,160,97691,2,0,B|176:208,1,75
164,340,98020,2,0,B|68:292,1,75
52,244,98350,1,0
0,320,98515,1,0
0,320,98597,1,0
0,320,98680,1,0
0,320,98762,1,0
0,320,98845,1,0
0,320,98927,1,0
0,320,99009,5,0
96,352,99174,2,0,B|144:352|160:288,1,75,0|8
128,240,99504,2,0,B|176:192|224:192,1,75
224,272,99834,2,0,B|240:336|288:336,1,75,0|8
336,320,100163,2,0,B|416:288,1,75
368,224,100493,2,0,B|352:176|400:128,1,75,0|8
379,152,100823,1,0
379,152,100988,1,0
398,79,101152,2,0,B|303:44,1,75,0|8
252,50,101482,1,0
105,81,101812,6,0,B|67:135|140:163,1,75,0|8
126,220,102141,2,0,B|147:271|179:260,1,75
250,285,102471,2,0,B|319:296|324:231,1,75,0|8
304,160,102966,1,0
160,112,103295,5,8
144,80,103378,1,0
128,48,103460,2,0,B|208:16,1,75
256,64,103790,2,0,B|320:112,1,75,0|8
320,32,104119,2,0,B|416:32|400:32,2,75
256,64,104614,5,8
256,64,104779,1,0
312,116,104944,2,0,B|288:156|288:156,2,37.5
384,128,105273,1,8
416,192,105438,1,0
352,240,105603,2,0,B|352:288,2,37.5
272,240,105933,1,8
272,240,106097,1,0
192,240,106262,2,0,B|192:304|192:288,2,37.5
208,160,106592,1,8
176,96,106757,1,0
117,141,106922,1,0
117,141,107004,1,0
117,141,107086,6,0,B|64:144|80:224,1,75
75,200,107416,2,0,B|79:256|42:255,1,75
44,256,107746,2,0,B|72:324|163:336,1,150
164,336,108405,2,0,B|225:269|160:200,1,150
104,152,108900,1,0
128,80,109064,1,0
128,80,109229,1,0
224,48,109559,6,0,B|224:0|288:0,1,75,8|0
272,112,109889,2,0,B|352:144|336:80,1,75
416,112,110218,2,0,B|480:144|416:192,1,75,8|0
480,240,110548,2,0,B|464:272|384:272,1,75
368,320,110878,2,0,B|304:352|288:304,1,75,8|0
304,240,111207,2,0,B|320:192|272:176,1,75
224,224,111537,2,0,B|240:272|192:304,1,75,8|0
206,292,111867,1,0
96,176,112196,6,0,B|16:176,2,75,8|0|0
96,96,112691,2,0,B|96:16,2,75,0|8|0
236,110,113350,2,0,B|190:152|258:192,1,75,0|8
201,241,113680,1,0
276,241,113845,5,0
386,217,114009,1,0
343,112,114174,1,8
455,115,114339,1,0
460,3,114504,1,0
358,17,114834,5,8
358,17,114999,2,0,B|272:16,1,75,0|0
208,48,115328,1,0
144,96,115493,2,0,B|64:112,1,75,8|0
48,176,115823,1,0
48,256,115988,2,0,B|48:304|96:320,1,75,0|8
160,352,116317,1,0
257,297,116482,2,0,B|324:236,1,75
317,133,116812,2,0,B|256:194,1,75,8|0
263,186,117141,1,0
336,56,117471,22,0,B|296:64|244:64|164:56,1,150,8|0
48,80,118130,1,8
48,80,118295,2,0,B|0:144|16:256,1,150
89,304,118790,1,8
176,320,118955,2,0,B|224:320,14,37.5
144,176,120438,6,0,B|112:160|128:96,1,75
176,48,120768,2,0,B|208:16|272:16,1,75
320,32,121097,2,0,B|384:32|400:64,1,75
416,128,121427,2,0,B|448:192|432:208|416:208,1,75
384,256,121757,2,0,B|352:304|320:304,1,75
256,304,122086,2,0,B|192:304|176:272,1,75
128,224,122416,1,0
128,224,122499,1,0
128,224,122581,1,0
80,176,122746,1,0
32,128,122911,1,0
80,64,123075,5,0
128,128,123240,1,0
176,64,123405,1,0
288,176,123735,5,0
320,96,123900,1,0
384,160,124064,1,0
176,240,124394,5,0
80,256,124559,1,0
144,336,124724,1,0
320,240,125053,5,0
336,352,125218,1,0
432,288,125383,1,0
304,112,125713,5,0
400,16,125878,1,0
448,144,126042,1,0
256,192,126372,5,0
256,192,126537,1,0
256,192,126702,1,0
144,80,127031,6,0,B|80:32|80:32,2,75
128,256,127691,6,0,B|64:320,2,75
256,176,128350,5,0
272,160,128433,1,0
288,144,128515,1,0
368,160,128680,5,0
352,176,128762,1,0
336,192,128845,1,0
320,272,129009,5,0
320,272,129174,1,0
256,192,129257,12,0,130988
160,240,131317,1,0
160,240,131482,2,0,B|72:212|80:128,1,150
112,64,131977,2,0,B|132:16|192:12,1,75
240,32,132306,2,0,B|288:32|320:32,1,75
356,96,132636,2,0,B|404:88|400:88,2,37.5
404,192,132966,5,0
256,272,133130,1,0
100,192,133295,1,0
64,80,133460,6,0,B|16:32,2,37.5
160,32,133790,2,0,B|240:32,1,75
352,32,134119,2,0,B|400:32|400:80,1,75
416,144,134449,1,0
416,144,134614,1,0
400,224,134779,1,0
400,224,134944,1,0
336,272,135108,1,0
336,272,135273,1,0
256,272,135438,2,0,B|224:320,2,37.5
256,272,135768,2,0,B|272:224,2,37.5
144,176,136262,5,0
240,48,136427,1,0
96,48,136592,1,0
208,144,136757,1,0
64,160,136922,2,0,B|16:176|32:224,1,75
160,288,137251,1,0
304,288,137416,1,0
448,240,137581,2,0,B|480:192|480:144,1,75
432,32,137911,2,0,B|352:32,1,75
208,32,138240,2,0,B|288:32,1,75
336,176,138570,2,0,B|336:96,1,75
192,112,138900,5,0
160,128,138982,1,0
128,160,139064,1,0
112,192,139147,1,0
96,224,139229,1,0
80,256,139312,1,0
52,280,139394,2,0,B|16:296,4,37.5
28,208,139889,1,0
24,132,140053,2,0,B|20:84|20:84,3,37.5
48,68,140383,2,0,B|84:40|84:36,3,37.5
96,40,140713,2,0,B|136:32|136:32,2,37.5
80,80,141207,5,0
80,80,141537,2,0,B|48:176|48:240,1,150,6|0
160,320,142526,2,0,B|224:240|224:176,1,150,0|0
304,64,143515,6,0,B|384:32,1,75,6|0
416,96,144009,2,0,B|400:128,1,37.5,0|0
432,208,144339,2,0,B|384:208,1,37.5,0|0
368,272,144669,2,0,B|336:256,1,37.5,0|0
256,272,144999,2,0,B|192:208,1,75,0|6
64,48,145823,5,0
32,112,145988,1,0
64,176,146152,1,0
96,240,146317,2,0,B|160:192,1,75
224,208,146812,2,0,B|288:272,1,75,6|0
320,224,147306,1,0
480,32,147801,6,0,B|448:64,1,37.5,4|2
128,240,148790,6,0,B|64:192,1,75
64,112,149284,2,0,B|112:112,1,37.5
112,32,149614,2,0,B|144:48,1,37.5
208,16,149944,2,0,B|224:64,1,37.5
288,80,150273,2,0,B|224:128,1,75
208,156,150768,6,0,B|184:184|184:184,5,25
176,192,151427,1,0
156,204,151537,1,0
132,212,151647,1,0
108,216,151757,1,0
84,216,151867,1,0
60,208,151977,1,0
40,192,152086,1,4
352,64,157691,5,8
464,112,157856,1,0
352,176,158020,1,0
464,240,158185,1,0
352,304,158350,1,8
240,304,158515,1,0
128,304,158680,1,0
32,240,158845,1,0
128,176,159009,1,8
16,128,159174,1,0
112,64,159339,1,8
224,64,159504,1,0
336,64,159669,2,0,B|384:64|368:64,35,37.5,8|0|0|0|0|0|0|0|0|0|0|0|0|0|0|0|0|0|0|0|0|0|0|0|0|0|0|0|0|0|0|0|0|0|0|0
352,96,162636,5,0
336,128,162718,1,0
304,160,162801,1,0
272,176,162883,1,0
240,192,162966,1,0
208,208,163048,1,0
172,208,163130,2,0,B|116:208|112:208,16,37.5,0|0|0|0|0|0|0|0|0|0|0|0|0|0|0|0|4
256,192,173185,12,0,174834
48,64,174999,5,0
48,64,175081,1,0
48,64,175163,2,0,B|16:144|128:208,1,150,0|8
128,256,175658,1,0
233,296,175823,6,4,B|327:294,1,75
387,278,176152,2,0,B|339:198,1,75,8|0
352,101,176482,2,0,B|400:181,1,75
493,212,176812,2,0,B|445:132,1,75,8|0
400,48,177141,2,0,B|400:0,2,37.5
288,48,177471,1,8
192,96,177636,1,0
96,160,177801,6,0,B|80:208|112:256,1,75
208,320,178130,2,0,B|224:272|208:240,1,75,8|0
304,112,178460,2,0,B|288:160|304:208,1,75
432,112,178790,6,0,B|432:64|400:32,1,75,8|0
80,56,179119,2,0,B|80:104|112:136,1,75,0|0
132,200,179449,1,8
232,256,179614,5,2
288,116,179779,1,2
276,264,179944,1,2
240,120,180108,1,2
316,252,180273,1,2
16,64,180768,6,0,B|16:144,1,75,8|0
112,64,181097,2,0,B|112:160,1,75,0|0
16,240,181427,2,0,B|16:320,1,75,8|0
112,240,181757,2,0,B|112:320,1,75,0|0
224,320,182086,2,0,B|304:320,1,75,8|0
336,256,182416,5,0
336,256,182499,1,0
336,256,182581,1,0
384,192,182746,1,8
384,192,182828,1,0
384,192,182911,1,0
400,112,183075,1,0
400,112,183158,1,0
400,112,183240,1,0
400,112,183323,1,0
400,112,183405,1,8
256,192,183570,12,0,184724
384,304,184889,5,0
48,32,185218,5,0
160,128,185383,1,0
160,128,185466,1,0
160,128,185548,1,0
240,144,185713,2,0,B|304:64,1,75,0|0
352,48,186042,2,0,B|288:128,1,75
369,145,186372,6,0,B|332:224|330:224,1,75,4|0
249,283,186702,2,0,B|288:208,1,75,8|0
188,278,187031,2,0,B|231:185,1,75,0|0
219,209,187361,1,8
136,177,187526,1,0
100,154,187608,1,0
90,117,187691,1,0
101,81,187773,1,0
122,50,187856,1,0
194,70,188020,2,0,B|252:26|338:22,1,150,8|0
464,80,188515,6,0,B|480:160,1,75,0|8
336,224,188845,2,0,B|288:160,1,75
160,224,189174,2,0,B|176:144,1,75,0|8
352,48,189504,2,0,B|416:112,1,75
320,320,189834,2,0,B|224:320,1,75,0|8
96,272,190163,5,0
28,184,190328,1,0
100,96,190493,1,0
172,184,190658,2,0,B|172:232,4,37.5,8|0|0|0|0
304,64,191317,6,0,B|384:48,1,75,4|0
448,80,191647,2,0,B|352:112,1,75
304,192,191977,2,0,B|208:224,1,75,8|0
160,304,192306,2,0,B|256:272,1,75
112,176,192636,2,0,B|192:128,1,75,8|0
224,80,192966,5,0
256,64,193048,1,0
288,64,193130,1,0
320,64,193213,1,0
352,80,193295,1,0
256,192,193625,12,4,196427
