osu file format v9

[General]
AudioFilename: .mp3
AudioLeadIn: 0
PreviewTime: 56804
Countdown: 1
SampleSet: Normal
StackLeniency: 0.7
Mode: 0
LetterboxInBreaks: 1

[Editor]
Bookmarks: 30232,40946,77911
DistanceSpacing: 0.7
BeatDivisor: 4
GridSize: 16

[Metadata]
Title:Rhyme Light Girl
Artist:Hatsune Miku
Creator:K o h a k u
Version:Hard
Source:vocaloid
Tags:kusoinaka-p

[Difficulty]
HPDrainRate:5
CircleSize:4
OverallDifficulty:4
ApproachRate:9
SliderMultiplier:1.5
SliderTickRate:1

[Events]
//Background and Video events
0,0,"pididi.jpg"
//Break Periods
2,77781,87695
2,140253,150827
2,164649,172585
//Storyboard Layer 0 (Background)
//Storyboard Layer 1 (Fail)
//Storyboard Layer 2 (Pass)
//Storyboard Layer 3 (Foreground)
//Storyboard Sound Samples
//Background Colour Transformations
3,100,163,162,255

[TimingPoints]
9010,329.67032967033,4,1,0,52,1,0
57141,-100,4,1,0,52,0,1
77581,-100,4,1,0,52,0,0
175823,-100,4,1,0,52,0,1
186207,-100,4,1,0,52,0,0
186372,-100,4,1,0,52,0,1
196262,-100,4,1,0,52,0,0

[Colours]
Combo1 : 0,128,192
Combo2 : 128,255,0
Combo3 : 255,0,255

[HitObjects]
256,192,9010,12,0,10988
96,80,11317,5,0
208,80,11647,2,0,B|304:80|304:80,2,75,4|0|4
160,176,12306,6,0,B|224:192|320:176,1,150,4|0
416,144,12966,1,0
432,192,13130,1,0
416,240,13295,1,0
368,272,13460,2,0,B|304:288|272:288|224:256,1,150
176,240,13955,1,0
176,240,14119,1,0
144,192,14284,2,0,B|144:112|144:112,2,75
256,112,14944,6,0,B|256:32|256:32,2,75,4|0|0
256,160,15438,1,0
256,208,15603,2,0,B|256:288|256:288,2,75
208,208,16097,1,0
192,112,16427,1,0
192,112,16592,1,0
192,112,16757,2,0,B|240:128|368:128|432:112,1,225
496,80,17581,6,0,B|496:0|496:-16,2,75,4|0|0
448,192,18240,6,0,B|384:208|272:192,1,150
288,96,18900,2,0,B|192:96,1,75
213,96,19229,2,0,B|128:96,1,75
138,96,19559,2,0,B|32:96,1,75
63,96,19889,2,0,B|64:176,1,75
256,192,20218,12,4,22031
416,80,22361,6,0,B|480:32|480:32,2,75,0|0|0
368,64,22856,2,0,B|320:48|256:48|208:64,1,150,4|8
112,80,23515,1,0
112,80,23680,1,0
112,80,23845,1,8
48,176,24174,54,0,B|112:256|208:224,1,150,0|8
224,224,24669,1,0
272,208,24834,1,0
320,192,24999,1,0
368,128,25328,6,0,B|288:96|208:96|144:128,1,225,0|8
149,125,26152,2,0,B|112:192|160:272,1,150,0|8
157,267,26812,2,0,B|208:320|320:288,1,150,8|0
336,256,27306,1,0
384,224,27471,1,0
416,176,27636,1,0
400,80,27966,21,0
352,48,28130,2,0,B|224:32|176:80|176:80,3,150,0|0|8|0
144,144,29449,2,0,B|96:224|128:304|128:288,3,150,0|0|8|0
176,272,30603,6,0,B|160:192,1,75
161,198,30933,2,0,B|224:144,1,75
217,149,31262,2,0,B|272:96,1,75,0|0
271,96,31592,5,0
336,176,31922,1,8
320,272,32251,1,8
224,304,32581,1,4
192,272,32746,1,8
160,176,33075,6,0,B|192:96,1,75
187,106,33405,2,0,B|288:112,1,75,4|0
262,110,33735,2,0,B|304:176,1,75
302,174,34064,2,0,B|384:112,1,75,8|0
362,128,34394,2,0,B|432:176,1,75
424,170,34724,2,0,B|464:256|432:352,1,150
384,336,35218,1,0
336,320,35383,1,8
288,288,35548,1,0
208,112,35878,6,0,B|112:112,1,75
133,112,36207,2,0,B|128:208,1,75
129,186,36537,2,0,B|48:192,1,75,0|8
96,288,37031,1,0
96,288,37196,1,0
96,288,37361,2,0,B|192:304|256:288,1,150,0|0
245,290,37856,2,0,B|336:304|400:288,1,150,0|0
394,289,38350,2,0,B|432:256|432:192,1,75
432,176,38680,2,0,B|384:112|304:96|320:80,7,150,4|0|8|0|0|0|8|0
272,112,41152,22,0,B|176:128,1,75
198,124,41482,2,0,B|176:208,1,75
178,196,41812,2,0,B|112:240,1,75,0|0
115,237,42141,5,0
80,144,42471,1,8
80,144,42801,1,8
80,144,43130,1,4
128,112,43295,1,8
208,48,43625,5,0
304,96,43955,1,4
400,128,44284,1,0
400,128,44614,1,8
304,176,44944,1,0
304,176,45108,2,0,B|336:256|240:304,1,150
202,322,45603,2,0,B|113:328|49:280,1,150,0|8
80,160,46262,5,8
192,160,46592,1,0
304,160,46922,1,8
352,160,47086,1,8
464,160,47416,1,0
464,160,47746,1,0
464,160,48075,2,0,B|464:256|448:256,3,75,8|0|0|8
384,304,48900,5,8
256,304,49229,1,4
256,192,49559,1,8
256,144,49724,1,0
256,96,49889,1,0
144,96,50218,1,8
144,96,50383,2,0,B|144:192|144:192,5,75,0|0|0|8|0|8
240,192,51537,22,0,B|336:160|368:96|368:96,5,150,0|4|0|8|0|0
464,128,53515,2,0,B|464:224|400:288,1,150,0|0
418,267,54010,2,0,B|352:304|320:288,1,75
347,292,54339,2,0,B|288:304|272:288,1,75,0|4
274,290,54669,2,0,B|208:256,1,75,0|0
207,255,54999,2,0,B|160:224|144:208,1,75,0|4
147,211,55328,2,0,B|128:128,1,75,0|4
128,80,55658,2,0,B|160:64|160:64,10,37.5,0|0|0|0|0|0|0|0|0|0|0
224,32,56812,6,0,B|256:64|256:144|224:176,1,150,0|4
208,224,57306,1,0
240,272,57471,2,0,B|304:288|336:288,1,75
368,256,57801,2,0,B|416:224|416:192,1,75,8|0
416,144,58130,1,0
416,144,58295,1,0
336,64,58625,1,0
224,64,58955,1,0
176,64,59119,1,8
128,64,59284,6,0,B|96:96|80:144|96:208,1,150,0|0
94,203,59779,2,0,B|160:192|176:144,1,75
160,170,60108,2,0,B|208:144|240:160,1,75
232,156,60438,2,0,B|272:192|336:176,1,75,8|0
368,96,60933,2,0,B|448:32|448:32,4,75
320,128,61757,1,8
224,160,62086,6,0,B|176:192|160:224|192:288,1,150,4|8
304,304,62746,2,0,B|352:272|368:240|336:176,1,150,0|8
336,64,63405,2,0,B|256:80|160:48,1,150,0|8
112,128,64064,1,0
64,224,64394,1,8
144,304,64724,1,0
256,304,65053,6,0,B|336:288|352:256,1,75,4|0
384,192,65548,2,0,B|336:192|320:224,1,75,4|0
272,160,65878,2,0,B|288:128|336:112,1,75,4|0
368,80,66207,2,0,B|400:48|400:48|416:48,6,37.5
272,48,67031,1,0
160,48,67361,1,0
80,64,67691,6,0,B|48:96|48:160|80:208,1,150,4|8
176,240,68350,2,0,B|208:176|192:112|176:80,1,150,0|8
208,48,68845,1,0
304,64,69174,1,8
400,32,69504,1,8
464,64,69834,6,0,B|400:128,1,75
410,117,70164,2,0,B|464:192,1,75
454,178,70493,2,0,B|400:240,1,75
404,234,70823,2,0,B|480:288,1,75,0|0
465,278,71152,2,0,B|400:336,1,75,0|8
304,304,71647,2,0,B|272:256|256:224|288:160,1,150
336,176,72141,2,0,B|384:128|336:32,1,150
288,64,72636,5,0
192,112,72966,1,0
144,112,73130,1,0
96,112,73295,1,0
80,208,73625,2,0,B|128:272|192:272|240:272|240:272,2,150,4|4|0
256,192,74944,12,0,77581
416,304,88295,6,0,B|480:352|480:352,2,75,0|0|0
368,320,88790,2,0,B|320:336|256:336|208:320,1,150,4|8
112,304,89449,1,0
112,304,89614,1,0
112,304,89779,1,8
48,208,90108,54,0,B|112:128|208:160,1,150,0|8
224,160,90603,1,0
272,176,90768,1,0
320,192,90933,1,0
368,256,91262,6,0,B|288:288|208:288|144:256,1,225,0|8
149,259,92086,2,0,B|112:192|160:112,1,150,0|8
157,117,92746,2,0,B|208:64|320:96,1,150,8|0
336,128,93240,1,0
368,176,93405,1,0
416,208,93570,1,0
400,304,93900,21,0
352,336,94064,2,0,B|224:352|176:304|176:304,3,150,0|0|8|0
144,240,95383,2,0,B|96:160|128:80|128:96,3,150,0|0|8|0
176,112,96537,6,0,B|160:192,1,75
161,186,96867,2,0,B|224:240,1,75
217,235,97196,2,0,B|272:288,1,75,0|0
271,288,97526,1,0
336,208,97856,1,8
320,112,98185,1,8
224,80,98515,1,4
192,112,98680,1,8
64,256,99009,6,0,B|96:336,1,75
91,326,99339,2,0,B|192:320,1,75,4|0
166,322,99669,2,0,B|208:256,1,75
206,258,99998,2,0,B|288:320,1,75,8|0
266,304,100328,2,0,B|336:256,1,75
328,262,100658,2,0,B|368:176|336:80,1,150
288,96,101152,1,0
240,128,101317,1,8
192,160,101482,1,0
208,272,101812,6,0,B|112:272,1,75
133,272,102141,2,0,B|128:176,1,75
129,198,102471,2,0,B|48:192,1,75,0|8
96,96,102965,1,0
96,96,103130,1,0
96,96,103295,2,0,B|192:80|256:96,1,150
245,94,103790,2,0,B|336:80|400:96,1,150
394,95,104284,2,0,B|432:128|432:192,1,75
432,208,104614,2,0,B|384:272|304:288|320:304,7,150,4|0|8|0|0|0|8|0
272,272,107086,22,0,B|176:256,1,75
198,260,107416,2,0,B|176:176,1,75
178,188,107746,2,0,B|112:144,1,75,0|0
115,147,108075,1,0
80,240,108405,1,8
80,240,108735,1,8
80,240,109064,1,4
128,240,109229,1,8
240,240,109559,5,0
352,240,109889,1,4
464,240,110218,1,8
384,176,110548,1,0
288,208,110878,1,0
288,208,111042,2,0,B|320:128|224:80,1,150
233,86,111537,2,8,B|144:80|80:128,1,150
80,224,112196,5,8
192,224,112526,1,0
304,224,112856,1,8
352,224,113020,1,0
464,224,113350,1,0
464,224,113680,1,0
464,224,114009,2,0,B|464:128|448:128,3,75,8|0|0|8
368,80,114834,5,8
256,80,115163,1,0
256,192,115493,1,8
256,240,115658,1,0
256,288,115823,1,0
144,288,116152,1,8
144,288,116317,2,0,B|144:192|144:192,5,75,0|0|0|8|0|8
176,112,117471,22,0,B|208:80|288:80|320:112,1,150,8|0
176,272,118130,2,0,B|208:304|288:304|320:272,1,150,8|0
176,112,118790,2,0,B|208:80|288:80|320:112,1,150,8|0
128,64,120438,6,0,B|176:96|288:80,1,150,0|0
368,112,121097,2,0,B|288:160|192:160,1,150,0|0
144,224,121757,2,0,B|208:256|320:256,1,150,0|8
400,240,122416,1,8
400,240,122746,1,8
400,128,123075,6,0,B|416:48|400:48,2,75,0|0|8
304,96,123735,1,0
256,96,123900,1,0
208,96,124064,1,8
96,96,124394,2,0,B|80:16|96:16,2,75,0|0|8
80,192,125053,1,0
80,240,125218,1,0
80,288,125383,1,8
192,288,125713,6,0,B|256:320|288:320|272:304,2,75,4|0|0
192,176,126372,2,0,B|240:144|272:144|272:144,2,75,4|0|0
192,64,127031,1,4
192,64,127196,1,0
192,64,127361,1,0
304,64,127691,1,4
304,64,127856,1,0
304,64,128020,1,0
384,144,128350,6,0,B|432:192|416:192,12,37.5
256,192,129504,12,4,130658
96,64,130988,5,8
96,64,131317,1,0
96,176,131647,2,0,B|80:224|128:272,1,75
208,256,132141,1,8
208,256,132471,1,0
208,256,132636,1,0
192,144,132966,2,0,B|176:96|176:64|176:64,2,75
272,80,133625,38,0,B|352:96|432:80,1,150,8|0
432,192,134284,1,0
432,192,134449,1,0
368,272,134779,2,0,B|288:304|288:304,2,75,8|0|0
352,224,135273,2,0,B|432:192|432:192,2,75
336,128,135933,1,8
400,80,136262,22,0,B|320:64|224:80,1,150,4|0
208,96,136757,1,0
160,128,136922,1,0
128,160,137086,1,0
112,208,137251,2,0,B|112:272|144:320|176:336|176:336,2,150,0|0|0
224,192,138240,1,8
336,192,138570,1,8
400,112,138900,6,0,B|368:80|368:80,8,37.5
304,96,139889,1,8
256,96,140053,1,8
80,64,151427,6,0,B|160:48|256:64,1,150,8|0
336,96,152086,2,0,B|384:160|368:240,1,150,8|0
272,288,152746,2,0,B|208:304|112:288,1,150,8|0
64,192,153405,2,0,B|48:112|96:48,1,150,8|0
192,48,154064,5,8
304,48,154394,1,0
368,128,154724,1,8
352,224,155053,1,0
256,272,155383,1,8
208,272,155548,1,8
128,208,155878,1,8
400,64,156867,22,0,B|416:128|384:192|368:224,1,150
320,224,157361,2,0,B|256:160|272:160,2,75,8|0|0
272,256,157856,2,0,B|320:320|320:320,2,75,8|0|0
224,272,158350,2,0,B|160:192|160:192,2,75,8|0|0
176,288,158845,1,0
128,256,159010,1,8
96,208,159174,1,0
80,160,159339,1,8
96,112,159504,6,0,B|144:80|192:64,1,75
208,48,159834,2,0,B|272:32|304:48,1,75,4|0
336,128,160328,2,0,B|352:224|336:224,1,75,4|0
256,272,160823,2,0,B|208:304|176:304,1,75,4|0
128,224,161317,2,0,B|96:176|96:144,1,75,4|0
128,80,161729,1,0
224,48,161977,1,0
224,48,162224,1,0
224,48,162471,1,0
256,192,162636,12,4,164449
256,192,173185,12,0,174669
64,64,175163,6,0,B|32:112|64:224,1,150
96,256,175658,1,0
144,288,175823,2,0,B|224:304|304:288,1,150,4|8
320,240,176317,1,0
336,192,176482,2,0,B|352:128|304:64|288:48,1,150,0|8
240,48,176977,1,0
192,48,177141,2,0,B|112:64,1,75,8|0
48,144,177636,1,0
112,224,177966,6,0,B|208:256,1,75,0|0
240,256,178295,2,0,B|320:240,1,75,8|0
352,208,178625,2,0,B|400:128,1,75
384,96,178955,2,0,B|336:16,1,75,8|0
288,32,179284,1,8
192,80,179614,1,0
96,128,179944,1,8
160,208,180273,1,4
192,240,180438,1,8
288,224,180768,6,0,B|368:192|400:112|400:112,2,150
256,128,181757,2,0,B|288:48|368:16|368:16,2,150
304,224,182746,1,0
192,224,183075,1,0
80,224,183405,1,0
256,192,183735,12,0,184889
256,192,185218,6,0,B|304:192|304:192,4,37.5
256,192,185713,6,0,B|208:144|208:64|208:48,1,150
256,48,186207,1,0
304,48,186372,2,0,B|352:32|384:32|432:32|480:48,1,150
464,96,186867,1,0
352,112,187031,2,0,B|416:160|464:240,1,150
480,272,187526,2,0,B|396:338|316:322,1,150
128,160,188515,6,0,B|80:80|80:80,2,75,0|0|0
176,128,189010,2,0,B|240:208|240:192,2,75,0|0|0
224,96,189504,2,0,B|176:32|176:32,2,75,0|0|8
272,64,189999,1,0
320,64,190163,2,0,B|384:96|432:176,1,150
432,224,190658,2,0,B|416:288|416:304|304:288,1,150
240,272,191317,6,0,B|160:272|160:272,2,75
192,176,191977,2,0,B|112:160|64:112|64:80|64:80,2,150
192,176,192801,1,0
192,176,192966,1,0
256,192,193625,12,0,196262
