osu file format v9

[General]
AudioFilename: 05. Reversible Doll.mp3
AudioLeadIn: 0
PreviewTime: 69364
Countdown: 0
SampleSet: Normal
StackLeniency: 0.5
Mode: 0
LetterboxInBreaks: 0

[Editor]
DistanceSpacing: 1
BeatDivisor: 4
GridSize: 8

[Metadata]
Title:Reversible Doll
Artist:Hatsune Miku
Creator:NatsumeRin
Version:Rin
Source:wowaka
Tags:seven girls' discord vocaloid vocaloid2 garven krisom samipale eveless OnosakiHito

[Difficulty]
HPDrainRate:6
CircleSize:4
OverallDifficulty:8
ApproachRate:9
SliderMultiplier:1.6
SliderTickRate:0.5

[Events]
//Background and Video events
0,0,"BG.jpg"
//Break Periods
2,18397,26131
2,43731,51731
2,105864,113598
//Storyboard Layer 0 (Background)
//Storyboard Layer 1 (Fail)
//Storyboard Layer 2 (Pass)
//Storyboard Layer 3 (Foreground)
//Storyboard Sound Samples
//Background Colour Transformations
3,100,163,162,255

[TimingPoints]
8598,266.666666666667,4,1,1,80,1,0
9731,-100,4,2,1,80,0,0
9864,-100,4,1,1,80,0,0
10264,-100,4,2,1,80,0,0
10397,-100,4,1,1,80,0,0
11064,-100,4,2,1,80,0,0
11197,-100,4,1,1,80,0,0
11331,-100,4,2,1,80,0,0
11464,-100,4,1,1,80,0,0
11597,-100,4,2,1,80,0,0
11731,-100,4,1,1,80,0,0
11864,-100,4,2,1,80,0,0
11997,-100,4,1,1,80,0,0
12397,-100,4,2,1,80,0,0
12531,-100,4,1,1,80,0,0
13197,-100,4,2,1,80,0,0
13331,-100,4,1,1,80,0,0
13464,-100,4,2,1,80,0,0
13597,-100,4,1,1,80,0,0
13731,-100,4,2,1,80,0,0
13864,-100,4,1,1,80,0,0
13998,-100,4,2,1,80,0,0
14131,-100,4,1,1,80,0,0
14531,-100,4,2,1,80,0,0
14664,-100,4,1,1,80,0,0
14931,-100,4,2,1,80,0,0
15064,-100,4,1,1,80,0,0
15331,-100,4,2,1,80,0,0
15464,-100,4,1,1,80,0,0
15598,-100,4,2,1,80,0,0
15731,-100,4,1,1,80,0,0
15864,-100,4,2,1,80,0,0
15998,-100,4,1,1,80,0,0
16131,-100,4,2,1,80,0,0
16264,-100,4,1,1,80,0,0
16664,-100,4,2,1,80,0,0
16798,-100,4,1,1,80,0,0
17464,-100,4,2,1,80,0,0
17598,-100,4,1,1,80,0,0
17731,-100,4,2,1,80,0,0
17864,-100,4,1,1,80,0,0
17998,-100,4,2,1,80,0,0
18131,-100,4,1,1,80,0,0
26464,-100,4,2,1,80,0,0
42531,-200,4,2,1,80,0,0
42998,-200,4,2,1,20,0,0
43464,-100,4,2,1,85,0,0
52064,-100,4,2,1,70,0,0
59598,-133.333333333333,4,2,1,80,0,0
60198,-100,4,2,1,80,0,0
60398,-100,4,1,1,50,0,0
60531,-100,4,1,1,60,0,0
60664,-100,4,2,1,80,0,0
60798,-100,4,2,1,80,0,0
69198,-100,4,2,1,20,0,0
69331,-100,4,1,1,55,0,0
69464,-100,4,2,2,80,0,0
73798,-100,4,2,1,80,0,0
77731,-100,4,2,1,20,0,0
77864,-100,4,2,2,80,0,0
82064,-200,4,2,1,100,0,0
82598,-200,4,2,1,20,0,0
82864,-200,4,2,1,80,0,0
83064,-100,4,2,1,80,0,0
84198,-100,4,2,1,85,0,0
86398,-100,4,2,1,90,0,0
87464,-100,4,1,1,70,0,0
88464,-100,4,2,1,85,0,0
88598,-100,4,2,1,85,0,1
96131,-100,4,2,1,70,0,1
96264,-100,4,2,1,85,0,1
96398,-100,4,2,1,70,0,1
96531,-100,4,2,1,85,0,1
96664,-100,4,2,1,70,0,1
96798,-100,4,2,1,85,0,1
96931,-100,4,2,1,70,0,1
97064,-100,4,2,1,85,0,1
105664,-100,4,2,2,85,0,0
113931,-100,4,2,2,60,0,0
121464,-200,4,2,1,80,0,0
121664,-200,4,2,2,70,0,0
122064,-100,4,2,2,70,0,0
122598,-100,4,2,1,80,0,0
147264,-100,4,1,1,45,0,0
147398,-100,4,1,1,50,0,0
147531,-100,4,1,1,55,0,0
147664,-100,4,1,1,60,0,0
147931,-100,4,2,1,80,0,0
148131,-100,4,2,1,20,0,0
148264,-100,4,1,1,55,0,0
148398,-100,4,2,2,80,0,0
152731,-100,4,2,1,80,0,0
156864,-100,4,2,2,80,0,0
160998,-200,4,2,1,100,0,0
161398,-200,4,2,1,80,0,0
161998,-100,4,2,1,80,0,0
164264,-100,4,1,1,70,0,0
165398,-100,4,2,1,85,0,1
172931,-100,4,2,1,70,0,1
173064,-100,4,2,1,85,0,1
173198,-100,4,2,1,70,0,1
173331,-100,4,2,1,85,0,1
173464,-100,4,2,1,70,0,1
173598,-100,4,2,1,85,0,1
173731,-100,4,2,1,70,0,1
173864,-100,4,2,1,85,0,1
181464,-100,4,2,1,70,0,1
181598,-100,4,2,1,85,0,1
181731,-100,4,2,1,70,0,1
181864,-100,4,2,1,85,0,1
181998,-100,4,2,1,70,0,1
182131,-100,4,2,1,85,0,1
182264,-100,4,2,1,70,0,1
182398,-100,4,2,1,85,0,0
182464,-100,4,2,1,85,0,1
199398,-100,4,2,1,85,0,1
199864,-200,4,2,1,85,0,1
200064,-100,4,1,1,50,0,0

[Colours]
Combo1 : 122,122,132
Combo2 : 238,238,238
Combo3 : 183,183,183

[HitObjects]
175,117,8598,5,8
175,117,8864,1,8
175,117,9131,1,0
251,139,9264,2,0,B|320:118,2,40,8|0|8
193,195,9531,1,8
269,218,9664,6,0,B|252:268|197:275,1,80
193,195,9931,2,0,B|202:144|287:112|336:169,1,160,10|0
387,204,10331,1,2
409,280,10464,1,8
370,350,10597,1,2
233,266,10864,1,0
161,302,10997,2,0,B|120:329|62:310,1,80,10|0
109,240,11264,2,0,B|61:244|20:217,1,80,0|0
77,158,11531,2,0,B|30:147|13:107,1,80,10|0
168,40,11797,5,0
234,84,11931,1,0
168,40,12064,2,0,B|201:-6|289:1|306:59,1,160,10|0
304,131,12464,1,2
272,204,12597,1,8
304,276,12731,2,0,B|321:310|395:332|455:311,1,160,2|0
488,242,13131,1,10
427,190,13264,1,0
348,208,13397,2,0,B|296:288,1,80,0|0
224,277,13664,2,0,B|172:357,1,80,10|0
109,205,13931,5,0
72,134,14064,1,0
129,78,14197,2,0,B|168:45|258:42|306:83,1,160,10|0
354,100,14597,1,2
389,171,14731,2,0,B|407:210|455:218,2,80,8|2|0
334,229,15131,1,0
264,268,15264,2,0,B|220:288|164:265,1,80,10|0
145,202,15531,2,0,B|185:184|235:206,1,80,0|0
185,272,15797,2,0,B|141:288|91:266,1,80,10|0
105,131,16064,5,0
185,131,16197,1,0
144,62,16331,2,0,B|178:37|270:36|322:84,1,160,10|0
361,114,16731,1,2
392,187,16864,1,8
380,266,16997,1,2
361,114,17264,1,0
312,177,17397,1,10
242,217,17531,1,0
162,225,17664,2,0,B|50:225,2,80,0|2|8
162,225,18064,1,0
162,225,18197,5,4
191,70,26731,6,0,B|300:115|299:115,1,80,2|0
298,253,26998,2,0,B|189:208|190:208,1,80,10|0
136,67,27264,2,0,B|299:133,1,160,2|8
341,183,27664,1,2
260,321,27931,1,0
299,253,28064,1,10
379,264,28198,1,0
338,332,28331,2,0,B|295:339|259:320,1,80,2|0
341,183,28598,2,0,B|392:176|428:203,1,80,8|0
299,253,28864,5,2
224,221,28998,1,0
183,152,29131,1,10
171,72,29264,1,0
171,72,29398,2,0,B|101:85|78:167|128:211,1,160,2|8
150,265,29798,1,2
256,145,30064,1,0
291,217,30198,2,0,B|342:311,2,80,10|0|2
216,75,30731,1,8
350,162,30998,6,0,B|283:223,1,80,2|0
166,228,31264,2,0,B|233:167,1,80,10|0
391,154,31531,2,0,B|256:268,1,160,2|8
201,301,31931,1,2
137,153,32198,1,0
166,228,32331,1,10
137,153,32464,1,0
150,73,32598,2,0,B|201:80|220:127,1,80,2|0
89,218,32864,2,0,B|127:240|178:226,1,80,10|0
62,125,33131,6,0,B|145:156,1,80
211,181,33398,1,10
357,118,33664,1,2
328,193,33798,1,0
302,268,33931,1,10
277,344,34064,2,0,B|236:376|147:361|127:314,1,160
126,303,34398,1,2
124,283,34464,1,10
126,202,34598,1,0
196,163,34731,2,0,B|276:123,1,80,2|0
201,81,34998,2,0,B|292:36,1,80,8|0
412,130,35264,6,0,B|430:179|385:216,1,80,2|0
261,220,35531,2,0,B|243:171|288:134,1,80,10|0
397,204,35798,2,0,B|428:254|406:328|343:347,1,160,2|8
332,259,36198,2,0,B|307:303|234:327|163:311,1,160,2|0
110,303,36598,1,10
52,247,36731,1,0
57,72,36864,6,0,B|108:74|124:123,1,80,2|0
176,259,37131,2,0,B|193:306|252:304,1,80,8|0
166,181,37398,5,2
222,125,37531,1,0
295,93,37664,1,10
375,88,37798,1,0
306,46,37931,5,2
319,124,38064,1,0
368,187,38198,1,8
441,218,38331,2,0,B|428:272|348:283|307:242,1,160,2|0
266,175,38731,2,0,B|244:129|162:109|118:144,1,160,10|0
164,294,39264,1,8
164,294,39398,1,0
164,294,39531,6,0,B|204:325|260:320,1,80,2|0
341,202,39797,2,0,B|301:171|245:176,1,80,10|0
238,320,40064,2,0,B|285:340|363:313|385:263,1,160,2|8
403,196,40464,1,2
403,196,40731,1,0
333,156,40864,1,10
304,80,40997,1,0
149,30,41131,6,0,B|128:69|80:83,1,80,2|0
38,224,41397,2,0,B|84:232|111:270,1,80,10|0
184,152,41664,5,0
256,192,41797,1,0
328,152,41931,1,10
152,312,42197,5,2
216,264,42331,1,0
296,264,42464,1,8
360,312,42597,2,0,B|328:360|254:374|168:362|148:305,1,240,2|0
256,112,43531,5,2
83,51,52331,6,0,B|92:146,1,80
231,199,52597,2,0,B|222:104,1,80,8|0
367,178,52864,2,0,B|385:341,1,160,0|8
451,292,53264,1,0
303,228,53531,1,0
240,277,53664,1,8
174,323,53797,1,0
31,247,53931,6,0,B|4:207|25:155,1,80
144,51,54197,2,0,B|184:28|240:40,1,80,8|0
81,109,54464,6,0,B|126:152|188:92|252:115,1,160,0|8
312,132,54864,1,0
373,80,54997,2,0,B|414:63|457:75,1,80
482,147,55264,1,8
445,218,55397,2,0,B|398:239|318:237|282:199,1,160
232,152,55797,2,0,B|196:190|219:235,1,80,8|0
291,207,56064,2,0,B|308:268|248:323|189:304,1,160,0|8
79,141,56597,6,0,B|162:125,1,80
291,207,56864,2,0,B|208:223,1,80,8|0
348,300,57131,2,0,B|517:270,1,160,0|8
456,208,57531,1,0
405,359,57797,1,0
348,300,57931,1,8
323,223,58064,1,0
337,52,58197,6,0,B|298:71|254:68,1,80
106,148,58464,2,0,B|148:167|194:169,1,80,8|0
331,260,58731,6,0,B|373:233|385:180,1,80
394,112,58997,1,8
237,142,59264,1,0
158,157,59397,1,0
79,171,59531,1,8
4,187,59664,6,0,B|-14:243|47:325|124:308,1,179.999994635582,0|10
102,310,60331,2,0,B|195:300,1,80,2|8
262,301,60597,2,0,B|356:310,1,80,2|0
427,195,60864,6,0,B|325:186,1,80,2|0
320,62,61131,2,0,B|417:69,1,80,10|0
427,195,61397,2,0,B|234:178,1,160,2|8
246,103,61797,1,2
289,256,62064,1,0
368,267,62197,1,10
318,329,62331,1,0
268,181,62464,6,0,B|222:192|208:242,1,80,2|0
119,132,62731,2,0,B|70:124|52:84,1,80,8|0
141,207,62997,5,2
196,264,63131,1,0
267,227,63264,1,10
257,147,63397,1,0
177,136,63531,1,2
167,56,63664,1,0
237,16,63797,1,8
292,73,63931,2,0,B|313:109|399:133|452:119,1,160,2|0
496,176,64331,2,0,B|467:209|415:205,1,80,10|0
344,193,64597,1,2
199,260,64864,2,0,B|96:310,1,80,8|0
17,201,65131,6,0,B|120:151,1,80,2|0
130,21,65397,2,0,B|27:71,1,80,10|0
17,201,65664,2,0,B|182:122,1,160,2|8
203,63,66064,1,2
360,34,66331,1,0
428,74,66464,1,10
457,148,66597,1,0
389,300,66731,6,0,B|357:340|294:333,1,80,2|0
158,320,66997,2,0,B|108:306|95:260,1,80,10|0
223,202,67264,6,0,B|255:230|302:224,1,80
278,146,67531,2,0,B|241:110|176:132,1,80,10|0
148,182,67797,1,0
129,104,67931,1,2
184,46,68064,1,8
260,71,68197,2,0,B|310:98|324:177|295:227,1,160,2|0
256,280,68597,1,8
395,357,68864,1,0
275,250,69131,2,0,B|267:250|267:250|267:242|267:242|259:250|259:250|259:242|259:242|251:250|251:250|251:242|251:242|243:250|243:250|239:243|239:243|235:250|235:250|226:250,1,80,10|0
117,357,69397,5,6
117,357,69531,1,2
117,357,69664,2,0,B|70:332|47:262|75:197,1,160,10|10
173,95,70197,1,2
173,95,70331,2,0,B|220:120|243:190|215:255,1,160,10|2
148,187,70731,2,0,B|250:149,1,80,10|2
301,142,70997,2,0,B|394:155,1,80,10|0
458,168,71264,1,0
354,290,71531,5,10
354,290,71664,1,2
354,290,71797,2,0,B|317:330|248:348|186:327|185:327,1,160,10|10
225,172,72331,2,0,B|178:180|129:155,1,80,2|8
89,106,72597,1,2
103,27,72731,1,2
181,10,72864,2,0,B|236:0|315:20|336:64,1,160,10|10
379,204,73397,1,0
305,236,73531,1,0
227,253,73664,5,4
184,98,73931,2,0,B|140:112|124:164,1,80,10|0
124,232,74197,1,0
156,304,74331,2,0,B|179:340|236:340,1,80,2|8
296,304,74597,2,0,B|332:270|405:261|468:281,1,160
495,340,74997,1,10
449,187,75264,1,2
312,102,75531,1,8
153,76,75797,6,0,B|124:156|124:155,1,80,2|2
60,105,76064,2,0,B|33:180,1,80,8|2
59,256,76331,1,0
114,313,76464,1,2
188,342,76597,1,8
306,234,76731,6,0,B|338:201|410:192|466:218,1,160,2|2
409,279,77131,1,8
380,204,77264,1,2
316,154,77397,1,2
236,146,77531,1,0
157,161,77664,2,0,B|149:163|149:163|146:156|146:156|141:166|141:166|139:158|139:158|134:169|134:169|131:161|131:161|126:171|126:171|120:166|120:166|119:174|119:174|110:177,1,80,8|0
121,29,77931,5,10
121,29,78064,1,2
121,29,78198,2,0,B|172:6|260:39|280:102,1,160,10|10
256,232,78731,1,2
288,304,78864,1,10
368,309,78998,2,0,B|369:259|327:232,1,80,2|0
288,304,79264,2,0,B|235:262|251:187|307:163,1,160,10|10
433,252,79798,1,0
288,304,80064,5,10
288,304,80198,1,2
288,304,80331,2,0,B|235:320|157:301|128:264,1,160,10|10
115,114,80864,1,2
46,72,80998,1,8
50,151,81131,2,0,B|70:190|125:191,1,80,2|2
115,114,81398,2,0,B|144:76|220:63|272:96,1,160,8|10
402,168,81931,1,2
334,313,82198,6,0,B|271:340|155:342|85:314,1,240,4|8
28,279,83131,1,0
80,218,83264,1,2
58,140,83398,1,2
108,78,83531,1,8
179,42,83664,2,0,B|242:15|358:13|428:41,1,240,2|8
357,185,84331,6,0,B|334:231|261:256|200:233,1,160,2|8
235,159,84731,1,0
307,124,84864,2,0,B|361:149|376:227|341:280,1,160,2|8
316,335,85264,1,2
159,299,85531,1,0
83,324,85664,2,0,B|66:280|100:240,1,80,10|0
159,299,85931,2,0,B|186:245|188:181|164:145,1,160,2|8
132,71,86331,1,0
288,28,86464,5,2
357,68,86598,1,2
424,109,86731,1,8
267,133,86864,5,2
347,121,86998,1,2
424,108,87131,1,0
319,229,87264,5,10
373,169,87398,1,0
428,28,87531,6,2,B|376:4|301:19|282:69,2,160,10|8|8
428,28,88331,1,10
452,186,88598,5,2
400,247,88731,2,0,B|373:276|297:272,1,80,0|8
337,192,88998,2,0,B|287:205|208:189|176:153,1,160,2|2
140,94,89398,1,8
179,24,89531,1,0
217,93,89664,6,0,B|222:144|167:174,1,80,0|2
179,24,89931,2,0,B|227:0|283:41,1,80,10|0
140,94,90198,2,0,B|88:132|88:200|154:244,1,160,2|8
345,153,90731,5,2
306,222,90864,2,0,B|277:267|214:269,1,80,2|8
233,185,91131,2,0,B|184:211|104:204|61:171,1,160
31,116,91531,1,10
63,42,91664,1,0
130,86,91798,5,0
159,160,91931,1,2
95,300,92064,5,8
146,238,92198,1,2
207,95,92331,6,0,B|263:151|364:129,1,160,2|8
473,239,92864,5,2
423,302,92998,2,0,B|397:337|350:341,1,80,0|8
275,343,93264,1,2
275,343,93531,2,0,B|233:340|200:309,1,80,2|8
148,252,93798,1,0
98,100,93931,6,0,B|137:83|181:96,1,80,2|0
227,247,94198,2,0,B|188:264|144:251,1,80,10|0
136,68,94464,2,0,B|195:53|277:85|290:143,1,160,2|8
424,49,94998,5,2
458,120,95131,2,0,B|481:163|456:221,1,80,0|8
425,268,95398,1,0
425,268,95664,1,2
359,314,95798,1,8
282,291,95931,1,0
223,345,96064,6,0,B|136:370,1,80,2|0
343,236,96331,2,0,B|430:211,1,80,10|0
124,246,96598,2,0,B|37:271,1,80,4|0
244,137,96864,2,0,B|331:112,1,80,8|0
381,62,97131,5,2
316,14,97264,1,0
248,58,97398,1,8
244,137,97531,2,0,B|236:189|169:227|114:226,1,160,0|2
47,200,97931,1,8
16,126,98064,1,0
41,49,98198,6,0,B|81:24|136:33,1,80,0|2
273,77,98464,2,0,B|310:102|370:101,1,80,10|0
482,192,98731,2,0,B|513:239|492:320|421:336,1,160,2|8
271,200,99264,5,2
242,275,99398,1,2
172,313,99531,1,8
92,308,99664,2,0,B|35:303|-9:240|19:166,1,160,0|2
40,115,100064,1,8
106,70,100198,1,0
185,81,100331,6,0,B|232:93|266:77,2,80,2|0|8
218,7,100731,1,2
185,81,100864,1,0
370,252,101131,2,0,B|429:308,1,80,8|0
362,354,101398,6,0,B|319:372|247:360,1,80,2|0
207,339,101664,1,8
164,270,101798,1,2
209,83,102064,1,2
254,149,102198,1,8
235,226,102331,1,0
209,83,102464,6,0,B|251:58|307:80,1,80,2|0
405,171,102731,2,0,B|373:143|327:140,1,80,10|0
185,204,102998,2,0,B|225:234|302:241|357:215,1,160,2|8
405,171,103398,1,0
426,55,103531,5,2
360,101,103664,1,0
295,149,103798,1,8
157,160,103931,5,2
229,200,104064,1,0
304,236,104198,1,0
416,192,104331,5,10
382,267,104464,1,0
416,192,104598,5,2
96,192,104864,1,10
416,192,105131,1,2
96,192,105397,1,10
256,192,105664,5,4
172,103,114198,5,8
128,256,114464,1,8
282,299,114731,1,8
329,145,114998,1,8
295,72,115131,2,0,B|266:34|195:39,1,80,0|8
145,41,115398,1,0
86,95,115531,1,8
69,173,115664,1,0
79,252,115798,1,8
228,194,116064,1,8
369,269,116331,6,0,B|346:315|294:314,1,80,8|0
300,233,116598,2,0,B|321:188|386:192,1,80,8|0
438,221,116864,2,0,B|464:173|456:92|412:54,1,160,8|8
350,40,117264,1,0
269,35,117398,2,0,B|202:36|165:66,2,80,8|0|8
269,35,117798,1,0
269,35,117931,1,8
188,173,118198,1,8
51,90,118464,6,0,B|13:132|11:205|54:249,1,160,8|8
246,273,118998,2,0,B|284:231|286:158|243:114,1,160,8|8
188,173,119398,2,0,B|201:216|159:252,1,80,0|8
109,188,119664,1,0
87,265,119798,1,8
138,325,119931,1,0
214,346,120064,2,0,B|264:361|343:359|397:337,1,160,8|8
442,200,120598,5,8
324,92,120864,1,8
258,238,121131,1,8
194,189,121264,1,0
129,140,121398,1,8
65,94,121531,6,0,B|89:56|145:47|183:82,1,120,8|2
183,82,122198,1,0
195,92,122464,1,2
207,101,122731,6,0,B|236:132|300:126,1,80,2|0
397,201,122998,2,0,B|458:194|503:236,1,80,10|0
311,210,123264,2,0,B|257:218|184:208|157:165,1,160,2|8
124,100,123664,1,2
346,137,123931,1,2
311,210,124064,1,8
252,264,124198,1,0
178,295,124331,2,0,B|126:315|53:307|19:273,1,160,2|8
124,100,124864,6,0,B|168:104|219:83,1,80,2|0
279,64,125131,2,0,B|326:47|365:55,1,80,10|0
433,80,125398,2,0,B|473:100|484:143,1,80,2|0
471,218,125664,1,8
432,288,125798,2,0,B|393:313|338:300,1,80,2|0
277,283,126064,1,0
197,271,126198,2,0,B|147:265|95:288,2,80,10|0|2
106,139,126731,2,0,B|148:124|202:132,1,80,8|0
307,202,126998,6,0,B|352:212|399:205,1,80,2|0
312,58,127264,2,0,B|271:44|226:53,1,80,10|0
106,138,127531,2,0,B|160:128|228:124|275:130,1,160,2|8
307,202,127931,1,2
137,61,128198,1,0
106,138,128332,1,10
111,217,128464,1,0
144,289,128598,2,0,B|166:328|241:351|297:337,1,160,2|8
390,216,129131,5,0
358,142,129264,1,0
325,69,129398,1,10
173,119,129664,2,0,B|131:140|74:133,1,80,0|2
118,57,129931,1,8
173,119,130064,2,0,B|200:155|280:176|344:149|343:149,1,160,2|0
396,125,130464,1,8
464,166,130598,1,0
447,243,130731,2,0,B|427:328,2,80,2|0|8
300,177,131264,6,0,B|256:152|178:152|120:190,2,160,4|8|0
226,319,132064,1,10
185,249,132198,1,0
252,290,132331,1,2
182,329,132464,1,2
146,256,132598,2,0,B|150:212|193:191,1,80,8|0
228,262,132864,2,0,B|278:232|299:171|264:119,1,160,2|8
96,156,133398,5,2
31,203,133531,1,0
96,156,133664,1,10
82,76,133798,1,0
96,156,133931,2,0,B|191:187,1,80,2|0
248,204,134198,1,8
326,188,134331,2,0,B|384:174|450:200|467:239,1,160,2|0
495,313,134731,1,10
340,355,134998,1,0
206,268,135264,2,0,B|158:266|130:304,1,80,8|0
196,348,135531,5,2
134,297,135664,1,0
112,220,135798,2,0,B|105:176|130:137,1,80,10|0
197,105,136064,1,2
267,67,136198,2,0,B|288:112|259:156|258:156,1,80,0|8
196,186,136464,2,0,B|222:236|296:242|337:185,1,160,2|2
374,124,136864,1,8
393,46,136998,1,0
451,100,137131,2,0,B|465:145|425:188,1,80,2|0
332,276,137398,5,8
258,306,137531,2,0,B|210:323|161:302,1,80,2|0
347,198,137798,5,0
406,251,137931,2,0,B|426:296|378:343,1,80,10|0
287,146,138198,5,0
363,124,138331,2,0,B|419:132|425:190,1,80,2|8
272,227,138598,6,0,B|228:282|164:192|120:252,1,160,2|2
92,320,138998,1,10
44,256,139131,1,0
77,183,139264,2,0,B|113:148|189:134|241:182,1,160,0|8
326,295,139798,6,0,B|351:331|436:341|485:316,2,160,4|8|0
418,164,140598,1,10
373,97,140731,1,0
340,169,140864,1,2
404,120,140998,1,0
330,89,141131,2,0,B|285:78|247:106,1,80,8|0
305,162,141398,2,0,B|262:189|192:191|126:153,1,160,2|8
30,59,141931,5,2
86,115,142064,1,0
108,192,142198,2,0,B|120:240|93:282,1,80,10|0
33,226,142464,1,2
23,305,142598,2,0,B|41:342|91:348,1,80,0|8
161,319,142864,2,0,B|203:292|284:286|338:310,1,160,2|0
394,320,143264,1,10
394,320,143531,1,0
464,176,143798,2,0,B|369:162,1,80,8|0
255,90,144064,6,0,B|350:104,1,80,2|0
440,195,144331,2,0,B|345:181,1,80,10|0
231,68,144598,2,0,B|400:96,1,160,2|8
468,107,144998,1,2
262,147,145264,2,0,B|276:188|248:232,1,80,2|8
204,288,145531,1,0
84,240,145664,6,0,B|75:195|108:153,1,80,2|0
207,84,145931,2,0,B|244:58|297:71,1,80,10|0
426,188,146198,6,0,B|389:211|336:206,2,80,0|0|10
311,299,146731,1,0
232,314,146864,1,0
259,238,146998,1,10
285,162,147131,2,0,B|301:115|301:116,10,40,2|0|0|0|0|0|0|0|0|0|0
132,113,148064,2,0,B|134:105|134:105|127:102|127:102|137:97|137:97|129:95|129:95|140:90|140:90|132:87|132:87|142:82|142:82|137:76|137:76|145:75|145:75|148:66,1,80,4|0
327,47,148331,5,6
377,109,148464,1,2
394,187,148598,2,0,B|407:242|369:300|296:308,1,160,10|10
230,167,149131,1,2
296,122,149264,1,8
377,109,149398,1,2
452,133,149531,1,2
492,201,149664,2,0,B|505:242|482:288,1,80,10|0
430,337,149931,2,0,B|385:369|300:371|249:343,1,160,10|0
78,232,150464,6,0,B|132:224|166:188,1,80,10|2
209,146,150731,2,0,B|242:112|296:111,1,80,10|0
359,100,150998,1,10
250,216,151264,1,2
209,146,151398,1,10
198,66,151531,2,0,B|143:76|129:132,1,80,2|0
143,191,151798,2,0,B|156:248|128:305|78:332,1,160,10|8
83,328,152198,1,0
83,328,152331,1,0
297,256,152598,5,4
408,141,152864,2,0,B|356:148|310:119,1,80,10|0
265,81,153131,1,0
201,32,153264,2,0,B|158:16|105:24,1,80,2|8
44,42,153531,2,0,B|-24:76|108:152|24:186,1,160,2|0
89,239,153931,1,10
201,353,154198,1,0
359,332,154464,1,8
453,202,154731,6,0,B|477:159|458:123,1,80,2|0
391,82,154998,2,0,B|360:118|384:160,1,80,10|0
459,125,155264,2,0,B|484:86|465:45,1,80,2|0
400,3,155531,1,8
326,33,155664,2,0,B|295:61|212:72|169:55,1,160,2|2
97,29,156064,1,8
47,92,156198,1,0
89,159,156331,1,2
165,135,156464,1,0
150,213,156598,2,0,B|178:295,1,80,8|0
206,314,156798,1,0
244,324,156864,5,10
325,331,156998,1,2
404,310,157131,2,0,B|453:292|484:220|468:165,1,160,10|10
310,188,157664,1,2
302,268,157798,1,10
247,324,157931,2,0,B|210:352|160:345,1,80,2|0
191,268,158198,2,0,B|238:235|313:242|331:320,1,160,10|10
325,301,158731,1,0
113,249,158998,5,10
133,171,159131,1,2
175,103,159264,2,0,B|210:61|274:48|329:68|329:69,1,160,10|10
279,221,159798,1,2
199,218,159931,1,8
134,171,160064,2,0,B|94:143|97:102,1,80,2|2
176,103,160331,2,0,B|219:125|304:104|329:57,1,160,8|10
455,155,160864,1,2
385,305,161131,6,0,B|327:336|277:284|277:284|226:339|151:305,1,240,4|8
99,267,162064,1,0
171,232,162198,1,2
105,186,162331,1,0
177,153,162464,1,8
249,119,162598,2,0,B|307:88|357:140|357:140|408:85|483:119,1,240,2|8
428,182,163131,1,0
481,241,163264,6,0,B|445:274|388:255,1,80,2|0
251,192,163531,2,0,B|287:159|344:178,1,80,10|0
185,310,163798,2,0,B|149:343|92:324,1,80,2|0
63,135,164065,2,0,B|99:102|156:121,1,80,10|0
251,192,164331,6,2,B|299:208|375:188|403:156,3,160,8|8|8|8
101,149,165398,6,0,B|95:197|140:240,1,80,2|0
185,274,165664,1,8
259,304,165798,2,0,B|305:325|391:315|435:264,1,160,2|0
457,218,166198,1,10
466,138,166331,1,0
452,59,166464,6,0,B|403:71|392:119,1,80
327,264,166731,2,0,B|295:303|239:306,1,80,10|0
79,232,166998,2,0,B|25:216|-3:144|43:91,1,160,2|8
235,125,167531,6,0,B|288:123|312:168,1,80,2|2
329,233,167798,1,8
404,260,167931,2,0,B|395:316|296:332|259:274,1,160,0|2
220,226,168331,1,8
143,204,168464,1,0
88,262,168598,5,0
165,282,168731,1,2
65,184,168864,5,8
122,127,168998,1,0
275,170,169131,6,0,B|314:192|412:177|446:128,1,160,2|8
327,12,169664,5,2
250,35,169798,2,0,B|253:86|206:127,1,80,0|8
168,51,170064,2,0,B|132:87|139:129|139:129|134:85|69:68,1,160,2|2
92,76,170464,1,8
62,150,170598,1,0
224,108,170731,6,0,B|279:91|340:104,1,80,2|0
469,199,170998,2,0,B|428:220|363:210,1,80,10|0
260,303,171264,2,0,B|211:315|125:315|73:305,1,160,2|8
178,124,171798,5,2
244,168,171932,2,0,B|288:186|293:240|290:243,1,80,0|8
212,243,172198,2,0,B|224:291|266:306|266:306|223:291|184:331,1,160,0|2
124,353,172598,1,8
52,317,172731,1,0
33,239,172864,6,0,B|14:140,1,80,2|0
179,124,173131,2,0,B|160:223,1,80,10|0
304,288,173398,2,0,B|323:189,1,80,4|0
435,93,173664,2,0,B|454:192,1,80,8|0
421,246,173931,5,2
380,314,174064,1,0
304,287,174198,1,8
266,358,174331,2,0,B|213:333|208:247|265:208,1,160,2|0
320,181,174731,1,10
397,199,174864,1,0
452,257,174998,6,0,B|449:302|409:322,1,80
266,358,175264,2,0,B|212:363|171:328,1,80,10|0
59,259,175531,2,0,B|25:211|32:143|67:109,1,160,2|8
228,204,176064,6,0,B|252:239|324:223,2,80,2|2|8
286,148,176464,2,0,B|232:309,1,160,0|2
208,375,176864,1,10
159,310,176998,1,0
134,233,177131,6,0,B|126:187|164:144,1,80,0|2
244,44,177398,2,0,B|253:90|221:117,1,80,8|0
161,65,177664,2,0,B|340:108,1,160,2|8
390,289,178198,6,0,B|353:316|291:316,1,80,2|0
235,318,178464,2,0,B|187:323|142:293,1,80,8|0
438,221,178864,1,2
377,168,178998,1,8
299,148,179131,1,0
136,192,179264,6,0,B|88:212|77:266,1,80,2|0
255,210,179531,2,0,B|302:189|300:133,1,80,10|0
465,51,179798,2,0,B|405:60|367:122|379:192,1,160,2|8
392,246,180198,1,0
299,335,180331,6,0,B|202:350,1,80,2|0
141,364,180598,1,8
10,315,180731,6,0,B|107:300,1,80,2|0
168,289,180998,1,0
274,197,181131,6,0,B|177:212,1,80,10|0
113,221,181398,6,0,B|103:174|156:134,1,80,2|0
275,197,181664,2,0,B|283:242|249:271,1,80,2|0
226,119,181931,2,0,B|224:70|284:40,1,80,4|0
349,179,182198,2,0,B|352:220|313:248,1,80
356,103,182464,6,0,B|408:111|432:170,1,80,2|0
439,224,182731,2,0,B|443:271|407:293,1,80,8|2
280,85,183131,2,0,B|225:75|176:117,1,80,2|8
172,172,183398,1,0
136,243,183531,6,0,B|98:268|48:244,1,80
127,108,183798,2,0,B|165:79|212:104,1,80,10|0
325,147,184064,2,0,B|285:180|201:189|151:165,1,160,2|8
399,177,184598,6,0,B|482:209,1,80,2|0
336,228,184864,2,0,B|387:308,1,80,10|0
252,240,185131,2,0,B|241:328|242:328,1,80,2|0
176,211,185398,2,0,B|121:287,1,80,10|0
127,140,185664,5,0
200,44,185798,1,2
319,31,185931,1,8
426,84,186064,1,0
472,195,186198,2,0,B|472:254|416:304|351:298,1,160,2|8
97,263,186731,6,0,B|53:228|76:168,1,80,2|0
148,207,186998,1,8
225,226,187131,2,0,B|232:174|192:137,1,80,2|0
127,129,187398,1,2
185,74,187531,1,10
260,99,187664,1,0
412,148,187798,6,0,B|455:172|503:153,1,80,2|0
339,125,188064,2,0,B|314:170|362:209,1,80,10|0
395,72,188331,2,0,B|350:30|277:46|255:109,1,160,2|8
231,172,188731,1,0
229,251,188864,6,0,B|235:297|286:310|286:309,1,80,2|0
303,230,189131,1,8
356,289,189264,2,0,B|394:256|377:200,1,80,2|0
331,153,189531,1,2
265,107,189664,1,8
184,100,189798,1,0
110,131,189931,6,0,B|32:165,1,80,2|0
300,212,190198,2,0,B|222:246,1,80,10|0
347,77,190464,2,0,B|425:111,1,80,4|0
227,244,190731,2,0,B|305:278,1,80,8|0
375,305,190998,5,2
449,277,191131,1,0
478,202,191264,1,8
467,122,191398,2,0,B|447:71|382:46|328:51,1,160,2|2
254,58,191798,1,8
186,100,191931,1,0
153,173,192064,6,0,B|119:208|56:201,1,80,2|0
259,137,192331,2,0,B|295:162|353:156|352:156,1,80,8|0
157,25,192598,2,0,B|197:73|186:149|129:200,1,160,2|8
78,202,192998,1,0
63,280,193131,6,0,B|93:308|151:305,1,80,2|0
216,293,193398,1,10
292,270,193531,2,0,B|343:252|396:309|463:270,1,160
492,209,193931,1,10
467,132,194064,1,0
412,73,194198,5,0
334,53,194331,1,2
179,71,194464,5,10
257,91,194597,1,0
385,192,194731,6,0,B|371:237|300:276|245:257,1,160,4|8
187,213,195131,1,0
112,108,195264,5,2
84,183,195398,2,0,B|81:236|139:268,1,80,0|8
168,192,195664,2,0,B|188:233|271:256|326:248,1,160,2|2
389,238,196064,1,8
456,194,196198,1,0
479,91,196331,6,0,B|429:89|407:135,1,80,2|0
311,250,196598,2,0,B|279:289|218:278,1,80,10|0
74,251,196864,2,0,B|16:216|10:144|52:100,1,160,2|8
97,53,197264,1,0
176,65,197398,6,0,B|280:79,1,80,2|0
116,239,197664,2,0,B|101:160,1,80,10|0
313,260,197931,2,0,B|242:297,1,80,2|0
376,126,198198,2,0,B|433:181,1,80,10|0
496,240,198464,5,2
216,344,198731,1,10
16,144,198998,1,2
296,40,199264,1,12
360,192,199531,5,2
360,192,199598,1,2
360,192,199664,1,2
280,192,199798,1,2
200,192,199931,2,0,B|144:192,1,40,2|4
