osu file format v9

[General]
AudioFilename: koiritu houteisiki.mp3
AudioLeadIn: 500
PreviewTime: 43071
Countdown: 0
SampleSet: Normal
StackLeniency: 0.7
Mode: 0
LetterboxInBreaks: 0

[Editor]
Bookmarks: 1727,15660,29473,43286,57099,70912,84725,98538,112351,126164,139977,146883,167603,181416,195229
DistanceSpacing: 1.2
BeatDivisor: 4
GridSize: 8

[Metadata]
Title:Renritsu Houteishiki
Artist:Hatsune Miku
Creator:S o r d a
Version:Insane
Source:papiyon
Tags:Apricot Thite mizuki m_i_z_u_k_i y_u_c_a yuca sorda CyoucyouP vocaloid collab collaboration

[Difficulty]
HPDrainRate:7
CircleSize:4
OverallDifficulty:7
ApproachRate:8
SliderMultiplier:1.8
SliderTickRate:1

[Events]
//Background and Video events
0,0,"BG.jpg"
//Break Periods
2,71112,83975
2,126364,139227
//Storyboard Layer 0 (Background)
//Storyboard Layer 1 (Fail)
//Storyboard Layer 2 (Pass)
//Storyboard Layer 3 (Foreground)
Sprite,Foreground,Centre,"SB\clb-sorda.png",320,240 F,0,1848,2711,0,1 M,0,1848,16092,91,262 F,0,2711,15876,1 S,1,15660,16092,1,0.2831998 F,0,15876,16092,1,0
Sprite,Foreground,Centre,"SB\clb-mizuki.png",320,240 F,0,15660,15876,0,1 S,1,15660,16092,1.8192,1 M,0,15660,29042,94,265 F,0,15876,29473,1 M,2,29042,29905,94,265,161,265 F,0,29473,29905,1,0
Sprite,Foreground,Centre,"SB\clb-apricot.png",320,240 M,1,29473,29905,42,260,88,260 F,0,29473,29905,0,1 F,0,29905,43286,1 M,0,29905,43934,88,260 F,0,43286,43934,1,0 S,1,43286,43934,1,1.78848
Sprite,Foreground,Centre,"SB\clb-sorda.png",320,240 F,0,43286,43718,0,1 S,1,43286,44150,1.89088,1 R,1,43286,44150,-0.3072,-1.481482E-05 M,0,43286,57531,89,257 F,0,43718,57315,1 V,1,57099,57531,1,1,1.83968,0.1 F,0,57315,57531,1,0
Sprite,Foreground,Centre,"SB\clb-mizuki.png",320,240 V,1,57099,57531,1.39936,0.1,1,1 M,0,57099,71344,86,230 S,0,57531,70912,1 F,0,70912,71344,1,0 S,1,70912,71344,1,1.512
Sprite,Foreground,Centre,"SB\clb-apricot.png",320,240 M,2,84725,85157,84,229,84,257 F,0,84725,85157,0,1 F,0,85157,98538,1 M,0,85157,98970,84,257 F,0,98538,98970,1,0 S,1,98538,98970,1,1.69632
Sprite,Foreground,Centre,"SB\clb-sorda.png",320,240 F,0,98538,98970,0,1 S,1,98538,98970,0.4163202,1 M,0,98538,112351,86,257 S,0,98970,111488,1 F,0,98970,111919,1 S,2,111488,112351,1,1.99328 R,2,111488,112351,0,-0.2047998 F,0,111919,112351,1,0
Sprite,Foreground,Centre,"SB\clb-apricot.png",320,240 R,0,112351,,0 F,0,112351,112783,0,1 V,1,112351,112783,1.48128,0.1,1,1 M,0,112351,127027,86,257 F,0,126164,127027,1,0 S,1,126164,127027,1,1.768
Sprite,Foreground,Centre,"SB\clb-apricot.png",320,240 F,0,139977,140409,0,1 M,1,139977,140840,20,259,85,259 F,0,140409,146452,1 M,0,140840,146883,85,259 F,0,146452,146883,1,0 S,2,146452,146883,1,1.60416
Sprite,Foreground,Centre,"SB\clb-sorda.png",320,240 F,0,146452,146883,0,1 S,1,146452,146883,1.74752,1 M,0,146452,168035,86,259 F,0,146883,167603,1 S,0,146883,167603,1 F,0,167603,168035,1,0 S,1,167603,168035,1,2.00352
Sprite,Foreground,Centre,"SB\clb-mizuki.png",320,240 F,0,167603,168035,0,1 M,0,167603,181848,86,262 F,0,168035,181632,1 S,2,181416,181848,1,0.3344003 F,0,181632,181848,1,0
Sprite,Foreground,Centre,"SB\clb-apricot.png",320,240 F,0,181416,181848,0,1 S,1,181416,181848,1.68608,1 M,0,181416,195229,86,258 S,0,181848,194365,1 F,0,181848,194797,1 S,2,194365,195229,1,1.58368 F,0,194797,195229,1,0
Sprite,Foreground,Centre,"SB\clb-mizuki.png",320,240 F,0,195229,195660,0,1 S,1,195229,195660,1.4096,1 M,0,195229,209905,86,261 F,0,195660,207531,1 S,0,195660,207531,1 F,0,207531,209905,1,0 S,2,207531,209905,1,1.83968
//Storyboard Sound Samples
//Background Colour Transformations
3,100,163,162,255

[TimingPoints]
1848,431.654676258993,4,2,1,60,1,0
42207,-200,4,2,1,60,0,0
43286,-100,4,2,1,60,0,1
57099,-100,4,2,1,60,0,0
70049,-100,4,1,0,70,0,0
70912,-100,4,2,1,60,0,0
91632,-133.333333333333,4,2,1,60,0,0
95517,-100,4,2,1,60,0,0
97459,-200,4,2,1,60,0,0
98322,-100,4,2,1,60,0,0
98538,-100,4,2,1,60,0,1
112351,-100,4,2,1,60,0,0
166452,-200,4,2,1,30,0,0
167279,-100,4,2,1,60,0,0
167603,-100,4,2,1,60,0,1
181308,-100,4,2,1,60,0,0
181416,-100,4,2,1,60,0,1
195229,-200,4,2,1,60,0,0
203754,-200,4,2,1,40,0,0
207423,-200,4,2,1,20,0,0
207639,-100,4,2,1,60,0,0
208178,-100,4,2,1,40,0,0
209042,-100,4,2,1,20,0,0
209905,-100,4,2,1,10,0,0

[Colours]
Combo1 : 255,150,0
Combo2 : 128,255,255
Combo3 : 255,128,255
Combo4 : 255,128,128

[HitObjects]
224,64,1848,1,2
136,128,2063,1,0
120,232,2279,1,0
176,320,2495,1,0
280,336,2711,1,2
328,312,2819,1,0
352,264,2927,1,0
336,160,3142,1,2
276,72,3358,6,0,B|232:40|184:48,1,90
133,138,3790,1,0
180,232,4006,1,2
205,279,4114,1,0
256,304,4222,1,0
307,313,4330,1,0
360,305,4437,1,2
424,224,4653,1,0
364,136,4869,1,0
272,80,5085,1,2
164,100,5301,5,0
96,184,5516,1,0
96,184,5624,1,0
96,184,5732,1,0
204,180,5948,2,0,B|276:176|316:192,1,90,0|2
264,288,6380,2,0,B|172:256|56:312,1,180
32,204,7027,5,2
116,136,7243,1,0
223,144,7459,1,0
316,88,7676,1,0
401,153,7891,1,2
332,235,8106,2,0,B|267:206,2,45
226,259,8538,6,0,B|178:260|135:229,1,90,0|2
174,130,8970,1,0
278,104,9186,1,0
361,172,9401,1,0
401,207,9509,1,2
279,314,9833,2,0,B|225:328|171:312,1,90,0|2
129,226,10265,6,0,B|107:161|144:120,1,90
223,83,10696,1,0
269,54,10804,1,0
322,50,10912,1,2
424,85,11128,1,0
462,123,11236,1,0
478,174,11344,1,2
371,250,11560,2,0,B|328:264|265:244,1,90
462,123,11991,1,0
323,49,12207,6,0,B|190:203,1,180,2|0
256,360,12855,2,0,B|389:206,1,180,2|0
256,192,13502,1,0
256,192,13718,1,0
256,192,13934,12,0,15229
72,88,15445,5,0
72,88,15660,2,0,B|112:64|160:64,1,90,4|0
256,24,16092,2,0,B|232:72|240:144,1,90,8|0
256,152,16416,2,0,B|336:152|400:224,1,135
456,272,16955,1,8
352,312,17171,1,0
316,316,17279,1,0
280,312,17387,6,0,B|232:316|188:296,2,90,0|0|8
240,208,18035,1,0
240,208,18142,2,0,B|272:128|232:40,1,135
152,16,18682,2,0,B|136:64|160:128,1,90,8|0
164,140,19006,1,0
152,172,19114,6,0,B|56:204,2,90,0|0|8
252,136,19761,1,0
252,136,19869,2,0,B|224:208|268:288,1,135
216,368,20409,1,8
324,336,20624,1,0
356,320,20732,1,0
392,312,20840,6,0,B|444:304|488:328,2,90,0|0|8
320,224,21488,1,0
320,224,21596,1,8
392,144,21812,1,0
392,144,21920,1,0
392,144,22028,1,0
392,144,22135,1,4
320,224,22351,1,0
232,96,22567,6,0,B|320:88,1,90,4|0
128,112,22999,1,8
24,128,23214,1,0
24,128,23322,2,0,B|64:200|8:272,1,135
64,360,23862,1,8
144,288,24078,1,0
160,256,24186,1,0
168,220,24294,6,0,B|176:172|156:128,2,90,8|0|8
272,184,24941,1,0
272,184,25049,2,0,B|264:264|312:328,1,135
312,88,25589,1,8
312,88,25804,2,0,B|260:76,2,45
272,184,26236,5,0
368,232,26452,1,8
302,313,26668,1,0
301,313,26776,2,0,B|264:264|272:184,1,135
176,124,27315,2,0,B|124:112,2,45,8|0|0
204,100,27639,5,0
240,88,27747,1,2
276,92,27855,1,0
308,108,27963,1,2
332,136,28071,1,0
344,172,28178,1,4
248,220,28394,5,0
256,256,28502,2,0,B|296:320|384:328,1,135,4|0
408,224,29042,1,8
296,192,29258,1,4
296,192,29473,6,0,B|344:200|364:244,1,90,4|0
264,284,29905,2,0,B|220:312|180:284,1,90,8|0
192,248,30229,1,0
184,212,30337,2,0,B|228:184|268:212,1,90
424,64,30768,5,8
424,64,30984,1,0
356,148,31200,2,0,B|332:192|280:184,1,90
280,76,31632,1,8
308,288,31848,1,0
256,304,31956,1,0
204,288,32063,2,0,B|152:280|140:228,1,90
108,128,32495,2,0,B|92:84,2,45,8|0|12
212,156,32927,6,0,B|260:168|272:216,1,90,0|0
168,244,33358,2,0,B|120:232|108:184,1,90,8|0
108,128,33682,2,0,B|124:92|124:92|176:92|212:60,1,135
300,124,34222,5,8
216,324,34437,1,0
300,124,34653,1,0
300,124,34869,1,0
408,144,35085,2,0,B|400:200|360:216,1,90,12|0
308,228,35409,1,0
256,216,35517,2,8,B|204:204,2,45
300,124,35948,2,0,B|256:96|216:124,1,90,12|0
40,252,36380,6,0,B|84:224,2,45
80,120,36812,2,0,B|108:76|160:80,1,90,8|0
172,188,37243,1,0
204,292,37459,1,0
256,308,37567,1,0
308,292,37674,2,0,B|360:284|372:232,1,90,8|0
429,93,38106,6,0,B|413:133,2,45
320,72,38538,2,0,B|268:72|240:112,1,90,8|0
324,180,38970,1,0
344,232,39078,1,0
328,284,39186,1,0
292,324,39294,1,0
240,340,39401,2,0,B|196:336,2,45,8|8|4
232,232,39833,6,0,B|196:136|84:160,1,180,4|8
120,264,40481,2,0,B|88:304|44:304,2,90,8|0|8
88,160,41128,2,0,B|108:116|164:112,1,90,8|0
264,92,41560,1,8
316,96,41668,1,0
364,116,41776,1,8
392,164,41883,1,0
408,216,41991,1,2
388,264,42099,1,0
356,308,42207,2,0,B|296:380|188:344,1,180,4|0
180,143,43286,5,4
288,120,43502,1,0
392,152,43718,1,2
426,193,43826,1,0
443,244,43934,1,2
435,297,44042,1,0
409,344,44150,1,2
308,316,44365,2,0,B|252:308,2,45,0|0|4
248,224,44797,6,0,B|192:180|148:192,1,90,0|2
200,84,45229,2,0,B|268:68|312:84,1,90,2|0
368,156,45660,1,0
352,264,45876,2,0,B|288:328|176:300,1,180,0|4
124,212,46524,2,0,B|88:160,2,45,0|0|4
224,168,46955,1,0
313,229,47171,2,0,B|361:205|449:205,1,135,2|0
252,272,47820,5,2
144,276,48035,1,0
48,224,48251,1,2
64,128,48466,2,0,B|84:68,2,45,0|8|0
116,140,48790,1,0
168,156,48898,1,8
220,136,49006,1,0
268,160,49114,1,8
376,168,49330,2,0,B|432:204,2,45,0|8|0
372,276,49761,1,8
268,300,49977,6,0,B|248:240,2,45,2|0|4
160,312,50409,2,0,B|108:312|68:292,1,90,0|8
108,192,50840,1,0
172,104,51056,2,0,B|196:72|252:44,2,90,0|0|4
272,144,51704,1,2
324,156,51812,1,0
376,168,51919,1,4
324,260,52135,6,0,B|284:288|232:280,1,90,0|2
140,240,52567,1,0
92,220,52675,2,0,B|32:164|36:100,1,135,2|0
144,96,53214,1,8
252,80,53430,2,0,B|300:64|344:76,1,90,0|2
300,176,53862,2,0,B|304:224|348:260,2,90,0|2|0
248,168,54401,1,0
100,100,54725,5,4
60,136,54833,1,0
68,188,54941,1,2
140,268,55157,2,0,B|188:292|248:288,1,90
336,272,55589,2,0,B|432:324,1,90,0|8
388,100,56020,2,0,B|492:36,1,90,0|8
388,100,56452,5,0
304,32,56668,1,8
216,96,56883,1,0
256,192,57099,5,0
256,192,57207,1,0
256,192,57315,1,2
256,80,57531,1,0
256,80,57639,1,2
256,192,57855,1,0
256,192,57963,1,2
344,136,58178,1,2
344,136,58286,1,0
256,192,58502,1,0
256,192,58610,1,2
344,248,58826,5,2
344,248,58934,1,0
344,248,59042,1,2
256,192,59258,1,0
256,192,59365,1,2
256,304,59581,1,2
256,304,59689,1,0
256,192,59905,1,2
256,192,60013,1,0
168,248,60229,1,0
168,248,60337,1,2
256,192,60553,5,0
256,192,60660,1,0
256,192,60768,1,2
168,136,60984,1,0
168,136,61092,1,2
344,136,61308,1,0
344,136,61416,1,2
184,224,61632,1,2
184,224,61740,1,0
328,224,61955,1,0
328,224,62063,2,0,B|376:240|424:216,1,90,2|0
272,136,62495,5,4
168,168,62711,1,2
168,168,62819,2,0,B|120:184|80:168,1,90
48,144,63142,1,4
120,64,63358,1,0
120,64,63466,1,2
224,96,63682,1,2
224,96,63790,1,4
320,48,64006,5,0
320,48,64114,1,0
320,48,64222,1,2
440,160,64437,1,0
440,160,64545,1,2
288,216,64761,1,0
288,216,64869,1,2
392,336,65085,2,0,B|416:376,1,45,2|0
288,216,65409,2,0,B|264:176,1,45,0|6
136,80,65732,5,2
111,111,65840,1,0
102,150,65948,1,2
200,272,66164,1,2
200,272,66272,1,0
56,344,66488,1,0
56,344,66596,1,2
24,184,66812,2,0,B|16:136,1,45,2|0
176,96,67135,2,0,B|192:48,1,45,0|6
264,200,67459,5,0
264,200,67567,1,0
264,200,67675,1,2
112,352,67891,1,8
112,352,67999,1,2
320,312,68214,1,0
320,312,68322,1,2
120,232,68538,1,2
120,232,68646,1,8
264,200,68862,1,0
264,200,68970,1,2
432,136,69186,5,0
396,124,69294,1,2
372,100,69401,1,0
356,68,69509,1,0
360,28,69617,5,8
332,60,69725,1,0
296,76,69833,1,0
256,84,69941,1,8
216,64,70049,5,0
172,52,70157,1,0
128,60,70265,1,0
88,84,70373,1,0
68,128,70481,5,0
64,180,70589,1,0
80,236,70696,1,0
128,280,70804,1,0
192,296,70912,1,4
148,136,84725,5,4
248,96,84941,1,0
148,136,85157,1,8
96,228,85373,1,0
100,280,85481,1,0
140,320,85589,2,0,B|164:364|216:360,1,90
408,268,86020,2,0,B|316:268,1,90,8|0
148,136,86452,6,0,B|80:76,2,90,0|0|8
184,240,87099,1,0
184,240,87207,2,0,B|256:276|316:240,1,135
256,32,87747,2,0,B|256:132,1,90,8|0
256,232,88178,5,0
176,304,88394,1,0
256,232,88610,1,8
356,272,88826,1,0
456,228,89042,1,0
432,124,89258,1,0
344,60,89473,2,0,B|312:28|260:36,1,90,8|0
272,144,89905,2,0,B|260:192|212:212,2,90,0|0|8
168,108,90553,5,0
336,244,90769,1,8
336,244,90876,1,0
336,244,90984,1,8
336,244,91092,1,0
336,244,91200,1,8
336,244,91416,1,0
420,312,91632,5,4
128,72,92495,1,8
128,72,92927,1,0
20,152,93358,2,0,B|60:216|136:208,1,134.999995976687,4|0
248,284,94222,1,8
344,188,94653,2,8,B|368:160,3,33.7499989941716
344,188,95085,6,0,B|276:220|212:180,1,134.999995976687,12|0
160,88,95732,1,2
80,168,95948,1,0
160,88,96164,1,2
260,68,96380,1,0
348,128,96596,1,2
372,232,96812,5,8
368,284,96920,1,0
348,332,97028,1,8
300,360,97135,1,0
248,376,97243,1,8
200,356,97351,1,0
156,324,97459,2,0,B|88:280|108:204,1,135,4|0
212,236,98322,5,0
320,232,98538,2,0,B|362:202|376:148,1,90,12|0
248,112,98970,1,0
372,160,99186,2,0,B|372:112|336:76,1,90,8|0
248,112,99617,1,8
248,112,99725,1,0
248,112,99833,1,4
140,104,100049,2,0,B|140:156|192:184,1,90,8|0
316,148,100481,1,8
184,180,100696,2,0,B|224:208|292:196,1,90,0|8
240,304,101128,2,0,B|144:272|60:316,1,180,0|4
60,204,101776,6,0,B|36:152,2,45,0|2|4
124,116,102207,2,0,B|164:100|164:100,1,45,8|0
220,112,102423,2,0,B|280:128|276:128,1,45,2|0
312,144,102639,2,0,B|368:172,1,45,8|0
360,220,102855,1,2
244,292,103071,6,0,B|196:292|159:328,1,90,4|0
361,221,103502,1,2
208,180,103718,2,0,B|156:200|96:176,1,90,0|8
268,80,104150,2,0,B|320:100|380:76,1,90,2|8
400,116,104473,1,0
432,160,104581,1,0
448,212,104689,1,0
440,264,104797,1,8
408,308,104905,1,0
360,336,105013,1,8
264,284,105229,5,8
209,281,105337,1,0
156,268,105445,1,4
48,264,105660,2,0,B|56:212|40:172,1,90
120,100,106092,2,0,B|172:92|212:48,1,90,8|0
304,96,106524,1,2
360,96,106632,1,0
408,72,106740,1,2
428,176,106955,6,0,B|384:208|376:260,1,90
276,280,107387,2,0,B|240:320|180:320,1,90,8|0
200,212,107819,1,8
96,244,108035,2,0,B|96:116|228:108|228:108,1,180,0|8
296,68,108682,6,0,B|352:108,1,45,4|0
348,148,108898,1,2
284,232,109114,2,0,B|232:252|216:320,1,90,0|8
223,295,109545,2,0,B|175:315|107:283,1,90,0|0
120,188,109977,2,0,B|92:136,2,45,0|2|4
172,92,110409,2,0,B|216:68|288:96,1,90,0|2
259,86,110840,2,0,B|307:106|374:74,1,90
347,85,111272,2,0,B|391:61|463:89,1,90,0|8
412,188,111704,6,0,B|452:144,2,45,8|0|8
365,160,112027,1,0
310,160,112135,1,8
256,168,112243,1,0
215,200,112351,1,4
304,260,112567,5,0
212,64,112783,1,0
256,36,112890,1,0
308,32,112998,1,0
360,40,113106,2,0,B|392:40|408:60,1,45,2|4
412,160,113430,2,2,B|444:168,2,22.5
412,160,113646,5,0
288,336,113862,1,0
84,268,114078,2,0,B|-4:232,2,90,0|2|0
84,268,114725,1,0
132,288,114833,1,2
132,288,115157,5,0
352,52,115373,1,4
132,288,115589,1,0
228,236,115804,6,0,B|276:216|280:168,1,90,0|2
176,140,116236,1,2
104,60,116452,2,0,B|64:20,1,45,0|4
72,28,116883,5,4
176,216,117099,1,0
380,148,117315,1,2
176,216,117531,5,0
248,296,117747,1,2
356,284,117963,1,2
440,216,118178,1,0
440,216,118286,1,4
440,216,118610,5,2
256,104,118826,1,0
72,216,119042,1,0
172,260,119258,6,0,B|164:320,1,45,2|0
220,264,119473,2,0,B|224:324,1,45
268,256,119689,2,0,B|284:308,1,45,2|2
316,240,119905,2,0,B|352:292,1,45
352,208,120121,5,2
396,176,120229,1,0
420,128,120337,1,2
432,76,120445,1,0
436,24,120553,1,2
404,68,120660,1,2
372,112,120768,1,0
324,136,120876,1,0
272,144,120984,2,0,B|220:148,2,45,0|2|0
324,240,121416,5,0
208,72,121632,2,0,B|180:32,1,45,0|4
208,72,122063,5,4
260,268,122279,1,0
208,284,122387,1,0
156,264,122495,1,2
60,68,122711,5,2
68,120,122819,1,0
88,160,122926,1,2
128,184,123035,1,0
164,168,123142,5,8
188,140,123250,1,0
220,128,123358,1,8
256,132,123466,1,0
284,156,123574,1,2
312,180,123682,1,0
344,192,123790,1,0
384,180,123898,5,0
420,152,124006,1,8
452,112,124114,1,0
464,60,124222,1,8
356,72,124437,6,0,B|312:44,2,45,0|8|0
360,128,124761,2,0,B|316:100,2,45,0|8|0
364,184,125085,2,0,B|336:228,1,45,0|8
304,264,125301,1,0
264,300,125409,1,8
212,320,125517,1,0
160,320,125624,1,8
112,300,125732,5,2
72,264,125840,1,0
56,212,125948,1,2
52,160,126056,1,0
76,112,126164,1,4
148,240,139977,5,2
148,240,140409,1,0
364,240,140840,1,2
364,240,141272,1,0
188,112,141704,5,2
72,296,142135,1,0
324,112,142567,1,2
440,296,142998,1,0
256,184,143430,6,0,B|256:96,2,90,0|2|0
176,256,144078,1,0
72,228,144294,2,0,B|36:264,1,45,2|0
88,164,144617,2,0,B|52:200,1,45,2|0
104,100,144941,1,4
256,324,145373,5,0
352,272,145589,1,2
392,236,145696,1,0
408,184,145804,2,0,B|416:136|384:100,1,90,0|2
336,124,146128,1,0
284,136,146236,2,0,B|268:136|256:120|256:120|240:100|200:100,1,90,0|4
104,288,146883,5,0
312,216,147315,1,2
231,288,147531,2,0,B|171:284|123:320,1,90
133,198,147963,1,0
239,210,148178,1,2
340,172,148394,2,0,B|329:123|290:90,2,90
312,280,149042,1,2
189,77,149258,6,0,B|137:88|101:141,1,90
312,280,149689,2,0,B|364:268|400:216,1,90,0|2
465,158,150121,1,0
381,98,150337,2,0,B|244:37|243:37,1,135,2|0
206,61,150768,1,0
131,144,150984,2,0,B|81:169,2,45,0|0|2
415,299,151848,1,2
408,84,152279,6,0,B|352:60|308:80,1,90,0|2
216,100,152711,1,0
112,132,152927,1,4
176,220,153142,1,8
200,268,153250,1,0
240,304,153358,1,8
344,272,153574,1,0
428,200,153790,6,0,B|436:144|404:112,1,90,4|0
312,60,154222,2,0,B|264:36|216:64,1,90,8|0
180,88,154545,2,0,B|172:152|256:208,1,135
176,288,155085,1,8
80,340,155301,5,0
40,300,155409,1,0
28,248,155517,1,0
128,208,155732,2,0,B|112:156|64:120,1,90,0|2
184,96,156164,1,0
184,96,156272,2,0,B|239:59|326:77,1,135
372,166,156812,1,8
476,132,157027,6,0,B|456:184|488:248,1,90
348,180,157459,1,2
328,228,157567,1,0
336,280,157675,1,2
228,264,157891,6,0,B|208:212|240:148,1,90,8|8
100,216,158323,1,2
80,168,158431,1,0
88,116,158539,1,8
156,32,158754,6,0,B|256:32|320:104,1,180
372,196,159401,1,2
320,176,159509,1,0
264,176,159617,1,2
212,188,159725,1,0
172,224,159833,1,0
156,32,160049,1,2
156,32,160157,1,0
156,32,160265,1,8
256,72,160481,6,0,B|304:36|352:48,1,90,0|2
384,124,160912,2,0,B|408:168|464:172,1,90,0|8
376,244,161344,2,0,B|420:300,2,45,2|0|0
268,256,161776,2,0,B|228:272|156:252,1,90,0|8
116,169,162207,6,0,B|192:169,1,45,2|0
212,151,162423,2,0,B|262:121,1,45,2|0
289,89,162639,1,8
342,78,162747,1,0
393,95,162855,1,8
372,200,163071,2,0,B|440:272,1,90,8|0
328,280,163502,2,0,B|256:276,2,45,8|8|8
251,203,163934,5,2
174,126,164150,1,4
45,299,164581,1,0
148,328,164797,2,0,B|236:362|328:318,1,180,0|8
152,200,165445,6,0,B|152:152,2,45,8|0|8
256,164,165876,1,8
303,138,165984,1,0
356,134,166092,1,8
408,145,166200,1,0
449,180,166308,1,8
473,228,166416,1,0
435,265,166524,2,0,B|363:277|323:337,1,135,8|0
240,360,167387,1,8
216,336,167495,1,8
184,328,167603,6,0,B|136:312|80:336,2,90,4|0|0
144,232,168250,1,0
144,232,168358,2,0,B|216:256|280:232,1,135,2|0
384,240,168898,1,2
448,136,169114,1,8
416,128,169222,1,2
384,128,169330,6,0,B|336:120|272:144,2,90,4|0|0
384,240,169977,1,8
384,240,170085,2,2,B|416:304|376:376,1,135
296,296,170624,1,0
200,344,170840,1,8
200,344,170948,1,0
200,344,171056,6,0,B|104:328,1,90,4|0
16,200,171488,2,0,B|112:216,1,90,4|2
144,224,171812,2,0,B|192:160|160:80,1,135,0|2
256,32,172351,2,0,B|168:16,1,90
56,24,172783,5,0
48,112,172999,1,2
72,208,173214,1,0
152,280,173430,1,2
264,312,173646,2,0,B|344:288|424:344,1,135,8|0
432,352,174078,2,0,B|392:328|376:280,1,90,8|0
368,240,174401,1,8
360,192,174509,6,0,B|360:144|336:96,1,90,4|0
240,152,174941,2,0,B|216:112|176:88,1,90,8|2
128,112,175265,2,0,B|184:64|280:56,1,135,0|2
352,24,175804,1,0
440,88,176020,1,8
432,120,176128,1,0
432,152,176236,6,0,B|432:200|464:248,2,90,4|0|0
328,176,176883,1,8
328,176,176991,2,0,B|264:144|184:152,1,135,2|0
120,232,177531,2,0,B|160:256|224:248,1,90
312,288,177963,5,6
328,176,178178,1,0
280,80,178394,1,2
176,48,178610,1,0
176,48,178718,2,0,B|152:112|184:192,1,135,4|0
328,176,179258,2,0,B|376:160|448:176,1,90,0|2
312,288,179689,5,0
224,280,179905,1,2
136,240,180121,1,0
80,152,180337,1,2
64,32,180553,1,8
100,24,180660,1,0
136,32,180768,1,8
164,52,180876,1,0
176,84,180984,1,8
172,120,181092,1,0
156,152,181200,1,8
136,180,181308,1,0
124,216,181416,6,0,B|132:268|176:284,2,90,4|2|0
268,140,182063,1,2
316,116,182171,2,0,B|388:144|412:208,1,135,4|0
304,224,182711,5,0
456,72,182927,1,2
304,224,183142,2,0,B|272:264|224:264,1,90,4|0
224,156,183574,1,0
344,264,183790,1,2
352,316,183898,2,0,B|312:368|232:364,1,135,4|0
256,260,184437,1,2
256,260,184653,5,0
100,108,184869,1,4
144,208,185085,2,0,B|156:260|120:292,2,90,0|2|0
36,216,185732,5,0
124,80,185948,1,2
280,40,186164,1,4
432,100,186380,1,2
280,40,186596,5,0
224,132,186812,1,2
292,216,187027,1,0
396,180,187243,1,4
388,72,187459,1,0
316,128,187675,5,8
316,144,187783,1,0
316,160,187891,1,8
316,176,187999,1,0
316,192,188106,1,8
316,208,188214,1,0
316,224,188322,1,12
316,324,188538,6,0,B|268:344|224:320,2,90,0|2|0
360,300,189078,2,0,B|408:248|388:172,1,135,4|2
300,216,189617,1,0
176,60,189833,1,2
132,80,189941,1,0
100,116,190049,2,0,B|64:156|76:200,1,90,0|2
172,180,190481,2,0,B|220:188|252:224,1,90,0|2
292,252,190804,2,0,B|356:292|424:252,1,135,4|2
360,176,191344,1,0
432,108,191560,6,0,B|456:68|432:20,2,90,0|2|0
340,68,192207,1,0
284,152,192423,1,8
284,152,192531,2,0,B|216:200|152:168,1,135,4|0
12,36,193071,1,4
12,36,193287,1,2
80,108,193502,5,8
108,148,193610,1,0
148,176,193718,1,8
196,180,193826,1,0
244,164,193934,2,0,B|288:148,3,45,0|0|8|0
332,132,194365,1,0
380,136,194473,1,0
424,160,194581,1,8
456,200,194689,1,0
452,248,194797,1,2
444,296,194905,1,0
416,336,195013,1,2
372,356,195121,1,0
328,360,195229,6,0,B|280:372|224:360,1,90,4|8
128,216,196092,2,0,B|176:208|224:216,1,90,0|8
328,24,196955,6,0,B|280:12|224:24,1,90,0|8
128,168,197818,2,0,B|176:176|224:168,1,90,0|8
304,208,198466,1,0
248,280,198682,6,0,B|248:304|256:344,1,45,0|2
336,360,199114,1,10
392,296,199330,1,0
392,296,199437,2,0,B|400:256|384:216,1,67.5,0|2
448,160,199977,1,10
440,128,200085,1,2
424,96,200193,1,0
400,72,200301,1,2
368,56,200409,6,0,B|336:48|304:56,1,45,4|2
248,104,200840,2,0,B|256:128|256:160,1,45,8|2
240,192,201164,2,0,B|256:232|296:248,1,67.5,2|0
288,336,201704,1,8
200,352,201919,1,2
144,280,202135,6,0,B|160:232|144:184,1,90,8|4
48,40,202999,2,0,B|32:88|48:136,1,90,8|4
368,280,203862,6,0,B|352:232|368:184,1,90,8|4
464,40,204726,2,0,B|480:88|464:136,1,90,8|4
376,104,205373,1,2
466,128,205589,6,0,B|472:160|464:192,1,45,8|0
376,104,206020,1,2
304,152,206236,1,0
304,152,206344,2,0,B|264:160|224:152,1,67.5,2|4
256,336,207099,2,0,B|256:240,1,90,2|2
256,192,207639,12,0,210337
