osu file format v9

[General]
AudioFilename: .mp3
AudioLeadIn: 0
PreviewTime: 2193
Countdown: 0
SampleSet: Normal
StackLeniency: 0.7
Mode: 0
LetterboxInBreaks: 0

[Editor]
Bookmarks: 22193,41885,46808,72654,156347
DistanceSpacing: 1
BeatDivisor: 4
GridSize: 8

[Metadata]
Title:Recommended Spell
Artist:Hatsune Miku
Creator:val0108
Version:Spell
Source:Vocaloid
Tags:bibuko nyako Lalarun OnosakiHito

[Difficulty]
HPDrainRate:6
CircleSize:4
OverallDifficulty:8
ApproachRate:9
SliderMultiplier:2
SliderTickRate:2

[Events]
//Background and Video events
0,0,"orz.png"
//Break Periods
2,12546,21593
2,69161,70823
2,122085,138516
2,161469,163131
//Storyboard Layer 0 (Background)
//Storyboard Layer 1 (Fail)
//Storyboard Layer 2 (Pass)
//Storyboard Layer 3 (Foreground)
Sprite,Foreground,Centre,"SB\rdr.png",320,240 S,0,2193,,0.5695373 M,0,2193,2500,88,117 M,0,2500,2808,88,117 M,0,2808,3116,88,117 M,0,3116,3423,88,117 M,0,3423,3731,88,117 M,0,3731,4039,88,117 M,0,4039,4346,88,117 M,0,4346,4654,88,117 M,0,4654,4962,88,117
Sprite,Foreground,Centre,"SB\v2.png",320,240 M,0,17270,21885,307,384
Sprite,Foreground,Centre,"SB\asd.png",320,240 S,0,3731,,0.5695373 M,0,3731,3808,540,91 M,0,3808,3885,540,91 M,0,3885,3962,540,91 M,0,3962,4039,540,91 M,0,4039,4116,540,91 M,0,4116,4193,540,91 M,0,4193,4270,540,91 M,0,4270,4346,540,91 M,0,4346,4423,540,91 M,0,4423,4500,540,91 M,0,4500,4577,540,91 M,0,4577,4654,540,91 M,0,4654,4731,540,91 M,0,4731,4808,540,91 M,0,4808,4885,540,91 M,0,4885,4962,540,91
Sprite,Foreground,Centre,"SB\aouiesu.png",320,240 S,0,4962,,0.5763703 M,0,4962,5039,95,124 M,0,5039,5116,95,124 M,0,5116,5193,95,124 M,0,5193,5270,95,124 M,0,5270,5346,95,124 M,0,5346,5423,95,124 M,0,5423,5500,95,124 M,0,5500,5577,95,124 M,0,5577,5654,95,124 M,0,5654,5731,95,124 M,0,5731,5808,95,124 M,0,5808,5885,95,124 M,0,5885,5962,95,124 M,0,5962,6039,95,124 M,0,6039,6116,95,124 M,0,6116,6193,95,124 M,0,6193,6270,95,124 M,0,6270,6346,95,124 M,0,6346,6423,95,124 M,0,6423,6500,95,124 M,0,6500,6577,95,124 M,0,6577,6654,95,124 M,0,6654,6731,95,124 M,0,6731,6808,95,124 M,0,6808,6885,95,124 M,0,6885,6962,95,124 M,0,6962,7039,95,124 M,0,7039,7116,95,124 M,0,7116,7193,95,124 M,0,7193,7270,95,124 M,0,7270,7346,95,124 M,0,7346,7423,95,124
Sprite,Foreground,Centre,"SB\fffff.png",320,240 S,0,6193,,0.5695375 M,0,6193,6270,508,80 M,0,6270,6346,508,80 M,0,6346,6423,508,80 M,0,6423,6500,508,80 M,0,6500,6577,508,80 M,0,6577,6654,508,80 M,0,6654,6731,508,80 M,0,6731,6808,508,80 M,0,6808,6885,508,80 M,0,6885,6962,508,80 M,0,6962,7039,508,80 M,0,7039,7116,508,80 M,0,7116,7193,508,80 M,0,7193,7270,508,80 M,0,7270,7346,508,80 M,0,7346,7423,508,80
Sprite,Foreground,Centre,"SB\asdad.png",320,240 S,0,6193,,0.5558717 M,0,6193,6500,531,138 M,0,6500,6808,531,138 M,0,6808,7116,531,138 M,0,7116,7423,531,138
Sprite,Foreground,Centre,"SB\sdasdasd.png",320,240 S,0,7423,,0.5968682 M,0,7423,7500,93,110 M,0,7500,7577,93,110 M,0,7577,7654,93,110 M,0,7654,7731,93,110 M,0,7731,7808,93,110 M,0,7808,7885,93,110 M,0,7885,7962,93,110 M,0,8060,,93,110 M,0,8060,8116,93,110 M,0,8116,8193,93,110 M,0,8193,8270,93,110 M,0,8270,8346,93,110 M,0,8346,8423,93,110 M,0,8423,8500,93,110 M,0,8500,8577,93,110 M,0,8577,8654,93,110 M,0,8654,9577,93,110 M,0,9577,9885,93,110
Sprite,Foreground,Centre,"SB\nukinuki.png",320,240 S,0,8654,,0.6241993 M,0,8654,9885,469,67
Sprite,Foreground,Centre,"SB\amiami.png",320,240 S,0,8654,,0.5627047 M,0,8654,9885,505,132
Sprite,Foreground,Centre,"SB\amiami.png",320,240 S,0,8654,,0.5148752 M,0,8654,9885,535,188
Sprite,Foreground,Centre,"SB\retugo!.png",320,240 S,0,9885,,0.555872 M,0,9885,12346,105,120 M,0,12346,13577,105,120
Sprite,Foreground,Centre,"SB\usi!.png",320,240 S,0,10500,,0.5080426 M,0,10500,12346,486,80 M,0,12346,13577,486,80
Sprite,Foreground,Centre,"SB\dddd.png",320,240 S,0,10500,,0.6173665 M,0,10500,12346,526,139 M,0,12346,13577,526,139
Sprite,Foreground,Centre,"SB\oh.png",320,240 S,0,12039,,0.5900356 M,0,12039,12346,96,366 M,0,12346,13577,96,366
Sprite,Foreground,Centre,"SB\yeah.png",320,240 S,0,12039,,0.549039 M,0,12039,12346,551,324 M,0,12346,13577,551,324
Sprite,Foreground,Centre,"SB\!!.png",320,240 S,0,12039,,0.5148755 M,0,12039,12346,532,389 M,0,12346,13577,532,389
Sprite,Foreground,Centre,"SB\syuugou.png",320,240 S,0,22193,,0.5627045 M,0,22193,27116,102,104
Sprite,Foreground,Centre,"SB\2ji.png",320,240 M,0,22193,23731,82,201 S,0,23731,,0.6583629 M,0,23731,27116,82,201
Sprite,Foreground,Centre,"SB\10hunn.png",320,240 S,0,24193,,0.5353739 M,0,24193,27116,500,79
Sprite,Foreground,Centre,"SB\syugou.png",320,240 S,0,24193,,0.5285408 M,0,24193,27116,525,137
Sprite,Foreground,Centre,"SB\gensyu.png",320,240 S,0,24193,,0.5627046 M,0,24193,27116,542,198
Sprite,Foreground,Centre,"SB\mozoa.png",320,240 M,0,26193,26346,89,350 S,0,26346,,0.5353735 M,0,26346,27116,89,350
Sprite,Foreground,Centre,"SB\kyoku.png",320,240 S,0,17270,,0.5968683 M,0,17270,19731,92,192
Sprite,Foreground,Centre,"SB\nyako.png",320,240 S,0,19731,,0.5080425 M,0,19731,21885,89,95
Sprite,Foreground,Centre,"SB\koto.png",320,240 M,0,26193,26346,545,350 S,0,26346,,0.5763701 M,0,26346,27116,545,350
Sprite,Foreground,Centre,"SB\gosinboku.png",320,240 S,0,28346,,0.5080427 M,0,28346,32039,507,78
Sprite,Foreground,Centre,"SB\mae.png",320,240 S,0,28346,,0.5012098 M,0,28346,32039,530,129
Sprite,Foreground,Centre,"SB\hukusou.png",320,240 S,0,29577,,0.5148754 M,0,29577,32039,110,186
Sprite,Foreground,Centre,"SB\basyo.png",320,240 S,0,27116,,0.5558719 M,0,27116,32039,98,80
Sprite,Foreground,Centre,"SB\siro.png",320,240 S,0,30500,,0.5832027 M,0,30500,32039,543,218
Sprite,Foreground,Centre,"SB\si.png",320,240 S,0,30962,,0.6173666 M,0,30962,32039,546,385
Sprite,Foreground,Centre,"SB\asadsdnozo.png",320,240 S,0,30962,,0.5627049 M,0,30962,32039,84,353
Sprite,Foreground,Centre,"SB\hatunemiku.png",320,240 S,0,17270,,0.5627048 M,0,17270,19731,94,102
Sprite,Foreground,Centre,"SB\susume.png",320,240 S,0,17270,,0.5080427 M,0,17270,21885,534,122
Sprite,Foreground,Centre,"SB\wara.png",320,240 M,0,33270,,468,74 S,0,33270,,0.5148754 M,0,33270,36962,468,74
Sprite,Foreground,Centre,"SB\ningyou.png",320,240 S,0,33270,,0.5968685 M,0,33270,36962,516,133
Sprite,Foreground,Centre,"SB\nikui.png",320,240 S,0,34500,,0.5900356 M,0,34500,36962,73,247
Sprite,Foreground,Centre,"SB\tume.png",320,240 S,0,35731,,0.6173665 M,0,35731,36962,548,202
Sprite,Foreground,Centre,"SB\kaminoke.png",320,240 S,0,35731,,0.5353731 M,0,35731,36962,550,260
Sprite,Foreground,Centre,"SB\rousoku.png",320,240 S,0,36962,,0.5080426 M,0,36962,41885,105,86
Sprite,Foreground,Centre,"SB\sasite.png",320,240 S,0,38193,,0.555872 M,0,38193,41885,535,140
Sprite,Foreground,Centre,"SB\gotoku.png",320,240 S,0,38193,,0.528541 M,0,38193,41885,496,69
Sprite,Foreground,Centre,"SB\gosunkugi.png",320,240 S,0,39423,,0.4397153 M,0,39423,41885,86,192
Sprite,Foreground,Centre,"SB\kinisasite.png",320,240 S,0,40500,,0.473879 M,0,40500,41885,551,265
Sprite,Foreground,Centre,"SB\ookiku.png",320,240 S,0,41885,,0.4943771 M,0,41885,46808,536,158
Sprite,Foreground,Centre,"SB\tataki.png",320,240 M,0,44039,46808,87,239 S,0,44346,,0.5012099
Sprite,Foreground,Centre,"SB\sinkennna.png",320,240 S,0,47116,,0.4807117 M,0,47116,51423,533,158
Sprite,Foreground,Centre,"SB\todoku.png",320,240 S,0,49270,,0.50121 M,0,49270,51423,89,273
Sprite,Foreground,Centre,"SB\nenjite.png",320,240 S,0,51731,,0.5080426 M,0,51731,56346,539,143
Sprite,Foreground,Centre,"SB\seiippai.png",320,240 S,0,53885,,0.4602135 M,0,53885,56346,78,193
Sprite,Foreground,Centre,"SB\mottomotto.png",320,240 S,0,56654,,0.5627047 M,0,56654,61270,528,98
Sprite,Foreground,Centre,"SB\negatte.png",320,240 S,0,56654,,0.5080425 M,0,56654,61270,548,210
Sprite,Foreground,Centre,"SB\korositai.png",320,240 S,0,58808,,0.4260498 M,0,58808,61270,86,192
Sprite,Foreground,Centre,"SB\dakedoikoredake.png",320,240 S,0,61577,,0.4943773 M,0,61577,65885,535,170
Sprite,Foreground,Centre,"SB\kessite.png",320,240 S,0,63731,,0.5558718 M,0,63731,65885,138,119
Sprite,Foreground,Centre,"SB\wasurenaide.png",320,240 S,0,63731,,0.5148754 M,0,63731,65885,76,240
Sprite,Foreground,Centre,"SB\utinikaeru.png",320,240 S,0,66039,,0.4602135 M,0,66039,69885,527,165 M,0,69885,70039,527,165
Sprite,Foreground,Centre,"SB\usinokokumairi.png",320,240 S,0,67423,,0.4055518 M,0,67423,69885,90,256 M,0,69885,70039,90,256
Sprite,Foreground,Centre,"SB\val0108.png",320,240 M,0,17270,21885,325,382
Sprite,Foreground,Centre,"SB\darenimo.png",320,240 S,0,72654,,0.4670464 M,0,72654,77577,108,131
Sprite,Foreground,Centre,"SB\you.png",320,240 S,0,72654,,0.4465477 M,0,72654,77577,83,227
Sprite,Foreground,Centre,"SB\saisin.png",320,240 S,0,74500,,0.4875446 M,0,74500,77577,503,86
Sprite,Foreground,Centre,"SB\tyuui.png",320,240 S,0,74500,,0.4533809 M,0,74500,77577,545,158
Sprite,Foreground,Centre,"SB\kotooooo.png",320,240 M,0,74500,77577,552,231 S,0,76500,,0.5217082
Sprite,Foreground,Centre,"SB\mosimo.png",320,240 S,0,77577,,0.4738789 M,0,77577,82500,105,110
Sprite,Foreground,Centre,"SB\baai.png",320,240 S,0,77577,,0.4397154 M,0,77577,82500,80,183
Sprite,Foreground,Centre,"SB\ikinone.png",320,240 S,0,79423,,0.4670462 M,0,79423,82500,546,160
Sprite,Foreground,Centre,"SB\sumiyaka.png",320,240 S,0,79423,,0.5353737 M,0,79423,82500,515,80
Sprite,Foreground,Centre,"SB\koto.png",320,240 S,0,80962,,0.5627048 M,0,80962,82500,544,353
Sprite,Foreground,Centre,"SB\tomeru.png",320,240 S,0,80962,,0.5558721 M,0,80962,82500,81,339
Sprite,Foreground,Centre,"SB\tyotto.png",320,240 M,0,82807,,530,127 S,0,82807,,0.6173666
Sprite,Foreground,Centre,"SB\hademe.png",320,240 S,0,82500,,0.4123843 M,0,82500,86808,70,237
Sprite,Foreground,Centre,"SB\kusi.png",320,240 S,0,84346,,0.4670463 M,0,84346,86808,529,155
Sprite,Foreground,Centre,"SB\motte.png",320,240 S,0,32039,,0.528541 M,0,32039,36962,102,85
Sprite,Foreground,Centre,"SB\tyotto.png",320,240 S,0,82500,,0.5080426 M,0,82500,86808,147,117
Sprite,Foreground,Centre,"SB\hi-ru.png",320,240 S,0,86808,,0.4602136 M,0,86808,89270,106,98
Sprite,Foreground,Centre,"SB\doresu.png",320,240 S,0,86808,,0.4807118 M,0,86808,89270,87,191
Sprite,Foreground,Centre,"SB\geta.png",320,240 S,0,88654,,0.4055516 M,0,88654,89885,519,179
Sprite,Foreground,Centre,"SB\kousu.png",320,240 S,0,89577,,0.5148753 M,0,89577,92346,85,386
Sprite,Foreground,Centre,"SB\rettu.png",320,240 S,0,89577,,0.4533809 M,0,89577,92346,75,337
Sprite,Foreground,Centre,"SB\akuse.png",320,240 S,0,89577,,0.50121 M,0,89577,92346,96,157
Sprite,Foreground,Centre,"SB\ookime.png",320,240 S,0,89577,,0.521708 M,0,89577,92346,111,94
Sprite,Foreground,Centre,"SB\juzu.png",320,240 S,0,91116,,0.4670462 M,0,91116,92654,530,214
Sprite,Foreground,Centre,"SB\tiisanawara.png",320,240 S,0,92654,,0.4807117 M,0,92654,97270,543,165
Sprite,Foreground,Centre,"SB\butukeru.png",320,240 S,0,94500,,0.4670462 M,0,94500,97270,90,265
Sprite,Foreground,Centre,"SB\kimoti.png",320,240 S,0,94500,,0.5285409 M,0,94500,97270,145,115
Sprite,Foreground,Centre,"SB\issin.png",320,240 S,0,97270,,0.5012101 M,0,97270,101885,538,160
Sprite,Foreground,Centre,"SB\kanau.png",320,240 S,0,99731,,0.5627046 M,0,99731,101885,101,232
Sprite,Foreground,Centre,"SB\nikude.png",320,240 S,0,102193,,0.5217083 M,0,102193,106808,531,155
Sprite,Foreground,Centre,"SB\nigasaaide.png",320,240 S,0,104346,,0.4875445 M,0,104346,106808,79,201
Sprite,Foreground,Centre,"SB\mottomottohukaku.png",320,240 S,0,107116,,0.5080428 M,0,107116,111731,107,124
Sprite,Foreground,Centre,"SB\urande.png",320,240 S,0,107116,,0.4533809 M,0,107116,111731,82,225
Sprite,Foreground,Centre,"SB\harasa.png",320,240 S,0,109270,,0.528541 M,0,109270,111731,522,147
Sprite,Foreground,Centre,"SB\deokuneki.png",320,240 S,0,109270,,0.4670462 M,0,109270,111731,546,246
Sprite,Foreground,Centre,"SB\konoura.png",320,240 S,0,109270,,0.5217082 M,0,109270,111731,508,83
Sprite,Foreground,Centre,"SB\dakedo.png",320,240 S,0,112039,,0.4260499 M,0,112039,116346,525,151
Sprite,Foreground,Centre,"SB\norowaba.png",320,240 S,0,114193,,0.4602135 M,0,114193,116346,88,250
Sprite,Foreground,Centre,"SB\yoikonominnnaha.png",320,240 S,0,116346,,0.5422063 M,0,116346,121885,535,138 M,0,121885,122808,535,138
Sprite,Foreground,Centre,"SB\zettai.png",320,240 S,0,117885,,0.5763701 M,0,117885,121885,151,106 M,0,121885,122808,151,106
Sprite,Foreground,Centre,"SB\manesiaide.png",320,240 S,0,117885,,0.4875445 M,0,117885,121885,80,217 M,0,121885,122808,80,217
Sprite,Foreground,Centre,"SB\guitar.png",320,240 S,0,120346,,0.5968683 M,0,120346,121885,153,449 M,0,121885,122808,153,449
Sprite,Foreground,Centre,"SB\a-iyta-.png",320,240 S,0,141577,,0.4602133 M,0,141577,146500,315,452
Sprite,Foreground,Centre,"SB\aaaiyaa.png",320,240 S,0,146500,,0.5148751 M,0,146500,151116,320,455
Sprite,Foreground,Centre,"SB\a-iyta-.png",320,240 S,0,151423,,0.4602136 M,0,151423,156039,319,449
Sprite,Foreground,Centre,"SB\aaaaaaaaa.png",320,240 S,0,156270,,0.5763699 M,0,156270,159423,319,454
Sprite,Foreground,Centre,"SB\nenjite.png",320,240 S,0,163731,,0.5217083 M,0,163731,168346,539,162
Sprite,Foreground,Centre,"SB\tatattyatte.png",320,240 S,0,165885,,0.4807118 M,0,165885,168346,84,218
Sprite,Foreground,Centre,"SB\mottmoto.png",320,240 S,0,168654,,0.5627047 M,0,168654,173270,91,100
Sprite,Foreground,Centre,"SB\agete.png",320,240 S,0,168654,,0.5763699 M,0,168654,173270,92,216
Sprite,Foreground,Centre,"SB\motibe-syon.png",320,240 S,0,170808,,0.4602135 M,0,170808,173270,527,181
Sprite,Foreground,Centre,"SB\dakedoikoredake.png",320,240 S,0,173577,,0.4602135 M,0,173577,177885,535,163
Sprite,Foreground,Centre,"SB\wasurenaide.png",320,240 S,0,175731,,0.5285408 M,0,175731,177885,78,276
Sprite,Foreground,Centre,"SB\kessite.png",320,240 S,0,175731,,0.528541 M,0,175731,177885,143,127
Sprite,Foreground,Centre,"SB\hitoto.png",320,240 S,0,114193,,0.555872 M,0,114193,116346,161,111
Sprite,Foreground,Centre,"SB\usinokokumairi.png",320,240 S,0,179423,,0.4328827 M,0,179423,182039,89,278 M,0,182039,,89,278
Sprite,Foreground,Centre,"SB\utinikaeru.png",320,240 S,0,177885,,0.4465481 M,0,177885,182039,531,150 M,0,182039,,531,150
//Storyboard Sound Samples
//Background Colour Transformations
3,100,163,162,255

[TimingPoints]
1270,307.692307692308,4,1,2,80,1,0
11962,-100,4,2,2,80,0,0
12116,-100,4,1,2,80,0,0
51731,-100,4,1,2,80,0,1
52962,-100,4,1,1,80,0,1
53039,-100,4,1,2,80,0,1
55423,-100,4,1,1,80,0,1
55500,-100,4,1,2,80,0,1
57270,-100,4,1,1,80,0,1
57346,-100,4,1,2,80,0,1
58808,-100,4,1,1,80,0,1
58885,-100,4,1,2,80,0,1
62808,-100,4,1,1,80,0,1
62885,-100,4,1,2,80,0,1
65270,-100,4,1,1,80,0,1
65346,-100,4,1,2,80,0,1
67731,-100,4,1,2,80,0,0
99423,-100,4,1,1,80,0,0
99500,-100,4,1,2,80,0,0
102193,-100,4,1,2,80,0,1
103423,-100,4,1,1,80,0,1
103500,-100,4,1,2,80,0,1
105885,-100,4,1,1,80,0,1
105962,-100,4,1,2,80,0,1
107731,-100,4,1,1,80,0,1
107808,-100,4,1,2,80,0,1
109270,-100,4,1,1,80,0,1
109346,-100,4,1,2,80,0,1
113270,-100,4,1,1,80,0,1
113346,-100,4,1,2,80,0,1
118193,-100,4,1,2,80,0,0
156193,-100,4,1,1,80,0,0
156270,-100,4,1,2,80,0,0
156654,-100,4,1,1,80,0,0
156731,-100,4,1,2,80,0,0
163731,-100,4,1,2,80,0,1
164962,-100,4,1,1,80,0,1
165039,-100,4,1,2,80,0,1
167423,-100,4,1,1,80,0,1
167500,-100,4,1,2,80,0,1
169270,-100,4,1,1,80,0,1
169346,-100,4,1,2,80,0,1
170808,-100,4,1,1,80,0,1
170885,-100,4,1,2,80,0,1
174808,-100,4,1,1,80,0,1
174885,-100,4,1,2,80,0,1
177270,-100,4,1,1,80,0,1
177346,-100,4,1,2,80,0,1
177885,-100,4,1,1,80,0,1
177962,-100,4,1,2,80,0,1
179731,-100,4,1,2,80,0,0

[Colours]
Combo1 : 128,128,64
Combo2 : 255,128,64
Combo3 : 64,128,128
Combo4 : 255,255,255

[HitObjects]
256,96,2193,2,0,B|272:192|224:200|264:312,1,200,0|4
345,246,2654,5,0
161,334,2808,1,0
345,334,2962,2,0,B|161:246,1,200
164,247,3423,1,0
164,247,3577,1,0
120,160,3731,5,12
80,256,3885,1,0
144,64,4039,1,0
24,192,4193,2,0,B|216:128,1,200
213,128,4654,1,0
213,128,4808,1,0
320,56,4962,5,12
320,56,5116,2,0,B|336:160|336:160|448:208,1,200,8|0
272,328,5577,1,12
472,312,5731,2,8,B|272:224,1,200
208,168,6193,5,8
32,264,6346,1,0
208,168,6500,1,8
32,264,6654,2,0,B|120:240|248:256,1,200
8,184,7116,1,0
16,160,7193,1,0
24,136,7270,1,0
32,112,7346,1,0
40,88,7423,6,0,B|89:80|152:88,2,100,4|0|8
40,88,7885,2,0,B|94:181|176:256,1,200
163,244,8346,1,8
163,244,8500,1,0
304,208,8654,5,4
248,288,8808,1,0
352,120,8962,1,8
352,288,9116,2,0,B|240:112,1,200
244,119,9577,1,8
244,119,9731,1,8
144,88,9885,6,0,B|128:136|128:136|144:192,1,100,8|0
368,88,10193,2,0,B|389:134|389:134|368:192,1,100,8|0
256,360,10500,1,0
256,208,10654,1,8
256,56,10808,1,8
152,288,10962,2,0,B|224:280|288:280|384:290,1,200,8|0
176,216,11423,5,8
328,216,11577,1,8
256,80,11731,2,0,B|256:296,2,200,0|4|4
152,288,22193,5,4
72,224,22346,2,0,B|72:120,2,100,0|8|0
152,288,22808,2,0,B|216:312|256:312,1,100
152,136,23116,2,0,B|152:24,2,100,8|0|0
224,208,23577,1,0
319,264,23731,1,8
392,136,23885,2,0,B|344:136|344:136|304:184,1,100
224,208,24193,5,2
408,208,24346,1,10
240,104,24500,1,2
392,104,24654,6,0,B|344:104|344:104|296:56,1,100,4|0
192,32,24962,1,8
64,104,25116,1,0
232,208,25270,1,0
56,303,25423,2,2,B|88:198|159:129,1,200,2|10
254,299,25885,2,0,B|158:323|56:303,1,200,10|0
155,133,26346,2,2,B|240:188|254:300,1,200,10|2
160,240,26808,1,8
253,299,26962,1,8
253,299,27039,1,8
253,299,27116,1,8
312,200,27270,5,0
408,224,27423,1,8
464,304,27577,1,0
480,208,27731,1,0
376,32,27885,1,0
480,208,28039,1,8
376,32,28193,1,0
432,120,28346,5,0
328,120,28500,1,0
232,120,28654,1,8
128,120,28808,1,8
24,120,28962,1,0
432,120,29116,5,10
24,120,29270,1,2
232,120,29423,2,2,B|232:232,1,100,14|0
80,200,29731,5,0
32,288,29885,1,8
128,320,30039,2,0,B|248:264|320:256,1,200
316,256,30500,1,8
280,352,30654,1,8
280,352,30731,1,8
280,352,30808,1,8
376,337,30962,6,0,B|312:249,1,100,2|0
120,224,31270,2,0,B|184:136,1,100,2|0
379,143,31577,1,10
379,143,31654,1,8
379,143,31731,1,8
256,24,31885,5,14
256,24,31962,1,0
256,24,32039,2,4,B|136:24,1,100,4|0
88,96,32346,1,8
88,96,32500,1,0
40,184,32654,1,0
40,184,32808,1,0
104,256,32962,1,10
104,256,33116,2,0,B|224:256,1,100,2|0
344,192,33423,5,0
256,72,33577,1,8
168,192,33731,1,0
344,296,33885,1,0
344,296,33962,1,0
344,296,34039,1,0
256,336,34193,1,8
230,336,34270,1,0
204,336,34346,1,0
178,336,34423,1,0
152,336,34500,1,4
32,288,34654,5,0
80,96,34808,1,8
208,248,34962,1,0
264,56,35116,1,0
392,208,35270,1,0
304,232,35423,5,8
176,80,35577,1,0
120,272,35731,1,0
176,80,35885,1,0
304,232,36039,1,8
352,136,36193,2,10,B|144:184,1,200,2|2
48,184,36654,5,10
48,184,36808,1,10
48,184,36885,1,8
48,184,36962,1,12
448,184,37116,5,0
392,264,37270,2,0,B|304:184,1,100,8|0
256,120,37577,1,0
125,266,37731,2,0,B|192:192,1,100,0|8
256,272,38039,1,0
256,192,38193,5,0
184,120,38346,1,0
336,120,38500,1,8
256,48,38654,2,0,B|256:160,1,100
216,240,38962,1,2
160,328,39116,1,10
72,280,39270,1,10
72,280,39346,1,8
72,280,39423,1,8
32,192,39577,5,4
160,40,39731,2,0,B|272:96|368:88,1,200,8|0
432,152,40193,1,0
352,208,40346,1,8
432,272,40500,1,8
432,272,40577,1,8
432,272,40654,6,0,B|384:304|336:312,1,100,12|2
104,336,40962,2,0,B|160:346|204:336,1,100,8|2
213,186,41270,1,8
153,46,41423,1,10
153,46,41500,1,8
153,46,41577,2,2,B|124:101|124:101|78:156|-18:153,1,200,10|6
272,336,42193,6,0,B|312:288|312:288|384:256|448:312,1,200,8|0
464,160,42654,2,0,B|392:208|352:216,1,100,0|8
368,360,42962,2,0,B|216:176,1,200
141,207,43423,2,0,B|241:207,1,100,8|0
344,91,43731,2,0,B|346:144|346:144|346:184|322:208|306:208|306:208|242:206,1,200,0|8
240,205,44193,1,0
200,64,44346,5,0
200,64,44500,1,0
67,132,44654,1,8
67,132,44808,1,0
104,277,44962,2,0,B|88:325|88:325|24:349,2,100,0|0|8
240,205,45423,1,0
248,104,45577,5,2
260,81,45654,1,0
272,58,45731,1,0
320,200,45885,1,2
333,177,45962,1,0
345,154,46039,1,0
392,296,46193,1,2
404,273,46270,1,0
416,250,46346,1,0
429,227,46423,1,0
441,204,46500,1,8
452,182,46577,1,8
465,159,46654,1,8
477,136,46731,1,8
489,113,46808,1,4
296,272,47116,6,0,B|264:296|232:296|232:296|192:296,1,100,8|0
73,160,47423,2,0,B|73:192|73:192|121:264|202:296,1,200,0|8
104,328,47885,1,0
216,224,48039,2,0,B|160:200|144:168|144:168|144:144,2,100,0|0|8
256,128,48500,2,0,B|256:109|256:109|264:96|264:96|248:96|248:96|256:96|256:96|256:40,1,100
344,96,48808,2,0,B|448:96,2,100,0|8|0
160,96,49270,6,0,B|112:96|112:96|80:96|48:120|48:160|48:160|48:216,1,200,4|8
200,344,49731,2,0,B|208:288|160:256,1,100
120,168,50039,2,0,B|176:248|288:312,1,200
268,300,50500,1,0
352,248,50654,5,8
352,222,50731,1,8
352,196,50808,2,0,B|243:196,1,100,12|0
180,124,51116,1,12
205,124,51193,1,0
230,124,51270,1,0
330,124,51423,1,12
330,124,51500,1,0
330,124,51577,1,0
376,40,51731,6,8,B|416:40|416:40|448:48|480:88|488:128|488:128|480:200,3,200
328,296,52808,2,0,B|320:232|320:232|352:160|424:120,1,200,0|0
406,231,53270,2,8,B|182:231,1,200
8,280,53731,1,2
136,128,53885,1,10
144,328,54039,1,2
24,168,54193,6,12,B|224:168,1,200,12|8
368,32,54654,1,0
368,32,54808,2,8,B|368:104|320:136|256:96|256:96|208:96,1,200,8|8
72,232,55270,2,0,B|72:288|72:288|72:328|120:352|120:352|166:331|176:280,1,200
164,313,55654,1,0
164,313,55731,1,8
260,326,55885,1,0
360,248,56039,5,8
166,257,56193,1,2
324,133,56346,1,10
260,325,56500,1,2
201,139,56654,6,8,B|257:236|389:251,1,200,12|8
176,330,57116,2,0,B|312:162,1,200
448,42,57577,1,8
416,242,57731,1,0
304,82,57885,2,0,B|416:146,1,100,10|0
415,243,58193,1,8
288,160,58346,2,0,B|186:96,1,100,2|8
8,56,58654,2,2,B|176:184,1,200,2|2
256,192,59116,12,4,61270
128,120,61577,6,8,B|96:120|96:120|56:136|48:208|96:232|96:232|144:232,3,200
305,321,62654,2,0,B|127:232,1,200
127,322,63116,2,8,B|311:226,1,200
408,56,63577,1,2
224,128,63731,1,10
416,168,63885,1,2
288,16,64039,6,8,B|301:66|301:66|299:108|296:152|296:152|272:192|224:208,1,200,12|8
252,195,64500,1,0
96,195,64654,2,8,B|123:208|123:208|122:181|122:181|123:195|123:195|252:195,1,200
448,224,65116,2,0,B|448:272|448:272|432:304|408:328|376:328|376:328|312:328,1,200
224,296,65577,1,8
312,248,65731,2,0,B|352:224|368:192|368:192|368:160,1,100,0|8
338,75,66039,5,8
316,89,66116,1,0
294,103,66193,1,0
272,117,66270,1,0
250,131,66346,1,8
228,146,66423,1,0
207,160,66500,5,12
207,160,66654,1,2
128,96,66808,1,8
128,96,66962,1,2
64,176,67116,1,8
64,176,67270,1,2
144,240,67423,1,0
144,240,67577,1,2
144,240,67731,2,10,B|160:272|160:272|128:272|128:272|144:280|144:280|144:296,1,100,2|0
240,360,68039,5,0
239,152,68193,1,0
336,264,68346,1,8
336,64,68500,1,0
240,264,68654,2,2,B|256:168|392:216|376:128,1,200,2|2
104,96,71423,5,0
116,117,71500,1,0
129,138,71577,1,0
142,159,71654,1,0
154,180,71731,2,0,B|192:224|192:224|240:224,1,100
284,224,72039,5,0
334,224,72193,1,0
384,224,72346,2,2,B|408:208|408:208|408:240|408:240|424:216|424:216|424:232|424:232|432:224|432:224|456:192|472:272|512:216,1,200,0|6
464,136,72808,5,0
408,328,72962,1,8
328,144,73116,1,0
280,336,73270,1,0
200,152,73423,1,0
152,344,73577,1,8
56,168,73731,1,0
464,136,73885,5,0
280,336,74039,1,0
56,168,74193,1,8
328,248,74346,2,0,B|309:262|309:262|304:248|304:248|306:254|306:254|234:272,1,100
152,288,74654,2,2,B|112:280|64:232,2,100,2|10|10
200,200,75116,6,0,B|238:146|273:126,1,100,4|0
264,29,75423,2,0,B|277:86|269:129,1,100,8|0
344,192,75731,2,0,B|297:170|269:129,1,100
106,19,76039,2,0,B|196:41|270:130,1,200,8|0
360,96,76500,5,0
168,144,76654,1,8
360,192,76808,2,0,B|360:336,1,100
280,352,77116,1,10
261,333,77193,1,8
243,315,77270,1,8
168,248,77423,1,10
248,88,77577,6,0,B|192:104|160:152,1,100,4|0
328,144,77885,2,0,B|302:105|246:89,1,100,8|0
248,200,78193,2,0,B|304:184|336:136,1,100
168,144,78500,2,0,B|193:182|249:198,1,100,8|0
408,216,78808,2,2,B|408:256|368:264|368:264|352:264|352:264|368:280|368:280|368:264|368:264|360:312|293:338,1,200,2|10
232,376,79270,2,0,B|120:376,1,100,8|0
56,312,79577,1,8
56,312,79654,1,8
56,312,79731,1,8
88,216,79885,1,0
182,254,80039,6,0,B|230:278|278:278,1,100,4|0
121,178,80346,2,0,B|137:234|181:254,1,100,8|0
171,92,80654,2,0,B|128:128|121:178,1,100
269,75,80962,2,0,B|240:64|171:92,1,100,8|8
296,176,81270,6,0,B|192:176,2,100,8|10|0
396,176,81731,2,0,B|276:176,1,100,2|0
492,150,82039,1,8
492,175,82116,1,8
492,200,82193,2,2,B|448:176|432:112|448:40|512:8,1,200,10|6
304,80,82654,6,0,B|232:104|168:104,2,100,0|8|0
376,152,83116,1,0
344,352,83270,1,0
240,176,83423,1,8
192,368,83577,1,0
80,200,83731,2,2,B|93:208|93:208|95:219|95:219|104:206|104:206|100:213|100:213|152:272|256:256,1,200,2|10
192,64,84193,2,0,B|197:101|197:101|192:161|116:139,1,100,2|0
72,88,84500,1,0
72,88,84577,1,0
72,88,84654,2,0,B|116:58|144:8,1,100,8|0
288,72,84962,5,4
288,72,85116,1,0
408,232,85270,1,8
408,232,85423,1,0
224,168,85577,1,0
408,96,85731,1,0
296,264,85885,1,8
296,264,86039,6,0,B|240:312|240:312|144:312|144:312|112:296,1,200
116,298,86500,1,8
116,298,86654,1,8
116,298,86962,5,2
48,112,87116,1,2
232,192,87270,1,2
40,256,87423,6,0,B|96:232|96:232|144:232,1,100,4|0
40,50,87731,2,0,B|96:74|96:74|144:74,1,100,8|0
200,152,88039,2,0,B|272:128|288:64,2,100,0|0|8
200,152,88500,1,0
200,152,88654,2,2,B|408:152,1,200,2|8
400,152,89116,5,8
400,256,89270,1,0
400,360,89423,1,0
336,280,89577,1,10
232,280,89731,1,2
128,280,89885,2,0,B|152:336|192:368,1,100,4|0
29,281,90193,2,0,B|141:281,1,100,8|0
88,192,90500,1,0
184,192,90654,1,0
120,112,90808,2,0,B|240:112,1,100,8|0
245,112,91039,1,8
270,112,91116,1,8
464,336,91423,5,8
264,344,91731,1,8
168,312,91885,1,8
186,294,91962,1,8
204,276,92039,1,8
222,258,92116,1,8
240,240,92193,2,8,B|264:224|264:224|288:224,2,50,8|8|4
32,88,92654,6,0,B|128:88|128:88|152:80|152:80|232:80,1,200,12|0
230,180,93116,2,0,B|230:68,1,100,0|8
429,88,93423,2,2,B|333:88|333:88|309:80|309:80|229:80,1,200,2|0
156,147,93885,2,0,B|192:112|230:80,1,100,10|0
301,149,94193,2,0,B|272:120|230:80,1,100,2|0
230,181,94500,1,10
428,181,94654,1,0
368,296,94808,6,0,B|304:312|304:312|304:368,1,100,4|0
144,296,95116,2,0,B|208:312|208:312|208:368,1,100,8|0
256,256,95423,2,0,B|256:144,2,100,0|0|8
256,256,95885,6,2,B|136:224|408:208|216:88,1,200,2|2
254,115,96270,1,8
254,115,96346,1,8
176,48,96500,1,0
88,96,96654,1,10
70,113,96731,1,0
52,130,96808,1,0
144,168,96962,1,10
161,185,97039,1,8
178,202,97116,1,8
195,219,97193,1,8
212,236,97270,1,4
440,56,97577,6,0,B|440:160|440:160|432:144|432:144|432:248,1,200,8|0
384,312,98039,2,0,B|336:296|328:264|328:264|328:200,1,100,0|8
328,40,98346,1,0
328,40,98500,2,2,B|320:136|248:192|248:192|248:232,1,200,2|8
248,320,98962,2,2,B|224:320|224:320|216:312|216:312|216:328|216:328|216:320|216:320|160:320,1,100
88,280,99270,2,0,B|144:224|144:136|144:136|216:88,1,200
40,192,99731,6,0,B|107:182|107:182|190:203|190:203|240:192,1,200,4|8
328,152,100193,2,0,B|262:119|262:119|216:112,1,100
328,232,100500,2,0,B|264:264|264:264|216:272,1,100,0|8
256,192,100808,12,4,101885
136,344,102193,6,8,B|96:344|96:344|64:336|32:296|24:256|24:256|32:184,3,200
184,88,103270,2,0,B|192:152|192:152|160:224|88:264,1,200
106,153,103731,2,8,B|330:153,1,200
504,104,104193,1,2
376,256,104346,1,10
368,56,104500,1,2
488,216,104654,6,8,B|288:216,1,200,12|8
128,328,105116,1,0
128,328,105270,2,8,B|120:288|184:240|240:272|240:272|264:288|264:288|288:288,1,200
200,344,105731,2,0,B|232:360|232:360|408:352,1,200
396,352,106116,1,8
396,352,106193,1,8
152,136,106500,5,8
346,127,106654,1,2
188,251,106808,1,10
252,59,106962,1,2
311,245,107116,6,0,B|255:148|123:133,1,200,12|8
336,54,107577,2,0,B|200:222,1,200
64,342,108039,1,8
96,142,108193,1,0
208,302,108346,2,0,B|96:238,1,100,10|0
63,59,108654,1,8
240,152,108808,2,0,B|352:208,1,100,2|8
456,352,109116,2,2,B|256:248,1,200,2|2
256,192,109577,12,0,111731
384,264,112039,6,0,B|416:264|416:264|456:248|464:176|416:152|416:152|368:152,3,200,12|8|8|8
219,39,113116,2,0,B|187:47|155:71|139:119|163:167|203:191|243:191,1,200
288,115,113577,2,8,B|320:123|352:147|368:195|344:243|304:267|264:267,1,200
99,328,114039,1,2
289,263,114193,1,10
96,216,114346,1,2
224,368,114500,6,0,B|211:318|211:318|213:276|216:232|216:232|240:192|288:176,1,200,12|8
260,189,114962,1,0
416,189,115116,2,0,B|389:176|389:176|390:203|390:203|389:189|389:189|260:189,1,200,8|8
260,189,115577,1,0
168,16,115731,1,8
128,208,115885,1,0
272,72,116039,1,8
72,96,116193,2,0,B|104:136|168:136,1,100,0|8
168,312,116500,5,0
256,360,116654,1,8
344,312,116808,1,8
256,264,116962,2,0,B|256:160,1,100,6|0
256,64,117270,2,8,B|256:176,1,100,10|8
155,164,117577,2,0,B|275:164,1,100,2|0
355,164,117885,2,0,B|251:164,1,100,10|2
255,164,118116,1,8
255,164,118193,1,10
255,164,118500,5,0
255,164,118654,1,0
128,80,118808,1,0
192,272,118962,1,0
392,272,119116,1,0
328,80,119270,2,2,B|304:80|304:80|296:88|296:88|296:72|296:72|284:79|284:79|248:80,1,100,2|10
120,344,119731,6,2,B|176:360|176:360|264:352|288:256,1,200,10|0
320,184,120193,1,2
280,280,120346,1,8
416,224,120500,2,2,B|409:206|409:206|419:185|419:185|392:200|392:200|403:184|403:184|368:144|352:96|352:96|320:72,1,200
264,144,120962,2,2,B|160:104,1,100,10|0
80,144,121270,1,2
72,240,121423,1,0
128,320,121577,1,8
153,320,121654,1,8
178,320,121731,1,8
203,320,121808,1,8
228,320,121885,1,12
256,192,139116,12,4,141269
104,280,141577,5,0
112,256,141654,1,0
119,232,141731,1,0
127,208,141808,1,0
136,184,141885,2,0,B|200:152,3,50,8|0|0|0
192,144,142193,1,0
179,122,142269,1,0
191,100,142346,1,0
181,76,142423,1,0
192,56,142500,1,8
208,40,142577,1,0
232,32,142654,1,0
256,32,142731,1,0
280,32,142808,6,0,B|344:0,3,50
346,22,143116,2,0,B|397:60,3,50,8|0|0|0
384,80,143423,2,2,B|392:88|392:88|376:88|376:88|392:104|392:104|376:104|376:104|392:120|392:120|376:120|376:120|392:136|392:136|376:136|376:136|394:152|394:152|376:152|376:152|384:152|384:152|384:192,1,200,2|8
372,260,143885,1,0
354,278,143962,1,0
336,296,144039,2,0,B|288:352,3,50,4|0|0|0
280,320,144346,2,0,B|224:288,3,50,8|0|0|0
224,272,144654,2,0,B|192:216,3,50
184,208,144962,1,8
160,200,145039,1,0
144,184,145116,1,0
120,176,145193,1,0
104,160,145269,5,0
104,136,145346,1,0
88,120,145423,1,0
64,120,145500,1,0
40,128,145577,1,8
32,152,145654,1,0
40,176,145731,1,0
27,197,145808,1,0
31,221,145885,2,0,B|95:237,1,50
67,255,146039,2,0,B|35:311,1,50
63,311,146193,2,0,B|127:311,1,50,8|0
136,304,146346,2,0,B|192:344,1,50,8|0
200,344,146500,6,0,B|224:288,3,50,4|0|0|0
248,304,146808,1,8
264,320,146885,1,0
288,336,146962,1,0
304,352,147039,1,0
328,352,147116,2,0,B|376:296,3,50
352,288,147423,1,8
336,272,147500,1,0
320,256,147577,1,0
304,240,147654,1,0
288,216,147731,6,2,B|240:168|240:168|176:168,1,100,2|0
184,168,147962,1,0
184,144,148039,2,2,B|224:88|224:88|288:88,1,100,10|0
280,88,148269,1,0
304,88,148346,2,0,B|304:38,1,50,2|0
328,88,148500,2,0,B|328:160,1,50
352,88,148654,2,0,B|352:24,1,50,8|0
376,88,148808,2,0,B|376:168,1,50,8|0
400,88,148962,6,0,B|456:88,3,50
400,176,149269,2,0,B|344:176,3,50,8|0|0|0
400,264,149577,2,0,B|456:264,3,50
400,352,149885,2,0,B|336:352,3,50,8|0|0|0
328,352,150193,1,0
304,344,150269,1,0
288,328,150346,1,0
264,328,150423,1,0
240,312,150500,1,8
216,304,150577,1,0
192,304,150654,1,0
168,296,150731,1,0
144,304,150808,1,8
120,296,150885,1,8
96,304,150962,1,8
72,296,151039,1,8
46,296,151116,2,2,B|38:288|38:288|54:288|54:288|38:272|38:272|54:272|54:272|38:256|38:256|54:256|54:256|38:240|38:240|54:240|54:240|36:224|36:224|54:224|54:224|46:224|46:224|46:184,1,200,10|4
48,192,151500,5,0
56,168,151577,1,0
40,144,151654,1,0
56,120,151731,1,8
64,96,151808,1,0
80,80,151885,1,0
104,80,151962,1,0
128,75,152039,2,0,B|176:123,3,50
181,128,152346,2,0,B|125:176,3,50,8|0|0|0
160,184,152654,5,0
176,200,152731,1,0
200,208,152808,1,0
224,216,152885,1,0
248,216,152962,1,8
264,200,153039,1,0
288,208,153116,1,0
288,184,153193,1,0
288,160,153269,1,0
288,136,153346,1,0
312,136,153423,1,0
312,112,153500,1,0
312,87,153577,2,0,B|312:39,3,50,8|0|8|0
344,88,153885,6,0,B|400:96,3,50,4|0|0|0
392,120,154193,1,8
392,144,154269,1,0
392,168,154346,1,0
392,192,154423,1,0
392,216,154500,2,2,B|432:248|432:248|424:328|400:344|344:336|312:328,1,200,2|10
312,328,154885,1,0
288,336,154962,1,0
264,328,155039,1,0
240,336,155116,1,0
216,328,155193,1,0
190,328,155269,1,0
203,307,155346,1,0
200,281,155423,1,8
213,260,155500,1,0
210,234,155577,1,0
223,213,155654,1,0
220,187,155731,2,0,B|192:136,3,50
221,143,156039,2,0,B|261:151|261:151|261:103|261:103|293:151|293:151|309:159,1,150,8|0
322,157,156346,6,2,B|418:165|450:293|346:349|266:285,1,300,6|10
232,208,156962,2,0,B|176:240|176:240|128:240,2,100,2|0|10
360,56,157423,2,2,B|248:128|248:128|176:128,1,200
88,88,157885,1,8
32,168,158039,1,0
128,192,158193,1,0
72,272,158346,1,0
168,280,158500,1,10
112,360,158654,1,8
216,360,158808,6,0,B|232:240,2,100,8|8|0
296,24,159269,2,0,B|280:144,2,100,8|8|0
400,192,159731,1,0
336,264,159885,2,2,B|280:208|280:208|240:184|240:184|184:128,1,200,10|2
176,264,160346,1,8
176,264,160500,2,2,B|232:208|232:208|272:184|272:184|328:128,1,200,10|2
324,131,160885,1,0
324,131,160962,1,0
324,131,161039,1,0
324,131,161116,1,0
324,131,161193,1,0
324,131,161269,1,4
64,336,163731,6,8,B|128:248|128:248|232:216,3,200,12|8|8|8
72,184,164808,2,0,B|288:120,1,200
352,80,165269,2,8,B|264:120|152:104,1,200
56,96,165731,1,2
40,296,165885,1,10
224,376,166039,1,2
400,288,166193,6,0,B|448:256|448:256|352:216|384:104,1,200,12|8
472,168,166654,1,0
400,288,166808,2,8,B|336:304|176:288,1,200
72,216,167269,2,0,B|176:192|288:200,1,200
400,128,167731,2,8,B|304:96|192:96,1,200
203,96,168193,5,2
400,64,168346,1,10
296,232,168500,1,2
488,200,168654,2,0,B|400:160|256:144,1,200,12|8
24,200,169116,2,0,B|112:160|256:144,1,200
248,240,169577,6,0,B|248:256|248:256|232:272|232:272|264:272|264:272|248:280|248:280|248:296|248:296|248:320,1,100,8|0
168,352,169885,1,8
168,352,170039,1,2
69,334,170193,1,8
210,192,170346,1,2
68,50,170500,1,8
72,192,170654,2,2,B|136:184|136:184|244:201|244:201|272:192,1,200,2|2
256,192,171116,12,0,173269
216,184,173577,6,0,B|194:164|200:141|208:126|227:112|244:107|260:109|275:112|283:118|297:132|303:141|302:149|303:163|296:188|285:203|270:200,3,200,12|8|8|8
216,184,174654,2,0,B|184:248|136:208|136:208|112:168|128:128|128:128|120:104,1,200
291,187,175116,2,8,B|323:123|371:163|371:163|395:203|376:240|376:240|387:267,1,200
292,296,175577,1,2
256,96,175731,1,10
224,296,175885,1,2
336,344,176039,6,0,B|344:256|368:216|416:200|416:200|432:144,1,200,12|8
256,192,176500,1,0
176,40,176654,2,0,B|168:128|144:168|96:184|96:184|80:240,1,200,8|8
80,104,177116,2,0,B|152:136|152:136|304:136,1,200
462,168,177577,1,8
462,168,177731,2,0,B|422:136|422:136|246:136,1,200
200,200,178193,1,8
200,200,178269,1,8
200,200,178346,1,8
160,296,178500,6,0,B|112:264|80:216,1,100,4|0
260,296,178808,2,8,B|160:296,1,100
350,260,179116,2,8,B|328:296|260:296,1,100,0|8
450,260,179423,2,8,B|346:260,1,100
450,59,179731,2,0,B|450:259,1,200,8|0
450,259,180193,1,0
332,168,180346,5,0
181,168,180500,1,0
256,296,180654,2,2,B|256:88,1,200
