osu file format v9

[General]
AudioFilename: .mp3
AudioLeadIn: 0
PreviewTime: 2193
Countdown: 0
SampleSet: Normal
StackLeniency: 0.7
Mode: 0
LetterboxInBreaks: 0

[Editor]
Bookmarks: 9885,22193,41885,46808,72654,138347,156347
DistanceSpacing: 1
BeatDivisor: 4
GridSize: 8

[Metadata]
Title:Recommended Spell
Artist:Hatsune Miku
Creator:val0108
Version:Insane
Source:Vocaloid
Tags:bibuko nyako Lalarun OnosakiHito

[Difficulty]
HPDrainRate:5
CircleSize:4
OverallDifficulty:7
ApproachRate:8
SliderMultiplier:1.6
SliderTickRate:2

[Events]
//Background and Video events
0,0,"orz.png"
//Break Periods
2,12546,21443
2,69161,70674
2,141777,155597
2,161270,162981
//Storyboard Layer 0 (Background)
//Storyboard Layer 1 (Fail)
//Storyboard Layer 2 (Pass)
//Storyboard Layer 3 (Foreground)
Sprite,Foreground,Centre,"SB\rdr.png",320,240 S,0,2193,,0.5695373 M,0,2193,2500,88,117 M,0,2500,2808,88,117 M,0,2808,3116,88,117 M,0,3116,3423,88,117 M,0,3423,3731,88,117 M,0,3731,4039,88,117 M,0,4039,4346,88,117 M,0,4346,4654,88,117 M,0,4654,4962,88,117
Sprite,Foreground,Centre,"SB\v2.png",320,240 M,0,17270,21885,304,367
Sprite,Foreground,Centre,"SB\asd.png",320,240 S,0,3731,,0.5695373 M,0,3731,3808,540,91 M,0,3808,3885,540,91 M,0,3885,3962,540,91 M,0,3962,4039,540,91 M,0,4039,4116,540,91 M,0,4116,4193,540,91 M,0,4193,4270,540,91 M,0,4270,4346,540,91 M,0,4346,4423,540,91 M,0,4423,4500,540,91 M,0,4500,4577,540,91 M,0,4577,4654,540,91 M,0,4654,4731,540,91 M,0,4731,4808,540,91 M,0,4808,4885,540,91 M,0,4885,4962,540,91
Sprite,Foreground,Centre,"SB\aouiesu.png",320,240 S,0,4962,,0.5763703 M,0,4962,5039,95,124 M,0,5039,5116,95,124 M,0,5116,5193,95,124 M,0,5193,5270,95,124 M,0,5270,5346,95,124 M,0,5346,5423,95,124 M,0,5423,5500,95,124 M,0,5500,5577,95,124 M,0,5577,5654,95,124 M,0,5654,5731,95,124 M,0,5731,5808,95,124 M,0,5808,5885,95,124 M,0,5885,5962,95,124 M,0,5962,6039,95,124 M,0,6039,6116,95,124 M,0,6116,6193,95,124 M,0,6193,6270,95,124 M,0,6270,6346,95,124 M,0,6346,6423,95,124 M,0,6423,6500,95,124 M,0,6500,6577,95,124 M,0,6577,6654,95,124 M,0,6654,6731,95,124 M,0,6731,6808,95,124 M,0,6808,6885,95,124 M,0,6885,6962,95,124 M,0,6962,7039,95,124 M,0,7039,7116,95,124 M,0,7116,7193,95,124 M,0,7193,7270,95,124 M,0,7270,7346,95,124 M,0,7346,7423,95,124
Sprite,Foreground,Centre,"SB\fffff.png",320,240 S,0,6193,,0.5695375 M,0,6193,6270,508,80 M,0,6270,6346,508,80 M,0,6346,6423,508,80 M,0,6423,6500,508,80 M,0,6500,6577,508,80 M,0,6577,6654,508,80 M,0,6654,6731,508,80 M,0,6731,6808,508,80 M,0,6808,6885,508,80 M,0,6885,6962,508,80 M,0,6962,7039,508,80 M,0,7039,7116,508,80 M,0,7116,7193,508,80 M,0,7193,7270,508,80 M,0,7270,7346,508,80 M,0,7346,7423,508,80
Sprite,Foreground,Centre,"SB\asdad.png",320,240 S,0,6193,,0.5558717 M,0,6193,6500,531,138 M,0,6500,6808,531,138 M,0,6808,7116,531,138 M,0,7116,7423,531,138
Sprite,Foreground,Centre,"SB\sdasdasd.png",320,240 S,0,7423,,0.5968682 M,0,7423,7500,93,110 M,0,7500,7577,93,110 M,0,7577,7654,93,110 M,0,7654,7731,93,110 M,0,7731,7808,93,110 M,0,7808,7885,93,110 M,0,7885,7962,93,110 M,0,8060,,93,110 M,0,8060,8116,93,110 M,0,8116,8193,93,110 M,0,8193,8270,93,110 M,0,8270,8346,93,110 M,0,8346,8423,93,110 M,0,8423,8500,93,110 M,0,8500,8577,93,110 M,0,8577,8654,93,110 M,0,8654,9577,93,110 M,0,9577,9885,93,110
Sprite,Foreground,Centre,"SB\nukinuki.png",320,240 S,0,8654,,0.6241993 M,0,8654,9885,469,67
Sprite,Foreground,Centre,"SB\amiami.png",320,240 S,0,8654,,0.5627047 M,0,8654,9885,505,132
Sprite,Foreground,Centre,"SB\amiami.png",320,240 S,0,8654,,0.5148752 M,0,8654,9885,535,188
Sprite,Foreground,Centre,"SB\retugo!.png",320,240 S,0,9885,,0.555872 M,0,9885,12346,105,120 M,0,12346,13577,105,120
Sprite,Foreground,Centre,"SB\usi!.png",320,240 S,0,10500,,0.5080426 M,0,10500,12346,486,80 M,0,12346,13577,486,80
Sprite,Foreground,Centre,"SB\dddd.png",320,240 S,0,10500,,0.6173665 M,0,10500,12346,526,139 M,0,12346,13577,526,139
Sprite,Foreground,Centre,"SB\oh.png",320,240 S,0,12039,,0.5900356 M,0,12039,12346,96,366 M,0,12346,13577,96,366
Sprite,Foreground,Centre,"SB\yeah.png",320,240 S,0,12039,,0.549039 M,0,12039,12346,551,324 M,0,12346,13577,551,324
Sprite,Foreground,Centre,"SB\!!.png",320,240 S,0,12039,,0.5148755 M,0,12039,12346,532,389 M,0,12346,13577,532,389
Sprite,Foreground,Centre,"SB\syuugou.png",320,240 S,0,22193,,0.5627045 M,0,22193,27116,102,104
Sprite,Foreground,Centre,"SB\2ji.png",320,240 M,0,22193,23731,82,201 S,0,23731,,0.6583629 M,0,23731,27116,82,201
Sprite,Foreground,Centre,"SB\10hunn.png",320,240 S,0,24193,,0.5353739 M,0,24193,27116,500,79
Sprite,Foreground,Centre,"SB\syugou.png",320,240 S,0,24193,,0.5285408 M,0,24193,27116,525,137
Sprite,Foreground,Centre,"SB\gensyu.png",320,240 S,0,24193,,0.5627046 M,0,24193,27116,542,198
Sprite,Foreground,Centre,"SB\mozoa.png",320,240 M,0,26193,26346,89,350 S,0,26346,,0.5353735 M,0,26346,27116,89,350
Sprite,Foreground,Centre,"SB\kyoku.png",320,240 S,0,17270,,0.5968683 M,0,17270,19731,92,192
Sprite,Foreground,Centre,"SB\nyako.png",320,240 S,0,19731,,0.5080425 M,0,19731,21885,89,95
Sprite,Foreground,Centre,"SB\koto.png",320,240 M,0,26193,26346,545,350 S,0,26346,,0.5763701 M,0,26346,27116,545,350
Sprite,Foreground,Centre,"SB\gosinboku.png",320,240 S,0,28346,,0.5080427 M,0,28346,32039,507,78
Sprite,Foreground,Centre,"SB\mae.png",320,240 S,0,28346,,0.5012098 M,0,28346,32039,530,129
Sprite,Foreground,Centre,"SB\hukusou.png",320,240 S,0,29577,,0.5148754 M,0,29577,32039,110,186
Sprite,Foreground,Centre,"SB\basyo.png",320,240 S,0,27116,,0.5558719 M,0,27116,32039,98,80
Sprite,Foreground,Centre,"SB\siro.png",320,240 S,0,30500,,0.5832027 M,0,30500,32039,543,218
Sprite,Foreground,Centre,"SB\si.png",320,240 S,0,30962,,0.6173666 M,0,30962,32039,546,385
Sprite,Foreground,Centre,"SB\asadsdnozo.png",320,240 S,0,30962,,0.5627049 M,0,30962,32039,84,353
Sprite,Foreground,Centre,"SB\hatunemiku.png",320,240 S,0,17270,,0.5627048 M,0,17270,19731,94,102
Sprite,Foreground,Centre,"SB\susume.png",320,240 S,0,17270,,0.5080427 M,0,17270,21885,534,122
Sprite,Foreground,Centre,"SB\wara.png",320,240 M,0,33270,,468,74 S,0,33270,,0.5148754 M,0,33270,36962,468,74
Sprite,Foreground,Centre,"SB\ningyou.png",320,240 S,0,33270,,0.5968685 M,0,33270,36962,516,133
Sprite,Foreground,Centre,"SB\nikui.png",320,240 S,0,34500,,0.5900356 M,0,34500,36962,73,247
Sprite,Foreground,Centre,"SB\tume.png",320,240 S,0,35731,,0.6173665 M,0,35731,36962,548,202
Sprite,Foreground,Centre,"SB\kaminoke.png",320,240 S,0,35731,,0.5353731 M,0,35731,36962,550,260
Sprite,Foreground,Centre,"SB\rousoku.png",320,240 S,0,36962,,0.5080426 M,0,36962,41885,105,86
Sprite,Foreground,Centre,"SB\sasite.png",320,240 S,0,38193,,0.555872 M,0,38193,41885,535,140
Sprite,Foreground,Centre,"SB\gotoku.png",320,240 S,0,38193,,0.528541 M,0,38193,41885,496,69
Sprite,Foreground,Centre,"SB\gosunkugi.png",320,240 S,0,39423,,0.4397153 M,0,39423,41885,86,192
Sprite,Foreground,Centre,"SB\kinisasite.png",320,240 S,0,40500,,0.473879 M,0,40500,41885,551,265
Sprite,Foreground,Centre,"SB\ookiku.png",320,240 S,0,41885,,0.4943771 M,0,41885,46808,536,158
Sprite,Foreground,Centre,"SB\tataki.png",320,240 M,0,44039,46808,87,239 S,0,44346,,0.5012099
Sprite,Foreground,Centre,"SB\sinkennna.png",320,240 S,0,47116,,0.4807117 M,0,47116,51423,533,158
Sprite,Foreground,Centre,"SB\todoku.png",320,240 S,0,49270,,0.50121 M,0,49270,51423,89,273
Sprite,Foreground,Centre,"SB\nenjite.png",320,240 S,0,51731,,0.5080426 M,0,51731,56346,539,143
Sprite,Foreground,Centre,"SB\seiippai.png",320,240 S,0,53885,,0.4602135 M,0,53885,56346,78,193
Sprite,Foreground,Centre,"SB\mottomotto.png",320,240 S,0,56654,,0.5627047 M,0,56654,61270,528,98
Sprite,Foreground,Centre,"SB\negatte.png",320,240 S,0,56654,,0.5080425 M,0,56654,61270,548,210
Sprite,Foreground,Centre,"SB\korositai.png",320,240 S,0,58808,,0.4260498 M,0,58808,61270,86,192
Sprite,Foreground,Centre,"SB\dakedoikoredake.png",320,240 S,0,61577,,0.4943773 M,0,61577,65885,535,170
Sprite,Foreground,Centre,"SB\kessite.png",320,240 S,0,63731,,0.5558718 M,0,63731,65885,138,119
Sprite,Foreground,Centre,"SB\wasurenaide.png",320,240 S,0,63731,,0.5148754 M,0,63731,65885,76,240
Sprite,Foreground,Centre,"SB\utinikaeru.png",320,240 S,0,66039,,0.4602135 M,0,66039,69885,527,165 M,0,69885,70039,527,165
Sprite,Foreground,Centre,"SB\usinokokumairi.png",320,240 S,0,67423,,0.4055518 M,0,67423,69885,90,256 M,0,69885,70039,90,256
Sprite,Foreground,Centre,"SB\val0108.png",320,240 M,0,17270,21885,325,382
Sprite,Foreground,Centre,"SB\darenimo.png",320,240 S,0,72654,,0.4670464 M,0,72654,77577,108,131
Sprite,Foreground,Centre,"SB\you.png",320,240 S,0,72654,,0.4465477 M,0,72654,77577,83,227
Sprite,Foreground,Centre,"SB\saisin.png",320,240 S,0,74500,,0.4875446 M,0,74500,77577,503,86
Sprite,Foreground,Centre,"SB\tyuui.png",320,240 S,0,74500,,0.4533809 M,0,74500,77577,545,158
Sprite,Foreground,Centre,"SB\kotooooo.png",320,240 M,0,74500,77577,552,231 S,0,76500,,0.5217082
Sprite,Foreground,Centre,"SB\mosimo.png",320,240 S,0,77577,,0.4738789 M,0,77577,82500,105,110
Sprite,Foreground,Centre,"SB\baai.png",320,240 S,0,77577,,0.4397154 M,0,77577,82500,80,183
Sprite,Foreground,Centre,"SB\ikinone.png",320,240 S,0,79423,,0.4670462 M,0,79423,82500,546,160
Sprite,Foreground,Centre,"SB\sumiyaka.png",320,240 S,0,79423,,0.5353737 M,0,79423,82500,515,80
Sprite,Foreground,Centre,"SB\koto.png",320,240 S,0,80962,,0.5627048 M,0,80962,82500,544,353
Sprite,Foreground,Centre,"SB\tomeru.png",320,240 S,0,80962,,0.5558721 M,0,80962,82500,81,339
Sprite,Foreground,Centre,"SB\tyotto.png",320,240 M,0,82807,,530,127 S,0,82807,,0.6173666
Sprite,Foreground,Centre,"SB\hademe.png",320,240 S,0,82500,,0.4123843 M,0,82500,86808,70,237
Sprite,Foreground,Centre,"SB\kusi.png",320,240 S,0,84346,,0.4670463 M,0,84346,86808,529,155
Sprite,Foreground,Centre,"SB\motte.png",320,240 S,0,32039,,0.528541 M,0,32039,36962,102,85
Sprite,Foreground,Centre,"SB\tyotto.png",320,240 S,0,82500,,0.5080426 M,0,82500,86808,147,117
Sprite,Foreground,Centre,"SB\hi-ru.png",320,240 S,0,86808,,0.4602136 M,0,86808,89270,106,98
Sprite,Foreground,Centre,"SB\doresu.png",320,240 S,0,86808,,0.4807118 M,0,86808,89270,87,191
Sprite,Foreground,Centre,"SB\geta.png",320,240 S,0,88654,,0.4055516 M,0,88654,89885,519,179
Sprite,Foreground,Centre,"SB\kousu.png",320,240 S,0,89577,,0.5148753 M,0,89577,92346,85,386
Sprite,Foreground,Centre,"SB\rettu.png",320,240 S,0,89577,,0.4533809 M,0,89577,92346,75,337
Sprite,Foreground,Centre,"SB\akuse.png",320,240 S,0,89577,,0.50121 M,0,89577,92346,96,157
Sprite,Foreground,Centre,"SB\ookime.png",320,240 S,0,89577,,0.521708 M,0,89577,92346,111,94
Sprite,Foreground,Centre,"SB\juzu.png",320,240 S,0,91116,,0.4670462 M,0,91116,92654,530,214
Sprite,Foreground,Centre,"SB\tiisanawara.png",320,240 S,0,92654,,0.4807117 M,0,92654,97270,543,165
Sprite,Foreground,Centre,"SB\butukeru.png",320,240 S,0,94500,,0.4670462 M,0,94500,97270,90,265
Sprite,Foreground,Centre,"SB\kimoti.png",320,240 S,0,94500,,0.5285409 M,0,94500,97270,145,115
Sprite,Foreground,Centre,"SB\issin.png",320,240 S,0,97270,,0.5012101 M,0,97270,101885,538,160
Sprite,Foreground,Centre,"SB\kanau.png",320,240 S,0,99731,,0.5627046 M,0,99731,101885,101,232
Sprite,Foreground,Centre,"SB\nikude.png",320,240 S,0,102193,,0.5217083 M,0,102193,106808,531,155
Sprite,Foreground,Centre,"SB\nigasaaide.png",320,240 S,0,104346,,0.4875445 M,0,104346,106808,79,201
Sprite,Foreground,Centre,"SB\mottomottohukaku.png",320,240 S,0,107116,,0.5080428 M,0,107116,111731,107,124
Sprite,Foreground,Centre,"SB\urande.png",320,240 S,0,107116,,0.4533809 M,0,107116,111731,82,225
Sprite,Foreground,Centre,"SB\harasa.png",320,240 S,0,109270,,0.528541 M,0,109270,111731,522,147
Sprite,Foreground,Centre,"SB\deokuneki.png",320,240 S,0,109270,,0.4670462 M,0,109270,111731,546,246
Sprite,Foreground,Centre,"SB\konoura.png",320,240 S,0,109270,,0.5217082 M,0,109270,111731,508,83
Sprite,Foreground,Centre,"SB\dakedo.png",320,240 S,0,112039,,0.4260499 M,0,112039,116346,525,151
Sprite,Foreground,Centre,"SB\norowaba.png",320,240 S,0,114193,,0.4602135 M,0,114193,116346,88,250
Sprite,Foreground,Centre,"SB\yoikonominnnaha.png",320,240 S,0,116346,,0.5422063 M,0,116346,121885,535,138 M,0,121885,122808,535,138
Sprite,Foreground,Centre,"SB\zettai.png",320,240 S,0,117885,,0.5763701 M,0,117885,121885,151,106 M,0,121885,122808,151,106
Sprite,Foreground,Centre,"SB\manesiaide.png",320,240 S,0,117885,,0.4875445 M,0,117885,121885,80,217 M,0,121885,122808,80,217
Sprite,Foreground,Centre,"SB\guitar.png",320,240 S,0,120346,,0.5968683 M,0,120346,121885,153,449 M,0,121885,122808,153,449
Sprite,Foreground,Centre,"SB\a-iyta-.png",320,240 S,0,141577,,0.4602133 M,0,141577,146500,315,452
Sprite,Foreground,Centre,"SB\aaaiyaa.png",320,240 S,0,146500,,0.5148751 M,0,146500,151116,320,455
Sprite,Foreground,Centre,"SB\a-iyta-.png",320,240 S,0,151423,,0.4602136 M,0,151423,156039,319,449
Sprite,Foreground,Centre,"SB\aaaaaaaaa.png",320,240 S,0,156270,,0.5763699 M,0,156270,159423,319,454
Sprite,Foreground,Centre,"SB\nenjite.png",320,240 S,0,163731,,0.5217083 M,0,163731,168346,539,162
Sprite,Foreground,Centre,"SB\tatattyatte.png",320,240 S,0,165885,,0.4807118 M,0,165885,168346,84,218
Sprite,Foreground,Centre,"SB\mottmoto.png",320,240 S,0,168654,,0.5627047 M,0,168654,173270,91,100
Sprite,Foreground,Centre,"SB\agete.png",320,240 S,0,168654,,0.5763699 M,0,168654,173270,92,216
Sprite,Foreground,Centre,"SB\motibe-syon.png",320,240 S,0,170808,,0.4602135 M,0,170808,173270,527,181
Sprite,Foreground,Centre,"SB\dakedoikoredake.png",320,240 S,0,173577,,0.4602135 M,0,173577,177885,535,163
Sprite,Foreground,Centre,"SB\wasurenaide.png",320,240 S,0,175731,,0.5285408 M,0,175731,177885,78,276
Sprite,Foreground,Centre,"SB\kessite.png",320,240 S,0,175731,,0.528541 M,0,175731,177885,143,127
Sprite,Foreground,Centre,"SB\hitoto.png",320,240 S,0,114193,,0.555872 M,0,114193,116346,161,111
Sprite,Foreground,Centre,"SB\usinokokumairi.png",320,240 S,0,179423,,0.4328827 M,0,179423,182039,89,278 M,0,182039,,89,278
Sprite,Foreground,Centre,"SB\utinikaeru.png",320,240 S,0,177885,,0.4465481 M,0,177885,182039,531,150 M,0,182039,,531,150
//Storyboard Sound Samples
//Background Colour Transformations
3,100,163,162,255

[TimingPoints]
1270,307.692307692308,4,1,2,80,1,0
11962,-100,4,2,2,80,0,0
12116,-100,4,1,2,80,0,0
25577,-100,4,1,1,80,0,0
25654,-100,4,1,2,80,0,0
51731,-100,4,1,2,80,0,1
52962,-100,4,1,1,80,0,1
53039,-100,4,1,2,80,0,1
55423,-100,4,1,1,80,0,1
55500,-100,4,1,2,80,0,1
58808,-100,4,1,1,80,0,1
58885,-100,4,1,2,80,0,1
62808,-100,4,1,1,80,0,1
62885,-100,4,1,2,80,0,1
65270,-100,4,1,1,80,0,1
65346,-100,4,1,2,80,0,1
67731,-100,4,1,2,80,0,0
100654,-100,4,1,1,80,0,0
100731,-100,4,1,2,80,0,0
102193,-100,4,1,2,80,0,1
103423,-100,4,1,1,80,0,1
103500,-100,4,1,2,80,0,1
105885,-100,4,1,1,80,0,1
105962,-100,4,1,2,80,0,1
109270,-100,4,1,1,80,0,1
109346,-100,4,1,2,80,0,1
113270,-100,4,1,1,80,0,1
113346,-100,4,1,2,80,0,1
116346,-100,4,1,1,80,0,1
116423,-100,4,1,2,80,0,1
118193,-100,4,1,2,80,0,0
119423,-100,4,1,1,80,0,0
119500,-100,4,1,2,80,0,0
156654,-100,4,1,1,80,0,0
156731,-100,4,1,2,80,0,0
163731,-100,4,1,2,80,0,1
164962,-100,4,1,1,80,0,1
165039,-100,4,1,2,80,0,1
167423,-100,4,1,1,80,0,1
167500,-100,4,1,2,80,0,1
170808,-100,4,1,1,80,0,1
170885,-100,4,1,2,80,0,1
174808,-100,4,1,1,80,0,1
174885,-100,4,1,2,80,0,1
177270,-100,4,1,1,80,0,1
177346,-100,4,1,2,80,0,1
177885,-100,4,1,1,80,0,1
177962,-100,4,1,2,80,0,1
179731,-100,4,1,2,80,0,0

[Colours]
Combo1 : 128,128,64
Combo2 : 255,128,64
Combo3 : 64,128,128
Combo4 : 255,255,255

[HitObjects]
256,336,2193,2,2,B|272:264|240:232|256:176,1,160,2|14
255,97,2654,1,0
184,56,2808,1,0
184,136,2962,2,0,B|328:48,1,160
320,133,3424,1,0
320,133,3577,1,0
400,136,3731,6,2,B|400:184|360:208,2,80,10|2|2
424,256,4193,2,0,B|256:256,1,160,0|0
183,256,4654,1,0
152,328,4808,1,0
232,328,4962,5,12
232,328,5116,2,2,B|144:272|96:200,1,160,2|2
48,264,5577,1,0
48,264,5731,2,2,B|128:184|160:112,1,160,2|2
104,72,6193,2,0,B|54:46|6:46,2,80,8|0|0
146,138,6654,2,0,B|320:136,1,160,8|0
352,72,7116,1,8
352,72,7270,1,0
424,104,7424,6,0,B|448:152|432:200,2,80,6|0|8
360,152,7885,2,2,B|200:64,1,160
144,112,8347,1,0
128,192,8501,1,0
192,240,8654,6,0,B|225:273|248:312,2,80,2|0|8
56,320,9116,2,2,B|109:263|194:241,1,160
174,319,9577,1,8
64,208,9731,1,8
120,152,9885,6,0,B|168:128|168:128|224:128,1,80,12|0
392,152,10193,2,8,B|344:128|344:128|288:128,1,80
256,72,10501,1,0
256,152,10654,1,0
256,232,10808,1,0
192,280,10962,2,2,B|224:328|256:336|312:320|320:272,1,160,6|2
176,192,11424,5,8
335,192,11577,1,8
256,72,11731,2,0,B|256:248,2,160,0|4|4
136,112,22193,6,0,B|104:160|72:176,2,80,4|0|8
184,48,22654,1,0
184,128,22808,2,0,B|184:240,1,80
240,264,23116,2,0,B|240:352,1,80,8|0
168,304,23424,1,0
296,208,23577,1,0
424,296,23731,1,8
347,273,23885,2,2,B|379:233|379:169,1,80
296,208,24193,2,0,B|256:168|208:160,2,80,2|8|2
408,88,24654,5,0
344,40,24808,2,0,B|288:72|248:72,1,80,0|8
192,48,25116,1,0
120,72,25270,1,0
32,208,25424,2,2,B|136:184|160:104,1,160
72,120,25885,2,0,B|152:168|200:256,1,160,2|8
288,319,26347,2,2,B|248:231|248:231|185:231,1,160
184,232,26808,1,8
184,231,26962,2,0,B|200:152,1,80,0|4
280,152,27270,5,0
352,120,27424,1,8
424,160,27577,1,0
488,208,27731,1,0
416,248,27885,1,0
352,200,28039,1,8
424,160,28193,1,0
352,200,28347,6,2,B|352:288,2,80,2|2|10
288,56,28808,2,2,B|272:96|280:144,1,80
240,208,29116,1,0
120,104,29270,1,8
64,256,29424,2,0,B|96:208|144:192,1,80,2|4
48,168,29731,5,0
130,305,29885,1,8
192,160,30039,2,0,B|288:120|376:112,1,160
192,160,30501,1,8
176,80,30654,2,8,B|112:48,2,40
264,48,30962,6,0,B|296:96|296:96|352:104,1,80,8|0
392,240,31270,2,0,B|288:240,1,80,8|0
152,232,31577,2,8,B|104:280,2,40
40,120,31885,2,2,B|64:112|64:112|120:112,1,80,10|6
64,216,32193,5,0
200,128,32347,1,8
184,288,32501,1,0
304,184,32654,1,0
296,344,32808,1,0
200,216,32962,1,8
72,312,33116,2,0,B|168:376,1,80
264,256,33424,6,2,B|240:328|208:336,2,80,2|10|2
280,96,33885,2,0,B|344:96|344:96|357:87,1,80,2|0
200,80,34193,1,10
216,160,34347,2,0,B|160:160|160:160|144:176,1,80,2|4
296,176,34654,6,0,B|336:192|376:208,2,80,0|8|0
240,232,35116,1,0
168,264,35270,1,0
88,264,35424,1,8
16,232,35577,1,0
80,184,35731,2,2,B|64:120|24:112,2,80,2|2|10
80,184,36193,2,2,B|160:128|160:128|248:120,1,160,10|2
256,48,36654,1,8
320,96,36808,2,0,B|399:87,1,80,0|4
288,192,37116,6,0,B|288:280,2,80,0|8|0
227,140,37577,1,0
208,216,37731,2,0,B|192:248|144:272,1,80,0|8
92,212,38039,1,0
132,57,38193,1,2
11,158,38347,1,2
168,146,38501,1,10
38,60,38654,2,2,B|79:120|122:120,1,80
168,146,38962,1,0
248,144,39116,1,8
280,72,39270,2,0,B|272:32,2,40,2|0|4
344,112,39577,1,0
448,224,39731,6,0,B|360:200|264:200,1,160,8|0
245,267,40193,1,0
245,267,40347,1,8
184,320,40501,2,8,B|112:320,2,40
170,239,40808,6,0,B|242:255|266:287,1,80,10|0
296,328,41116,2,0,B|328:296|328:248,1,80,10|0
289,185,41424,1,8
289,185,41501,1,8
289,185,41577,2,8,B|335:142,4,40,8|8|8|8|4
64,80,42193,6,0,B|96:104|96:104|136:136|224:104,1,160,8|0
72,184,42654,2,0,B|120:200|176:200,1,80,0|8
150,39,42962,2,2,B|150:199,1,160
113,266,43424,2,0,B|152:235|150:199,1,80,10|0
212,244,43731,2,0,B|188:205|150:199,1,80,2|0
208,144,44039,1,10
256,80,44193,1,0
320,32,44347,5,0
320,32,44501,1,0
400,56,44654,1,8
400,56,44808,1,0
392,136,44962,2,0,B|496:136,2,80,0|0|8
406,254,45424,2,2,B|446:222|446:222|454:166|374:126,1,160
344,200,45885,2,0,B|256:176,1,80,10|0
104,168,46193,2,0,B|200:104,1,80,10|0
320,56,46501,2,8,B|248:56,4,40,8|8|8|8|4
56,336,47116,6,0,B|56:240,1,80,8|0
136,232,47424,2,0,B|136:144,2,80,0|0|8
238,310,47885,1,0
238,310,48039,2,2,B|183:318|183:318|135:294|136:232,1,160,2|10
216,232,48501,2,2,B|312:200,1,80
312,128,48808,2,0,B|400:96,2,80,0|8|0
256,192,49270,12,4,51424
120,32,51731,6,8,B|152:64|152:64|152:128|152:128|112:168,3,160
56,224,52808,2,0,B|128:264|128:264|224:264,1,160
354,304,53270,2,8,B|282:264|282:264|205:264,1,160
168,192,53731,1,2
208,344,53885,1,10
248,192,54039,1,2
288,344,54193,6,0,B|352:192,1,160,12|8
256,64,54654,1,0
336,71,54808,2,8,B|336:158|375:223,1,160
456,200,55270,2,0,B|360:240|304:320,1,160
387,344,55731,2,0,B|327:292,1,80,8|0
248,320,56039,5,10
120,224,56193,1,2
280,224,56347,1,10
152,320,56501,1,2
200,168,56654,6,0,B|200:272,2,80,12|0|8
200,168,57116,2,0,B|163:161|112:168,1,80,0|8
264,88,57424,2,0,B|312:96|360:88,1,80,0|8
176,88,57731,5,0
288,168,57885,1,8
176,88,58039,1,0
288,168,58193,2,0,B|288:264,2,80,8|0|8
432,232,58654,2,2,B|447:136|447:136|421:163|368:168,1,160,2|10
320,312,59116,5,12
320,312,59270,1,0
240,312,59424,1,8
240,312,59577,1,0
160,312,59731,2,0,B|160:224,2,80,8|0|8
80,312,60193,2,2,B|80:184|80:184|112:160,1,160,10|2
240,80,60654,2,2,B|184:80|184:80|160:88,1,80,10|2
184,164,60962,1,8
264,164,61116,1,8
284,164,61193,1,8
304,164,61270,1,8
324,164,61347,1,8
344,164,61424,1,8
364,164,61501,1,8
383,164,61577,6,0,B|420:164|420:164|441:205|425:253|425:253|377:253,3,160,12|8|8|8
248,320,62654,2,0,B|296:320|296:320|336:352|416:352,1,160
288,240,63116,2,8,B|176:240|176:240|176:304,1,160
128,352,63577,1,2
72,296,63731,1,10
104,224,63885,1,2
176,168,64039,6,0,B|123:151|123:151|88:104|120:32,1,160,12|8
184,88,64501,1,0
176,168,64654,2,8,B|224:208|268:210|268:210|336:208,1,160
392,168,65116,2,2,B|296:224|272:296,1,160
304,352,65577,1,8
224,328,65731,2,2,B|184:312|184:312|128:312,1,80,2|8
80,264,66039,1,0
80,243,66116,1,0
80,222,66193,1,8
80,201,66270,1,8
80,180,66347,1,8
80,159,66424,1,8
80,138,66501,6,0,B|120:96|120:96|176:96,1,80,12|0
240,224,66808,2,8,B|160:216,1,80
304,144,67116,2,0,B|392:160,1,80
304,296,67423,2,8,B|240:320|200:320,1,80
394,317,67731,6,0,B|404:263|370:229|386:125,1,160,4|0
304,144,68193,1,0
160,69,68347,1,0
223,214,68501,1,0
256,60,68654,2,2,B|207:153|111:162,1,160
80,104,71424,5,0
80,124,71501,1,0
80,143,71577,1,0
80,163,71654,1,0
80,184,71731,2,0,B|90:230|72:240|80:280,1,80
80,304,72039,5,0
120,304,72193,1,0
160,304,72347,2,0,B|176:304|176:304|184:296|184:296|184:312|184:312|192:304|192:304|184:304|184:304|212:296|241:324|288:304,1,160,0|4
312,232,72808,6,0,B|408:232,2,80,0|8|0
264,168,73270,1,0
183,168,73424,1,0
240,112,73577,1,8
320,112,73731,1,0
376,168,73885,2,0,B|464:168,2,80,0|2|10
272,48,74347,2,2,B|160:48,1,80
104,80,74654,5,0
56,144,74808,1,8
88,216,74962,1,0
136,152,75116,2,0,B|176:192|184:248,1,80
32,288,75424,2,0,B|80:304|136:296,1,80,8|0
192,296,75731,2,0,B|232:368,1,80
192,296,76039,2,0,B|248:216,1,80,8|0
192,296,76347,6,2,B|304:296,1,80
353,198,76654,1,8
353,198,76808,2,2,B|353:262|353:262|346:287|321:302|272:296,1,160
264,216,77270,1,8
272,136,77424,1,8
264,56,77577,1,12
120,48,77731,5,0
72,112,77885,1,8
120,176,78039,1,0
112,256,78193,2,0,B|32:256,2,80,0|0|8
235,309,78654,1,0
234,309,78808,2,2,B|187:325|187:325|123:317|112:256,1,160,2|10
192,240,79270,2,2,B|288:216,1,80,10|0
424,192,79577,1,0
360,144,79731,1,8
344,224,79885,1,0
288,168,80039,6,0,B|240:152|240:152|184:152,2,80,4|0|8
148,84,80501,1,0
96,144,80654,2,0,B|48:136|48:136|8:136,2,80,0|0|8
88,248,81116,6,0,B|48:304,2,40,10|8|8
160,312,81424,2,0,B|192:352|192:352|232:352,1,80,10|0
352,312,81731,2,0,B|320:352|320:352|280:352,1,80,10|0
256,280,82039,1,8
256,259,82116,1,8
256,240,82193,1,8
256,159,82347,1,8
256,80,82501,5,4
256,80,82654,1,0
336,64,82808,1,8
336,64,82962,1,0
352,144,83116,2,2,B|360:192|360:192|400:200,1,80
432,128,83424,1,10
432,128,83577,1,2
256,80,83731,5,0
256,80,83884,1,0
176,64,84038,1,8
176,64,84192,1,0
160,144,84346,2,2,B|152:192|152:192|112:200,1,80
80,128,84654,1,10
80,128,84807,1,2
80,208,84962,6,0,B|80:304,2,80,0|0|8
152,248,85424,1,0
224,224,85577,2,0,B|224:312,2,80,0|0|8
240,144,86039,2,2,B|280:112|280:112|328:88|376:128|384:168|384:168|384:224,1,240,2|10
384,221,86654,1,10
384,221,86962,5,8
384,221,87116,1,8
384,221,87270,1,8
360,320,87424,6,0,B|264:320,1,80,4|0
160,208,87732,2,0,B|256:208,1,80,8|0
152,344,88040,2,0,B|72:344,2,80,0|0|8
200,280,88501,1,0
240,208,88654,2,2,B|240:120|240:120|344:120,1,160,2|10
392,120,89116,1,8
392,39,89270,1,0
472,120,89424,1,0
392,200,89577,1,8
312,120,89731,1,8
256,48,89885,6,0,B|224:144,1,80,6|0
256,328,90193,2,0,B|288:232,1,80,10|0
224,192,90501,2,2,B|128:192,2,80,2|2|10
304,192,90962,1,8
304,192,91039,1,8
304,192,91116,2,10,B|480:192,1,160,14|6
440,120,91577,5,2
360,120,91731,1,12
280,120,91885,2,8,B|224:120,2,40,8|8|12
360,120,92193,2,2,B|360:304,1,160,10|2
288,320,92654,6,0,B|256:328|192:320,1,80,8|0
136,280,92962,1,0
80,224,93116,2,0,B|128:240|192:240,1,80,0|8
158,238,93424,2,2,B|136:192|136:192|112:144|176:80,1,160
88,64,93885,2,0,B|64:104|53:144,1,80,10|0
216,152,94193,2,0,B|240:112|240:64,2,80,2|0|10
296,152,94654,5,0
376,144,94808,1,4
456,152,94962,1,0
376,144,95116,1,8
376,224,95270,1,0
376,144,95424,2,0,B|376:48,2,80,0|0|8
376,296,95885,6,2,B|312:232|232:208,1,160
242,211,96347,2,2,B|200:224|144:224,1,80,10|0
163,223,96654,2,2,B|104:208|80:192,1,80,10|2
40,128,96962,1,8
54,113,97039,1,8
68,98,97116,1,8
82,83,97193,1,8
96,68,97270,1,4
312,96,97577,6,0,B|336:136|336:136|392:152|448:88,2,160,8|0|8
376,48,98347,1,0
264,160,98501,2,2,B|232:208|232:208|184:232|112:200,1,160,2|10
56,208,98962,2,0,B|48:256,2,40,2|0|0
64,128,99270,2,0,B|40:40,2,80,0|8|0
136,88,99731,6,0,B|224:80,1,80,4|0
200,240,100039,2,0,B|288:232,2,80,12|0|0
128,280,100501,2,0,B|168:328|168:328|232:352|296:336,1,160
344,320,100962,1,0
400,264,101116,5,0
400,264,101270,2,0,B|336:232|320:200,1,80,8|0
304,64,101577,2,0,B|360:88|384:112,1,80,8|0
224,152,101885,2,0,B|184:128|144:88,1,80,8|0
88,136,102193,6,8,B|64:184|64:184|88:272|152:264,3,160,12|8|8|8
48,288,103270,2,0,B|120:280|200:216,1,160
351,222,103731,2,8,B|191:222,1,160
332,145,104193,1,2
291,299,104347,1,10
248,144,104501,1,2
215,299,104654,6,8,B|290:286|396:297,1,160
112,104,105270,2,8,B|216:104|296:80,1,160
216,32,105731,2,0,B|200:112|120:176,1,160
72,312,106193,2,0,B|120:280|112:240,1,80,8|0
48,200,106501,1,10
128,192,106654,1,2
208,200,106808,1,10
288,192,106962,1,2
368,200,107116,6,0,B|416:192|416:192|464:208,2,80,12|0|8
320,136,107577,2,0,B|408:120,1,80,0|8
320,264,107885,2,0,B|408:280,1,80,0|8
360,352,108193,1,0
280,360,108347,1,8
200,360,108501,1,0
200,280,108654,2,0,B|200:176,2,80,10|0|8
200,280,109116,2,2,B|128:320|152:184|40:232,1,160
40,144,109577,5,12
40,144,109731,1,0
96,88,109885,1,8
96,88,110039,1,0
176,112,110193,1,8
256,120,110347,1,0
224,48,110501,1,8
176,112,110654,1,0
216,184,110808,1,8
296,192,110962,1,0
336,120,111116,1,8
304,48,111270,1,0
304,48,111423,2,10,B|360:48,4,40,10|10|10|10|6
424,200,112039,6,8,B|456:224|456:304|456:304|384:304,3,160,12|8|8|8
178,255,113116,2,0,B|256:312|328:304,1,160
328,304,113577,2,8,B|308:213|328:136,1,160
248,144,114039,1,2
168,152,114193,1,10
96,192,114347,1,2
88,272,114501,6,8,B|144:248|144:168|96:128,1,160,12|8
160,80,114962,1,0
232,40,115116,2,8,B|202:93|251:156|314:158,1,160
304,80,115577,1,0
376,160,115731,1,8
304,240,115885,1,0
376,320,116039,1,8
236,311,116193,2,2,B|316:303|396:223,1,160
456,240,116654,1,8
456,240,116808,1,8
432,88,116962,6,0,B|320:72,1,80,12|8
200,128,117270,2,0,B|88:112,1,80,8|0
400,200,117577,2,0,B|288:184,1,80,8|8
168,240,117885,2,0,B|56:224,2,80,8|0|4
352,296,118501,5,0
352,296,118654,1,0
272,320,118808,2,0,B|256:232,2,80
272,320,119270,2,0,B|168:336|32:312,1,240,0|8
120,176,120039,2,0,B|88:144|88:144|40:144,2,80,0|0|8
64,232,120501,2,2,B|96:256|96:256|192:256|192:256|208:232,1,160
205,236,120962,2,0,B|232:192|232:192|272:192,1,80,10|0
260,192,121270,2,0,B|296:232|296:232|344:232,1,80,10|0
400,232,121577,1,8
420,232,121654,1,8
440,232,121731,1,8
460,232,121808,1,8
480,232,121885,6,2,B|464:208|464:208|464:184|464:184|440:176|440:176|432:144|432:144|408:136|408:136|392:96,1,160,6|10
336,64,122347,1,0
272,112,122500,2,0,B|232:136|232:136|176:136,2,80,0|0|8
208,64,122962,2,0,B|160:64|160:64|120:96,1,80,2|0
63,231,123270,2,0,B|80:248|80:248|136:248,1,80,2|8
216,248,123577,2,2,B|222:267|222:267|242:267|242:267|242:287|242:287|261:287|261:287|261:306,1,80,2|2
314,349,123885,1,0
368,288,124039,1,8
352,208,124193,6,6,B|304:168|304:168|256:176|176:152,1,160,6|2
187,160,124577,1,0
171,160,124654,1,8
88,160,124808,1,0
88,240,124962,2,0,B|76:274|76:274|80:328,2,80,0|0|8
88,160,125424,1,0
104,80,125577,2,0,B|128:40|128:40|160:16,2,80,2|0|8
104,80,126039,2,2,B|176:104|280:96,1,160,2|2
440,240,126654,5,0
472,168,126808,1,4
472,168,126962,1,0
432,96,127116,1,8
351,96,127270,2,0,B|312:128|312:128|264:128,1,80
161,288,127577,2,2,B|200:256|200:256|248:256,1,80,0|8
376,192,127885,2,2,B|192:192,1,160
152,136,128347,5,8
88,176,128501,1,0
32,232,128654,1,0
112,256,128808,1,0
88,176,128962,1,8
80,96,129116,1,8
152,136,129270,6,0,B|248:136,1,80,6|0
280,72,129577,2,0,B|368:72,1,80,10|0
488,136,129885,2,0,B|400:136,2,80,0|10|8
480,216,130347,2,2,B|416:216|416:216|392:264|336:264,1,160
318,263,130731,1,0
297,263,130808,1,8
216,264,130962,1,0
152,312,131116,1,0
88,264,131270,1,8
48,192,131424,1,8
48,112,131577,1,8
48,32,131731,5,4
80,104,131885,1,0
144,144,132039,1,8
216,184,132193,1,0
296,208,132347,1,0
240,152,132501,1,0
208,80,132654,1,8
256,16,132808,1,0
312,72,132962,2,2,B|328:64|328:64|328:80|328:80|328:72|328:72|391:72,1,80
424,128,133270,2,0,B|428:147|428:147|422:167|422:167|429:194|429:194|424:224,1,80,10|0
408,280,133577,2,2,B|392:264|392:264|400:256|400:256|384:272|384:272|384:256|384:256|352:224|320:248|304:176,1,160,2|10
248,248,134039,1,0
248,248,134193,6,0,B|200:272|136:264,1,80,4|0
88,264,134501,1,8
56,192,134654,1,0
64,112,134808,1,0
112,176,134962,1,0
192,176,135116,1,8
272,168,135270,2,2,B|288:152|288:152|283:145|283:145|296:160|296:160|296:144|296:144|392:72,1,160
432,40,135731,1,8
432,40,135885,1,8
472,112,136039,1,0
416,168,136193,1,0
464,232,136346,1,8
440,312,136501,2,2,B|416:304|416:304|384:312|384:312|360:304|360:304|328:312|328:312|304:304|304:304|280:312,1,160,6|2
224,264,136962,6,0,B|264:232|264:232|328:232,1,80,8|0
224,264,137270,2,0,B|224:352,2,80,0|0|8
144,264,137731,2,2,B|112:248|112:248|96:208|112:160|112:160|160:144,1,160
200,208,138193,1,8
200,208,138347,2,2,B|232:192|232:192|248:152|232:104|232:104|184:88,1,160
120,88,138808,1,8
48,120,138962,1,0
48,200,139116,5,4
48,200,139270,1,0
80,272,139424,1,8
80,272,139577,1,8
144,328,139731,2,0,B|104:360|40:360,2,80,2|0|8
184,256,140193,2,2,B|216:232|256:224,1,80
272,304,140501,5,0
336,264,140654,1,8
336,184,140808,1,0
336,104,140962,1,0
408,144,141116,1,0
408,224,141270,1,8
336,184,141424,1,8
272,136,141577,1,4
144,104,156347,6,2,B|80:104|80:104|40:136|32:184|56:232|128:224,1,240
117,224,156962,2,0,B|152:232|144:280|120:288,2,80,2|0|8
184,176,157424,2,2,B|344:96,1,160
392,56,157885,1,8
392,56,158039,1,0
440,120,158193,1,0
440,120,158347,1,0
376,176,158501,1,8
376,176,158654,1,0
424,240,158808,5,8
352,272,158962,1,0
288,312,159116,1,0
368,320,159270,5,8
304,272,159424,1,0
232,248,159577,1,0
176,312,159731,5,8
248,288,159885,2,2,B|296:200|280:128,1,160,2|10
208,104,160347,1,8
216,184,160500,2,2,B|328:176|392:120|392:120|388:114|388:114|400:122|400:122|400:112|400:112|432:96,1,240,2|0
304,280,163731,6,8,B|216:280|216:280|256:256|256:256|256:208,3,160,12|8|8|8
184,192,164808,2,0,B|216:144|304:152|336:200,1,160
256,230,165270,2,8,B|256:40,1,160
184,32,165731,1,2
344,64,165885,1,10
184,96,166039,1,2
344,128,166193,6,0,B|248:168|248:168|184:168,1,160,12|8
128,128,166654,1,0
48,128,166808,2,8,B|57:189|57:189|40:256|40:256|48:312,1,160
104,344,167270,2,0,B|160:296|160:296|160:184,1,160
216,152,167731,2,0,B|256:176|256:176|256:224,1,80,8|0
296,280,168039,1,10
352,224,168193,1,2
384,152,168347,1,10
392,72,168501,1,2
456,160,168654,6,8,B|456:208|456:208|440:272|360:272,1,160,12|8
280,136,169116,2,0,B|328:144|328:144|360:168,1,80,0|8
248,288,169424,2,0,B|207:289|207:289|152:272,1,80,0|8
224,216,169731,1,0
304,224,169885,1,8
328,296,170039,1,0
392,336,170193,1,10
392,255,170347,1,2
371,177,170501,1,10
312,120,170654,2,2,B|416:72|464:176,1,160
256,64,171116,5,12
256,64,171270,1,0
184,104,171424,1,8
184,104,171577,1,0
184,184,171731,1,8
128,240,171885,1,0
72,184,172039,1,8
128,128,172193,6,2,B|184:176|272:192,1,160,10|2
321,246,172654,2,0,B|305:206|305:206|272:192,1,80,10|0
224,256,172962,1,10
200,336,173116,1,8
179,336,173193,1,8
158,336,173270,1,8
137,336,173347,1,8
116,336,173424,1,8
95,336,173501,1,8
75,336,173577,6,8,B|50:280|50:280|107:152,3,160,12|8|8|8
200,72,174654,2,0,B|224:120|224:120|176:248,1,160
53,128,175116,2,8,B|221:128,1,160
272,184,175577,1,2
136,264,175731,1,10
296,283,175885,1,2
176,184,176039,6,8,B|224:264|312:288,1,160,12|8
410,194,176501,1,0
411,195,176654,2,8,B|352:207|352:207|354:251|295:283,1,160
248,344,177116,2,0,B|424:344,1,160
432,272,177577,1,8
472,208,177731,2,2,B|376:200|304:120,1,160
256,104,178193,2,8,B|256:40,2,40
184,72,178501,5,12
184,72,178654,1,0
112,104,178808,1,8
112,104,178962,1,0
176,152,179116,1,8
176,152,179270,1,0
256,160,179424,5,8
359,205,179577,1,8
264,264,179731,2,0,B|215:275|215:275|149:257|112:200,1,160
96,144,180193,1,8
48,232,180347,5,0
160,352,180501,1,0
208,200,180654,2,2,B|72:328,1,160
