osu file format v9

[General]
AudioFilename: Hatsune Miku - Pink Moon.mp3
AudioLeadIn: 0
PreviewTime: -1
Countdown: 3
SampleSet: Normal
StackLeniency: 0.7
Mode: 0
LetterboxInBreaks: 1
StoryFireInFront: 0

[Editor]
Bookmarks: 10020,50020,58020
DistanceSpacing: 0.8
BeatDivisor: 4
GridSize: 8

[Metadata]
Title:Pink Moon
Artist:Hatsune Miku
Creator:k400358
Version:Hard
Source:
Tags:vocaloid Hatsune_Miku

[Difficulty]
HPDrainRate:5
CircleSize:5
OverallDifficulty:6
ApproachRate:6
SliderMultiplier:1.4
SliderTickRate:2

[Events]
//Background and Video events
Video,-1089,"smi45245le.avi"
0,0,"117920_4_d1_1.jpg"
//Break Periods
2,25970,32970
2,49720,56970
2,97720,104970
//Storyboard Layer 0 (Background)
//Storyboard Layer 1 (Fail)
//Storyboard Layer 2 (Pass)
//Storyboard Layer 3 (Foreground)
//Storyboard Sound Samples
//Background Colour Transformations
3,100,128,128,192

[TimingPoints]
20,500,4,1,0,80,1,0
34020,-100,4,1,0,80,0,1
50020,-100,4,1,0,80,0,0
82020,-100,4,1,0,80,0,1
98020,-100,4,1,0,80,0,0
122020,-100,4,1,0,80,0,1
154020,-100,4,1,0,80,0,0

[Colours]
Combo1 : 70,135,255
Combo2 : 255,128,128
Combo3 : 255,255,128
Combo4 : 128,255,128

[HitObjects]
80,80,10020,1,0
192,104,10520,1,0
248,104,10770,1,0
360,104,11270,1,0
416,104,11520,1,0
472,104,11770,1,0
472,160,12020,5,2
392,200,12395,1,2
312,216,12770,1,2
208,240,13270,1,2
56,304,14020,5,0
168,304,14520,1,0
224,304,14770,1,0
336,304,15270,1,0
392,304,15520,1,0
448,304,15770,1,0
448,248,16020,5,2
376,208,16395,1,2
312,160,16770,1,2
216,96,17270,1,2
80,192,18020,5,4
192,192,18520,1,4
304,192,19020,1,4
416,192,19520,1,4
304,192,20020,1,4
192,192,20520,1,4
80,192,21020,1,8
76,137,21270,1,8
131,137,21520,1,8
186,139,21770,1,8
241,138,22020,1,12
126,252,23020,5,2
209,252,23395,1,2
296,256,23770,1,2
342,249,25020,1,2
425,250,25395,1,2
424,168,25770,1,2
32,96,34020,5,4
136,48,34520,1,4
248,48,35020,1,4
360,48,35520,1,4
472,48,36020,5,2
472,128,36270,2,2,B|456:168,1,35
400,172,36770,1,2
344,176,37020,1,2
288,176,37270,1,2
232,174,37520,1,2
176,174,37770,1,2
64,182,38270,5,0
61,237,38520,1,0
60,292,38770,1,0
116,292,39020,1,0
227,294,39520,1,0
336,296,40020,5,4
336,240,40270,2,4,B|336:192,1,35
393,289,40770,1,4
393,289,41020,1,4
393,289,41270,1,4
393,289,41520,1,4
450,193,42020,5,4
446,81,42520,1,4
334,79,43020,1,4
222,77,43520,1,4
110,79,44020,5,2
112,136,44270,2,2,B|112:184,1,35
112,245,44770,1,2
167,246,45020,1,2
222,247,45270,1,2
278,247,45520,1,2
333,247,45770,1,2
444,251,46270,5,0
445,195,46520,1,0
443,139,46770,1,0
446,83,47020,1,0
334,76,47520,1,0
222,80,48020,6,4,B|113:81,2,105
220,135,49020,1,4
223,190,49270,1,4
224,245,49520,1,4
80,80,58020,5,0
192,104,58520,1,0
248,104,58770,1,0
360,104,59270,1,0
416,104,59520,1,0
472,104,59770,1,0
472,160,60020,5,2
392,200,60395,1,2
312,216,60770,1,2
208,240,61270,1,2
56,304,62020,5,0
168,304,62520,1,0
224,304,62770,1,0
336,304,63270,1,0
392,304,63520,1,0
448,304,63770,1,0
448,248,64020,5,2
376,208,64395,1,2
312,160,64770,1,2
216,96,65270,1,2
80,192,66020,5,4
192,192,66520,1,4
304,192,67020,1,4
416,192,67520,1,4
304,192,68020,1,4
192,192,68520,1,4
80,192,69020,1,8
76,137,69270,1,8
131,137,69520,1,8
186,139,69770,1,8
241,138,70020,1,12
126,252,71020,5,2
209,252,71395,1,2
296,256,71770,1,2
342,249,73020,1,2
425,250,73395,1,2
424,168,73770,1,2
428,110,74020,5,8
208,112,75020,1,8
373,262,76020,1,8
264,264,76520,1,0
152,264,77020,1,8
152,264,77520,1,0
56,264,78270,5,0
56,152,78770,1,0
56,96,79020,1,0
224,96,79770,1,0
280,96,80020,1,6
280,208,80520,1,6
168,208,81020,1,6
56,208,81520,1,6
32,96,82020,5,4
136,48,82520,1,4
248,48,83020,1,4
360,48,83520,1,4
472,48,84020,5,2
472,128,84270,2,2,B|456:168,1,35
400,172,84770,1,2
344,176,85020,1,2
288,176,85270,1,2
232,174,85520,1,2
176,174,85770,1,2
64,182,86270,5,0
61,237,86520,1,0
60,292,86770,1,0
116,292,87020,1,0
227,294,87520,1,0
336,296,88020,5,4
336,240,88270,2,4,B|336:192,1,35
393,289,88770,1,4
393,289,89020,1,4
393,289,89270,1,4
393,289,89520,1,4
450,193,90020,5,4
446,81,90520,1,4
334,79,91020,1,4
222,77,91520,1,4
110,79,92020,5,2
112,136,92270,2,2,B|112:184,1,35
112,245,92770,1,2
167,246,93020,1,2
222,247,93270,1,2
278,247,93520,1,2
333,247,93770,1,2
444,251,94270,5,0
445,195,94520,1,0
443,139,94770,1,0
446,83,95020,1,0
334,76,95520,1,0
222,80,96020,6,4,B|113:81,2,105
220,135,97020,1,4
223,190,97270,1,4
224,245,97520,1,4
64,80,106020,5,4
288,80,107020,1,4
448,240,108020,1,2
336,240,108520,1,2
224,240,109020,1,2
168,240,109270,1,2
112,240,109520,1,2
64,80,110020,5,4
288,80,111020,1,4
448,240,112020,1,2
336,240,112520,1,2
280,240,112770,1,2
224,240,113020,1,2
112,240,113520,1,2
216,280,114020,6,4,B|312:296|352:280|376:256|384:208|384:160|376:128|352:104|320:80|280:72|224:80|208:104|200:112,2,420
256,192,117520,1,4
256,192,118020,12,4,120020
32,96,122020,5,4
112,72,122395,2,0,B|152:56,1,35
248,48,123020,1,4
360,48,123395,2,4,B|400:48,1,35
472,48,124020,5,2
472,128,124270,2,2,B|456:168,1,35
400,172,124770,1,2
344,176,125020,1,2
288,176,125270,1,2
232,174,125520,1,2
176,174,125770,1,2
64,182,126270,5,0
61,237,126520,1,0
60,292,126770,1,0
116,292,127020,1,0
227,294,127520,1,0
336,296,128020,5,4
336,240,128270,2,4,B|336:192,1,35
393,289,128770,1,4
393,289,129020,1,4
393,289,129270,1,4
393,289,129520,1,4
450,193,130020,5,4
448,112,130395,2,0,B|408:104,1,35
334,79,131020,1,4
248,80,131395,2,4,B|208:80,1,35
110,79,132020,5,2
112,136,132270,2,2,B|112:184,1,35
112,245,132770,1,2
167,246,133020,1,2
222,247,133270,1,2
278,247,133520,1,2
333,247,133770,1,2
444,251,134270,5,0
445,195,134520,1,0
443,139,134770,1,0
446,83,135020,1,0
334,76,135520,1,0
222,80,136020,6,4,B|113:81,2,105
220,135,137020,1,4
223,190,137270,1,4
224,245,137520,1,4
112,248,138020,5,0
112,168,138270,2,2,B|112:128,1,35
112,88,138770,1,0
168,88,139020,1,0
224,88,139270,1,0
280,88,139520,1,0
336,88,139770,1,0
392,88,140020,5,2
392,144,140270,2,2,B|392:184,1,35
392,248,140770,1,2
392,304,141020,1,4
336,304,141270,1,4
280,304,141520,1,4
112,248,142020,5,0
112,192,142270,2,0,B|112:152,1,35
112,88,142770,1,0
168,88,143020,1,0
224,88,143270,1,0
280,88,143520,1,0
336,88,143770,1,0
392,88,144020,5,2
392,144,144270,2,2,B|392:192,1,35
392,248,144770,1,2
392,304,145020,1,4
336,304,145270,1,4
280,304,145520,1,4
112,248,146020,5,0
112,192,146270,2,0,B|112:152,1,35
112,88,146770,1,0
168,88,147020,1,0
224,88,147270,1,0
280,88,147520,1,0
336,88,147770,1,0
392,88,148020,5,2
392,144,148270,2,2,B|392:200,1,35
392,248,148770,1,2
392,304,149020,1,4
336,304,149270,1,4
280,304,149520,1,4
112,248,150020,5,0
112,192,150270,2,0,B|112:152,1,35
112,88,150770,1,0
168,88,151020,1,0
224,88,151270,1,0
280,88,151520,1,0
336,88,151770,1,0
392,88,152020,5,2
392,144,152270,2,2,B|392:192,1,35
392,248,152770,1,2
392,304,153020,1,4
280,304,153520,1,4
112,296,154270,6,0,B|112:248,1,35
112,208,154770,1,0
112,96,155270,6,0,B|152:96,1,35
232,96,155770,1,0
344,96,156270,6,0,B|384:96,1,35
376,184,156770,1,0
376,296,157270,6,0,B|328:296,1,35
256,296,157770,1,0
112,296,158270,6,0,B|112:248,1,35
112,208,158770,1,0
112,96,159270,6,0,B|152:96,1,35
232,96,159770,1,0
256,192,160020,5,4
256,192,161020,12,4,164895
240,176,165520,6,0,B|280:216,2,35
