osu file format v5

[General]
AudioFilename: Hatsune Miku - Over 16bit!.mp3
AudioLeadIn: 0
PreviewTime: -1
Countdown: 1
SampleSet: Soft
StackLeniency: 0.7
Mode: 0
LetterboxInBreaks: 1

[Metadata]
Title:Over 16bit!
Artist:Hatsune Miku
Creator:neo@lex
Version:Normal
Source:
Tags:

[Difficulty]
HPDrainRate:7
CircleSize:6
OverallDifficulty:6
SliderMultiplier:1.4
SliderTickRate:1

[Events]
//Background and Video events
0,0,"Miku-Transparent.png"
//Break Periods
2,16697,31447
2,64196,79447
2,100197,115521
2,164771,179521
2,196771,198271
2,202521,219521
//Storyboard Layer 0 (Background)
//Storyboard Layer 1 (Failing)
//Storyboard Layer 2 (Passing)
//Storyboard Layer 3 (Foreground)
//Storyboard Sound Samples
//Background Colour Transformations
3,100,0,0,0

[TimingPoints]
497,500,4,2,0,100,1,0
48497,-100,4,1,0,100,0,0
132571,-100,4,1,0,100,0,1
164622,-100,4,1,0,100,0,0
220071,-100,4,2,0,0,0,0

[Colours]
Combo1 : 196,152,49
Combo2 : 116,37,79
Combo3 : 61,137,141
Combo4 : 156,176,199
Combo5 : 87,179,183

[HitObjects]
192,160,497,2,0,B|256:96|320:160,1,140
256,288,1497,2,0,B|256:208,1,70
256,144,1997,1,0
256,144,2247,2,6,B|176:144|144:48|256:32|384:48|336:160|288:144,1,280
256,336,3997,6,0,B|256:256,2,70
256,192,4997,1,0
256,48,5497,2,0,B|240:160|304:128|320:192,1,140
304,240,6247,2,10,B|240:256|256:304|256:304,5,70
416,64,8497,5,0
320,176,8997,1,8
176,176,9497,2,0,B|112:112,1,70
80,80,9997,1,8
80,80,10247,2,0,B|96:176,1,70
112,288,10997,1,8
256,288,11497,1,4
400,288,11997,5,8
400,288,12247,1,8
400,288,12497,2,0,B|400:208|304:192,1,140
176,192,13497,2,0,B|80:192|128:96|176:96,1,140
256,192,14497,12,4,16497
256,192,32497,6,2,B|256:240|192:192|192:272,2,105
352,96,33747,2,8,B|416:48,2,70
256,192,34747,1,0
240,336,35247,2,2,B|288:336,1,35
352,256,35747,2,0,B|352:192|288:192,1,70
256,192,36247,1,0
192,144,36497,2,8,B|112:144|80:192|128:64|192:16|320:16|400:80|384:144,1,420
176,192,38747,5,0
224,144,38997,1,0
272,96,39247,1,0
320,48,39497,1,8
336,112,39747,2,8,B|352:160,1,35
384,240,40247,1,0
400,304,40497,6,2,B|256:336|144:304,1,245
256,272,41747,1,0
256,48,42497,2,2,B|208:64|176:160|224:192,1,140
256,224,43247,2,0,B|256:112|240:128|352:48,1,210
344,53,44247,1,0
336,128,44497,1,8
304,224,44872,1,0
224,304,45247,1,8
192,240,45497,2,4,B|176:160|256:96,1,140
432,192,46747,5,2
368,160,46997,2,10,B|368:208,1,35
304,192,47372,1,2
240,192,47622,2,10,B|240:112,1,70
432,272,48747,6,0,B|416:336|352:288,1,70
368,240,49247,2,0,B|320:240|304:304,1,70
288,336,49747,1,0
256,272,49997,2,8,B|256:176,1,70,8|8
160,96,50747,5,0
208,144,50997,1,0
176,208,51247,2,0,B|272:208|272:112,1,140
256,272,52247,1,4
112,272,52747,6,2,B|128:352|224:224,1,140
256,192,53497,1,0
304,144,53747,2,2,B|288:112|352:128|336:80,2,70
208,32,54747,5,0
272,32,54997,1,8
240,96,55247,1,0
304,96,55497,1,8
272,160,55747,2,4,B|208:176|160:112|176:64,1,140
64,192,56747,6,0,B|112:192|80:224|144:224,1,70
128,144,57247,2,0,B|224:144|160:208|272:208,2,140
240,64,58747,5,0
304,80,58997,1,2
288,144,59247,1,0
352,144,59497,1,2
352,208,59747,1,0
384,64,60247,1,8
320,192,60747,6,0,B|384:128,2,70
256,192,61497,1,0
192,192,61747,2,8,B|208:224|144:208|160:256,2,70
256,320,62747,6,10,B|256:240,1,70
256,176,63247,1,10
256,32,63747,2,10,B|256:112,1,70
192,64,80497,6,0,B|240:32|304:32|336:80,1,140
256,96,81247,1,8
256,160,81497,2,0,B|144:192|272:240,1,140
336,240,82247,2,0,B|304:288|256:304|208:288,1,140
144,272,82997,1,8
144,64,83747,6,0,B|144:160,3,70
144,208,84747,2,8,B|224:96|224:288|320:160,1,210
368,128,85747,5,0
368,192,85997,1,0
320,240,86247,2,0,B|256:304|256:160,3,140
304,208,87997,1,8
192,304,88497,6,2,B|240:336|304:336|336:288,1,140
256,272,89247,1,8
256,208,89497,2,2,B|144:176|272:128,1,140
336,112,90247,2,2,B|304:64|256:48|208:64,1,140
144,80,90997,1,8
256,256,91747,5,0
256,192,91997,1,8
192,224,92247,1,0
256,256,92497,1,0
320,224,92747,2,8,B|320:96|256:48|192:96|192:224,2,280
256,256,94997,5,0
256,192,95247,1,0
320,160,95497,2,8,B|256:96|192:160,1,140
192,80,96247,1,0
256,48,96497,2,2,B|256:128,3,70
256,256,97747,6,0,B|256:352,2,70
128,192,98747,2,0,B|224:192,1,70
272,192,99247,2,0,B|368:192|368:96,1,140
367,111,99997,1,0
160,96,116497,5,8
304,96,116997,2,0,B|256:160|304:240,1,140
256,288,117747,1,8
208,240,117997,2,0,B|240:208|224:144,1,70
229,175,118497,5,8
112,256,118997,2,0,B|160:304|256:304,1,140
240,303,119747,1,8
304,304,119997,2,8,B|352:288|384:256,1,70
368,208,120497,5,8
256,128,120997,2,0,B|256:208,2,70
256,128,121747,1,8
192,160,121997,2,0,B|128:208,1,70
136,202,122497,5,8
256,272,122997,2,8,B|256:352,2,70
256,208,123747,2,8,B|256:128,2,70
320,192,124497,6,0,B|320:112|256:64,1,140
192,192,125497,2,0,B|256:160,1,70
256,96,125997,1,0
256,160,126247,2,0,B|256:320,3,140
256,300,127997,5,0
256,300,128247,2,0,B|208:224|304:208|256:144,3,140
256,112,129997,1,0
256,192,130247,12,0,131997
32,128,132497,6,8,B|32:48|128:48,1,140
96,112,133247,1,0
144,160,133497,1,8
208,192,133747,1,8
272,192,133997,1,8
336,160,134247,1,8
384,112,134497,2,2,B|448:48,4,70
464,224,135997,6,2,B|464:272|432:288,2,70
400,240,136747,1,0
352,192,136997,1,2
288,160,137247,1,0
224,160,137497,1,2
160,192,137747,1,2
112,240,137997,1,2
112,304,138247,2,8,B|160:304|176:240,5,70
256,160,139997,5,8
464,352,140997,6,0,B|384:304|304:368,1,140
331,349,141747,1,0
256,224,142247,2,0,B|224:176|288:176|224:144|288:144|224:112|288:112|256:80,2,140
224,288,143497,2,0,B|224:336|176:368,2,70
224,224,144247,2,0,B|224:144|320:128|320:240,1,175
319,222,144997,1,0
176,64,145747,6,0,B|80:64,2,70
320,64,146747,2,0,B|400:64,2,70
256,192,147747,2,0,B|352:160,1,70
448,128,148497,6,8,B|448:48|352:48,1,140
384,112,149247,1,0
336,160,149497,1,8
272,192,149747,1,8
208,192,149997,1,8
144,160,150247,1,8
96,112,150497,2,2,B|32:48,4,70
48,240,151997,6,2,B|48:288|80:304,2,70
112,256,152747,1,0
160,208,152997,1,2
224,176,153247,1,0
288,176,153497,1,2
352,208,153747,1,2
400,256,153997,1,2
400,320,154247,2,8,B|352:320|336:256,5,70
256,32,156997,5,0
256,176,157497,2,0,B|256:96,1,70
256,240,158247,1,0
64,48,159247,6,2,B|64:128,4,70
208,48,160747,2,2,B|304:48,1,70
352,48,161247,2,2,B|336:112|256:144,1,140
256,288,162247,5,0
256,144,162747,2,2,B|256:224,2,70
256,16,163747,1,0
192,48,163997,1,8
256,80,164247,1,8
320,48,164497,1,4
368,80,180497,5,2
368,224,180997,1,8
288,112,181497,1,2
288,176,181747,1,8
224,144,181997,1,10
208,80,182247,2,0,B|128:144|208:208,1,140
224,144,182997,2,0,B|368:144,2,140
160,144,184247,5,0
160,208,184497,2,2,B|208:208|160:240|240:240|160:272|272:272,1,140
416,272,185497,2,2,B|416:192,1,70
320,96,186247,2,2,B|256:48|256:208,1,140
256,181,186997,1,4
256,192,187497,12,8,188497
256,192,188997,5,0
256,192,189497,2,0,B|256:112,1,70
256,256,190247,2,0,B|208:240|192:208|192:160|224:128,1,140
256,352,191497,6,0,B|176:352,3,70
256,224,192747,2,0,B|336:224,2,70
256,80,193747,1,0
144,176,194247,5,8
192,304,194747,1,8
320,304,195247,1,2
368,176,195747,1,2
256,352,196497,1,14
400,192,199247,6,0,B|400:112|304:112,1,140
128,224,200497,2,0,B|144:288|240:304,1,140
233,302,201247,1,0
256,160,201747,2,0,B|256:80,2,70
256,192,220497,12,0,228247
