osu file format v9

[General]
AudioFilename: Our_Let_it_Be.mp3
AudioLeadIn: 1000
PreviewTime: 131725
Countdown: 0
SampleSet: Soft
StackLeniency: 0.7
Mode: 0
LetterboxInBreaks: 0

[Editor]
DistanceSpacing: 1.2
BeatDivisor: 4
GridSize: 4

[Metadata]
Title:Our let it be
Artist:Hatsune Miku
Creator:S h i a
Version:Normal
Source:Harry
Tags:Garven tutuhaha Thite s_h_i_a shia Vocaloid Vocaloid2

[Difficulty]
HPDrainRate:4
CircleSize:4
OverallDifficulty:4
ApproachRate:4
SliderMultiplier:1.5
SliderTickRate:2

[Events]
//Background and Video events
0,0,"bg.jpg"
//Break Periods
2,85562,92224
2,156471,174042
2,214424,229268
//Storyboard Layer 0 (Background)
Sprite,Background,TopLeft,"bg.jpg",0,0
Sprite,Background,Centre,"sad story\paper.png",320,240 F,0,816,1498,0,1 M,0,816,265362,320,240 F,0,1498,58089,1 F,0,58089,58260,1,0 F,0,58260,60475,0 F,0,60475,60816,0,1 F,0,60816,93203,1 F,0,93203,93373,1,0 F,0,93373,113657,0 F,0,113657,113828,0,1 F,0,113828,114680,1 F,0,114680,114850,1,0 F,0,114850,128146,0 F,0,128146,128316,0,1 F,0,128316,131725,1 F,0,131725,131896,1,0 F,0,131896,153544,0 F,0,153544,153885,0,1 F,0,153885,175362,1 F,0,175362,175532,1,0 F,0,175532,182862,0,0.2748776 F,0,175532,183544,0,1 F,0,182862,183544,0.2748776,1 F,0,183544,,1 F,0,183544,,1 F,0,183544,,1 F,0,183544,229907,1 F,0,183544,235362,1 F,0,229907,,1 F,0,235362,235703,1,0.568 F,0,235703,236044,0.568,1 F,0,236044,264680,1 F,0,264680,265362,1,0
//Storyboard Layer 1 (Fail)
//Storyboard Layer 2 (Pass)
//Storyboard Layer 3 (Foreground)
Sprite,Foreground,Centre,"sad story\title\1thite.png",320,240 F,0,2010,2180,0,1 F,0,2180,5930,1 F,0,5930,6271,1,0
Sprite,Foreground,Centre,"sad story\title\1thite.png",320,240 F,0,3544,4225,1,0 S,0,3544,4225,0.9680003,1.272
Sprite,Foreground,Centre,"sad story\dotf1.png",320,240 F,0,236044,,1 S,0,236044,,1 M,0,236044,243544,333,-20,309,490 F,0,236044,243544,1,0 R,0,236044,243544,5.4309,0
Sprite,Foreground,Centre,"sad story\dotf2.png",320,240 F,0,236044,,1 S,0,236044,,1 M,0,236044,243544,333,-20,309,490 F,0,236044,243544,1,0 R,0,236044,243544,0,5.4309
Sprite,Foreground,Centre,"sad story\dotf1.png",320,240 F,0,236044,,1 S,0,236044,,1 M,0,236044,243544,520,-10,309,400 F,0,236044,243544,1,0 R,0,236044,243544,0,4
Sprite,Foreground,Centre,"sad story\dotf2.png",320,240 F,0,236044,,1 S,0,236044,,1 M,0,236044,243544,20,-20,70,490 F,0,236044,243544,1,0 R,0,236044,243544,5,0
Sprite,Foreground,Centre,"sad story\dotf2.png",320,240 F,0,236044,,1 S,0,236044,,1 M,0,236044,243544,70,-40,160,600 F,0,236044,243544,1,0 R,0,236044,243544,5,0
Sprite,Foreground,Centre,"sad story\dotf1.png",320,240 F,0,236044,,1 S,0,236044,,1 M,0,236044,243544,90,-30,200,900 F,0,236044,243544,1,0 R,0,236044,243544,6,0
Sprite,Foreground,Centre,"sad story\dotf3.png",320,240 F,0,236044,,1 S,0,236044,,1 M,0,236044,243544,120,-20,90,350 F,0,236044,243544,1,0 R,0,236044,243544,0,7
Sprite,Foreground,Centre,"sad story\dotf3.png",320,240 F,0,236044,,1 S,0,236044,,1 M,0,236044,243544,250,-20,620,350 F,0,236044,243544,1,0 R,0,236044,243544,3,0
Sprite,Foreground,Centre,"sad story\dotf2.png",320,240 F,0,236044,,1 S,0,236044,,1 M,0,236044,243544,250,-20,320,350 F,0,236044,243544,1,0 R,0,236044,243544,3,0
Sprite,Foreground,Centre,"sad story\dotf1.png",320,240 F,0,238771,,1 S,0,238771,,1 M,0,238771,246271,303,-20,369,490 F,0,238771,246271,1,0 R,0,238771,246271,5,0
Sprite,Foreground,Centre,"sad story\dotf2.png",320,240 F,0,238771,,1 S,0,238771,,1 M,0,238771,246271,333,-20,309,490 F,0,238771,246271,1,0 R,0,238771,246271,0,5
Sprite,Foreground,Centre,"sad story\dotf1.png",320,240 F,0,238771,,1 S,0,238771,,1 M,0,238771,246271,500,-10,209,400 F,0,238771,246271,1,0 R,0,238771,246271,0,4
Sprite,Foreground,Centre,"sad story\dotf2.png",320,240 F,0,238771,,1 S,0,238771,,1 M,0,238771,246271,50,-20,90,490 F,0,238771,246271,1,0 R,0,238771,246271,5,0
Sprite,Foreground,Centre,"sad story\fn.png",320,240 M,0,235873,236044,478,364,477,310 F,0,236044,236214,0,1 M,0,236044,241498,477,310,478,284 F,0,236214,252066,1 M,0,241498,241669,478,284,478,239 M,0,241669,252066,478,239,478,186 M,0,252066,252407,478,186,477,137 F,0,252066,252407,1,0
Sprite,Foreground,Centre,"sad story\dotf2.png",320,240 F,0,238771,,1 S,0,238771,,1 M,0,238771,246271,80,-40,190,600 F,0,238771,246271,1,0 R,0,238771,246271,5,0
Sprite,Foreground,Centre,"sad story\dotf1.png",320,240 F,0,238771,,1 S,0,238771,,1 M,0,238771,246271,140,-30,200,900 F,0,238771,246271,1,0 R,0,238771,246271,6,0
Sprite,Foreground,Centre,"sad story\dotf3.png",320,240 F,0,238771,,1 S,0,238771,,1 M,0,238771,246271,110,-20,40,350 F,0,238771,246271,1,0 R,0,238771,246271,0,7
Sprite,Foreground,Centre,"sad story\dotf3.png",320,240 F,0,238771,,1 S,0,238771,,1 M,0,238771,246271,230,-20,600,350 F,0,238771,246271,1,0 R,0,238771,246271,3,0
Sprite,Foreground,Centre,"sad story\dotf2.png",320,240 F,0,238771,,1 S,0,238771,,1 M,0,238771,246271,280,-20,390,350 F,0,238771,246271,1,0 R,0,238771,246271,3,0
Sprite,Foreground,Centre,"sad story\dotf1.png",320,240 F,0,241498,,1 S,0,241498,,1 M,0,241498,248998,333,-20,309,490 F,0,241498,248998,1,0 R,0,241498,248998,5.4309,0
Sprite,Foreground,Centre,"sad story\dotf2.png",320,240 F,0,241498,,1 S,0,241498,,1 M,0,241498,248998,333,-20,309,490 F,0,241498,248998,1,0 R,0,241498,248998,0,5.4309
Sprite,Foreground,Centre,"sad story\dotf1.png",320,240 F,0,241498,,1 S,0,241498,,1 M,0,241498,248998,520,-10,309,400 F,0,241498,248998,1,0 R,0,241498,248998,0,4
Sprite,Foreground,Centre,"sad story\dotf2.png",320,240 F,0,241498,,1 S,0,241498,,1 M,0,241498,248998,20,-20,70,490 F,0,241498,248998,1,0 R,0,241498,248998,5,0
Sprite,Foreground,Centre,"sad story\dotf2.png",320,240 F,0,241498,,1 S,0,241498,,1 M,0,241498,248998,70,-40,160,600 F,0,241498,248998,1,0 R,0,241498,248998,5,0
Sprite,Foreground,Centre,"sad story\dotf1.png",320,240 F,0,241498,,1 S,0,241498,,1 M,0,241498,248998,90,-30,200,900 F,0,241498,248998,1,0 R,0,241498,248998,6,0
Sprite,Foreground,Centre,"sad story\dotf3.png",320,240 F,0,241498,,1 S,0,241498,,1 M,0,241498,248998,120,-20,90,350 F,0,241498,248998,1,0 R,0,241498,248998,0,7
Sprite,Foreground,Centre,"sad story\dotf3.png",320,240 F,0,241498,,1 S,0,241498,,1 M,0,241498,248998,250,-20,620,350 F,0,241498,248998,1,0 R,0,241498,248998,3,0
Sprite,Foreground,Centre,"sad story\dotf2.png",320,240 F,0,241498,,1 S,0,241498,,1 M,0,241498,248998,250,-20,320,350 F,0,241498,248998,1,0 R,0,241498,248998,3,0
Sprite,Foreground,Centre,"sad story\dotf1.png",320,240 F,0,244225,,1 S,0,244225,,1 M,0,244225,251725,303,-20,369,490 F,0,244225,251725,1,0 R,0,244225,251725,5,0
Sprite,Foreground,Centre,"sad story\dotf2.png",320,240 F,0,244225,,1 S,0,244225,,1 M,0,244225,251725,333,-20,309,490 F,0,244225,251725,1,0 R,0,244225,251725,0,5
Sprite,Foreground,Centre,"sad story\dotf1.png",320,240 F,0,244225,,1 S,0,244225,,1 M,0,244225,251725,500,-10,209,400 F,0,244225,251725,1,0 R,0,244225,251725,0,4
Sprite,Foreground,Centre,"sad story\dotf2.png",320,240 F,0,244225,,1 S,0,244225,,1 M,0,244225,251725,50,-20,90,490 F,0,244225,251725,1,0 R,0,244225,251725,5,0
Sprite,Foreground,Centre,"sad story\dotf2.png",320,240 F,0,244225,,1 S,0,244225,,1 M,0,244225,251725,80,-40,190,600 F,0,244225,251725,1,0 R,0,244225,251725,5,0
Sprite,Foreground,Centre,"sad story\dotf1.png",320,240 F,0,244225,,1 S,0,244225,,1 M,0,244225,251725,140,-30,200,900 F,0,244225,251725,1,0 R,0,244225,251725,6,0
Sprite,Foreground,Centre,"sad story\dotf3.png",320,240 F,0,244225,,1 S,0,244225,,1 M,0,244225,251725,110,-20,40,350 F,0,244225,251725,1,0 R,0,244225,251725,0,7
Sprite,Foreground,Centre,"sad story\dotf3.png",320,240 F,0,244225,,1 S,0,244225,,1 M,0,244225,251725,230,-20,600,350 F,0,244225,251725,1,0 R,0,244225,251725,3,0
Sprite,Foreground,Centre,"sad story\dotf2.png",320,240 F,0,244225,,1 S,0,244225,,1 M,0,244225,251725,280,-20,390,350 F,0,244225,251725,1,0 R,0,244225,251725,3,0
Sprite,Foreground,Centre,"sad story\dotf1.png",320,240 F,0,246953,,1 S,0,246953,,1 M,0,246953,254453,333,-20,309,490 F,0,246953,254453,1,0 R,0,246953,254453,5.4309,0
Sprite,Foreground,Centre,"sad story\dotf2.png",320,240 F,0,246953,,1 S,0,246953,,1 M,0,246953,254453,333,-20,309,490 F,0,246953,254453,1,0 R,0,246953,254453,0,5.4309
Sprite,Foreground,Centre,"sad story\dotf1.png",320,240 F,0,246953,,1 S,0,246953,,1 M,0,246953,254453,520,-10,309,400 F,0,246953,254453,1,0 R,0,246953,254453,0,4
Sprite,Foreground,Centre,"sad story\dotf2.png",320,240 F,0,246953,,1 S,0,246953,,1 M,0,246953,254453,20,-20,70,490 F,0,246953,254453,1,0 R,0,246953,254453,5,0
Sprite,Foreground,Centre,"sad story\dotf2.png",320,240 F,0,246953,,1 S,0,246953,,1 M,0,246953,254453,70,-40,160,600 F,0,246953,254453,1,0 R,0,246953,254453,5,0
Sprite,Foreground,Centre,"sad story\dotf1.png",320,240 F,0,246953,,1 S,0,246953,,1 M,0,246953,254453,90,-30,200,900 F,0,246953,254453,1,0 R,0,246953,254453,6,0
Sprite,Foreground,Centre,"sad story\dotf3.png",320,240 F,0,246953,,1 S,0,246953,,1 M,0,246953,254453,120,-20,90,350 F,0,246953,254453,1,0 R,0,246953,254453,0,7
Sprite,Foreground,Centre,"sad story\dotf3.png",320,240 F,0,246953,,1 S,0,246953,,1 M,0,246953,254453,250,-20,620,350 F,0,246953,254453,1,0 R,0,246953,254453,3,0
Sprite,Foreground,Centre,"sad story\dotf2.png",320,240 F,0,246953,,1 S,0,246953,,1 M,0,246953,254453,250,-20,320,350 F,0,246953,254453,1,0 R,0,246953,254453,3,0
Sprite,Foreground,Centre,"sad story\dotf1.png",320,240 F,0,249680,,1 S,0,249680,,1 M,0,249680,257180,303,-20,369,490 F,0,249680,257180,1,0 R,0,249680,257180,5,0
Sprite,Foreground,Centre,"sad story\dotf2.png",320,240 F,0,249680,,1 S,0,249680,,1 M,0,249680,257180,333,-20,309,490 F,0,249680,257180,1,0 R,0,249680,257180,0,5
Sprite,Foreground,Centre,"sad story\dotf1.png",320,240 F,0,249680,,1 S,0,249680,,1 M,0,249680,257180,500,-10,209,400 F,0,249680,257180,1,0 R,0,249680,257180,0,4
Sprite,Foreground,Centre,"sad story\dotf2.png",320,240 F,0,249680,,1 S,0,249680,,1 M,0,249680,257180,50,-20,90,490 F,0,249680,257180,1,0 R,0,249680,257180,5,0
Sprite,Foreground,Centre,"sad story\dotf2.png",320,240 F,0,249680,,1 S,0,249680,,1 M,0,249680,257180,80,-40,190,600 F,0,249680,257180,1,0 R,0,249680,257180,5,0
Sprite,Foreground,Centre,"sad story\dotf1.png",320,240 F,0,249680,,1 S,0,249680,,1 M,0,249680,257180,140,-30,200,900 F,0,249680,257180,1,0 R,0,249680,257180,6,0
Sprite,Foreground,Centre,"sad story\dotf3.png",320,240 F,0,249680,,1 S,0,249680,,1 M,0,249680,257180,110,-20,40,350 F,0,249680,257180,1,0 R,0,249680,257180,0,7
Sprite,Foreground,Centre,"sad story\dotf3.png",320,240 F,0,249680,,1 S,0,249680,,1 M,0,249680,257180,230,-20,600,350 F,0,249680,257180,1,0 R,0,249680,257180,3,0
Sprite,Foreground,Centre,"sad story\dotf2.png",320,240 F,0,249680,,1 S,0,249680,,1 M,0,249680,257180,280,-20,390,350 F,0,249680,257180,1,0 R,0,249680,257180,3,0
Sprite,Foreground,Centre,"sad story\dotf1.png",320,240 F,0,252407,,1 S,0,252407,,1 M,0,252407,259907,333,-20,309,490 F,0,252407,259907,1,0 R,0,252407,259907,5.4309,0
Sprite,Foreground,Centre,"sad story\dotf2.png",320,240 F,0,252407,,1 S,0,252407,,1 M,0,252407,259907,333,-20,309,490 F,0,252407,259907,1,0 R,0,252407,259907,0,5.4309
Sprite,Foreground,Centre,"sad story\dotf1.png",320,240 F,0,252407,,1 S,0,252407,,1 M,0,252407,259907,520,-10,309,400 F,0,252407,259907,1,0 R,0,252407,259907,0,4
Sprite,Foreground,Centre,"sad story\dotf2.png",320,240 F,0,252407,,1 S,0,252407,,1 M,0,252407,259907,20,-20,70,490 F,0,252407,259907,1,0 R,0,252407,259907,5,0
Sprite,Foreground,Centre,"sad story\dotf2.png",320,240 F,0,252407,,1 S,0,252407,,1 M,0,252407,259907,70,-40,160,600 F,0,252407,259907,1,0 R,0,252407,259907,5,0
Sprite,Foreground,Centre,"sad story\dotf1.png",320,240 F,0,252407,,1 S,0,252407,,1 M,0,252407,259907,90,-30,200,900 F,0,252407,259907,1,0 R,0,252407,259907,6,0
Sprite,Foreground,Centre,"sad story\dotf3.png",320,240 F,0,252407,,1 S,0,252407,,1 M,0,252407,259907,120,-20,90,350 F,0,252407,259907,1,0 R,0,252407,259907,0,7
Sprite,Foreground,Centre,"sad story\dotf3.png",320,240 F,0,252407,,1 S,0,252407,,1 M,0,252407,259907,250,-20,620,350 F,0,252407,259907,1,0 R,0,252407,259907,3,0
Sprite,Foreground,Centre,"sad story\dotf2.png",320,240 F,0,252407,,1 S,0,252407,,1 M,0,252407,259907,250,-20,320,350 F,0,252407,259907,1,0 R,0,252407,259907,3,0
Sprite,Foreground,Centre,"sad story\a1.png",320,240 M,1,22635,23316,520,393,520,330 F,0,22635,23316,0,1 M,0,23316,32862,520,330,520,281 F,0,23316,32862,1 F,0,32862,33203,1,0 M,2,32862,33544,520,281,520,196
Sprite,Foreground,Centre,"sad story\a2.png",320,240 M,0,33203,33544,120,393,120,330 M,0,33544,41044,120,330,120,281 F,0,41044,41385,1,0 M,0,41044,41725,120,281,120,196
Sprite,Foreground,Centre,"sad story\aj1.jpg",320,240 F,0,41385,42407,0,1 F,0,42407,43771,1,0
Sprite,Foreground,Centre,"sad story\a3.png",320,240 F,0,43771,44453,0,1 F,0,44453,54680,1 F,0,54680,55362,1,0
Sprite,Foreground,Centre,"sad story\a4.png",320,240 M,0,55362,,200,240 F,0,55362,56044,0,1 F,0,56044,57748,1 F,0,57748,58089,1,0
Sprite,Foreground,Centre,"sad story\5.jpg",320,240 F,0,58089,58260,0,1 M,0,58089,58430,319,336,319,286 F,0,58260,60475,1 M,0,58430,60475,319,286,319,220 M,0,60475,60816,319,220,319,144 F,0,60475,60816,1,0
Sprite,Foreground,Centre,"sad story\fll.jpg",320,240 M,1,60816,60987,235,419,235,312 F,0,60816,60987,0,1 M,0,60987,70703,235,312,235,239 F,0,60987,70703,1 M,0,70703,71044,235,239,235,170 F,0,70703,71044,1,0
Sprite,Foreground,Centre,"sad story\a5.png",320,240 M,0,60816,,179,258 F,0,60816,60987,0,1 F,0,60987,70703,1 F,0,70703,71044,1,0
Sprite,Foreground,Centre,"sad story\flr.jpg",320,240 M,1,71555,71725,406,419,406,328 F,0,71555,71725,0,1 M,0,71725,81612,406,328,405,240 F,0,71725,81612,1 M,0,81612,81953,405,240,406,170 F,0,81612,81953,1,0
Sprite,Foreground,Centre,"sad story\a6.png",320,240 M,0,71555,,494,240 F,0,71555,71725,0,1 F,0,71725,81612,1 F,0,81612,81953,1,0
Sprite,Foreground,Centre,"sad story\flm.jpg",320,240 M,0,81953,82294,320,312,319,239 F,0,81953,82294,0,1 F,0,82294,92862,1 M,0,82294,93203,319,239,320,124 F,0,92862,93203,1,0
Sprite,Foreground,Centre,"sad story\a7.png",320,240 F,0,81953,82294,0,1 F,0,82294,92862,1 F,0,92862,93203,1,0
Sprite,Foreground,Centre,"sad story\a8.jpg",320,240 F,0,93203,93373,0,1 F,0,93373,103771,1 M,0,93544,103771,400,240,259,239 M,0,103771,103941,259,239,240,239 F,0,103771,103941,1,0
Sprite,Foreground,Centre,"sad story\a9.jpg",320,240 F,0,103941,104453,0,1 M,0,103941,109225,239,240,399,240 F,0,104453,108885,1 F,0,108885,109225,1,0
Sprite,Foreground,Centre,"sad story\b1.jpg",320,240 F,0,108885,109225,0,1 M,0,108885,112294,372,240,294,240 F,0,109225,111953,1 F,0,111953,112294,1,0
Sprite,Foreground,Centre,"sad story\b2.jpg",320,240 M,0,111953,,320,240 F,0,111953,112294,0,1 F,0,112294,113657,1 F,0,113657,113998,1,0
Sprite,Foreground,Centre,"sad story\b4.jpg",320,240 F,0,120135,123544,1
Sprite,Foreground,Centre,"sad story\b3.jpg",320,240 F,0,114510,114680,0,1 F,0,114680,120135,1 F,0,120135,120816,1,0
Sprite,Foreground,Centre,"sad story\b3.png",320,240 M,0,117748,,171,240 F,0,117748,118089,0,1 F,0,118089,123544,1
Sprite,Foreground,Centre,"sad story\b5.jpg",320,240 M,0,123203,123544,320,179,319,228 F,0,123203,123544,0,1 F,0,123544,128316,1 M,0,123544,128998,319,228,319,304 F,0,128316,128998,1,0
Sprite,Foreground,Centre,"sad story\b6.jpg",320,240 F,0,128998,129680,0,1 F,0,129680,130362,1 F,0,130362,131725,1,0
Sprite,Foreground,Centre,"sad story\6.jpg",320,240 M,0,131725,132066,319,336,320,294 M,0,132066,142635,320,294,320,232 M,0,142635,142975,320,232,320,195 M,0,142975,153544,320,195,320,143 F,0,153544,154225,1,0
Sprite,Foreground,Centre,"sad story\c1.png",320,240 M,0,142635,142975,320,473,320,341 F,0,142635,142975,0,1 M,0,142975,153544,320,341,319,254 F,0,142975,153544,1 F,0,153544,153885,1,0
Sprite,Foreground,Centre,"sad story\c1.jpg",320,240 F,0,175191,175362,0,1 F,0,175362,182862,1 F,0,182862,183544,1,0
Sprite,Foreground,Centre,"sad story\No.jpg",320,240 F,0,183544,183885,0,1 F,0,183885,185589,1
Sprite,Foreground,Centre,"sad story\Non.jpg",320,240 F,0,184225,185589,0,1 M,0,185248,,325,240 F,0,185589,187635,1
Sprite,Foreground,Centre,"sad story\Nono.jpg",320,240 F,0,186271,187635,0,1 M,0,187294,,316,240 F,0,187635,189680,1
Sprite,Foreground,Centre,"sad story\Nonono.jpg",320,240 F,0,188316,189680,0,1 M,0,189339,,331,239 F,0,189680,191044,1 F,0,191044,191725,1,0
Sprite,Foreground,Centre,"sad story\f1.jpg",320,240 M,0,191725,,320,240 F,0,191725,192066,0,1 F,0,192066,193771,1,0
Sprite,Foreground,Centre,"sad story\f2.jpg",320,240 F,0,193771,194112,0,1 F,0,194112,195816,1,0
Sprite,Foreground,Centre,"sad story\f3.jpg",320,240 F,0,195816,196157,0,1 F,0,196157,197521,1,0
Sprite,Foreground,Centre,"sad story\f4.jpg",320,240 F,0,197521,197862,0,1 F,0,197862,199907,1,0
Sprite,Foreground,Centre,"sad story\f5.jpg",320,240 F,0,199907,200248,0,1 F,0,200248,201953,1,0
Sprite,Foreground,Centre,"sad story\f6.jpg",320,240 F,0,201953,202294,0,1 F,0,202294,203998,1,0
Sprite,Foreground,Centre,"sad story\f3.jpg",320,240 F,0,203998,204339,0,1 F,0,204339,206044,1,0
Sprite,Foreground,Centre,"sad story\f4.jpg",320,240 F,0,206044,206385,0,1 F,0,206385,207407,1,0
Sprite,Foreground,Centre,"sad story\8.jpg",320,240 F,0,207237,207748,0,1 S,0,207237,207748,0.9720001,0.8517632 F,0,207748,208089,1 S,0,207748,217123,0.8517632,0.772 F,0,208089,216271,1,0 F,0,213373,217123,0 F,0,216271,217123,0
Sprite,Foreground,Centre,"sad story\5.jpg",320,240 F,0,219680,220021,0,1 M,0,219680,220362,319,143,319,242 F,0,220021,220362,1 F,0,220362,229396,1 M,0,220362,229907,319,242,320,336 F,0,229396,229907,1,0 M,0,229907,230589,320,336,319,372
Sprite,Foreground,Centre,"sad story\9.jpg",320,240 F,0,213373,213714,0,0.5 M,0,213373,219680,319,197,319,270 F,0,213714,218998,0.5,1 F,0,218998,219680,1,0 M,0,219680,220021,319,270,319,321
Sprite,Foreground,Centre,"sad story\a8.jpg",320,240 F,0,224964,225135,0,1 F,0,225135,225816,1,0
Sprite,Foreground,Centre,"sad story\a9.jpg",320,240 F,0,226328,226498,0,1 F,0,226498,227180,1,0
Sprite,Foreground,Centre,"sad story\b1.jpg",320,240 F,0,227691,227862,0,1 F,0,227862,228544,1,0
Sprite,Foreground,Centre,"sad story\b2.jpg",320,240 F,0,229055,229225,0,1 F,0,229225,229907,1,0
Sprite,Foreground,Centre,"sad story\fxe.png",320,240 F,0,252407,252748,0,1 S,1,252407,252748,1.272,1 F,0,252748,257180,1 F,0,257180,257521,1,0
Sprite,Foreground,Centre,"sad story\paper1.png",320,240 M,0,816,,320,240 F,0,816,1498,0,1 F,0,1498,11044,1 F,0,11044,11725,1,0
Sprite,Foreground,Centre,"sad story\title\2.png",320,240 F,0,6271,6612,0,1 F,0,6612,11044,1 F,0,11044,11725,1,0
Sprite,Foreground,Centre,"sad story\title\3.png",320,240 M,0,11725,,320,220 F,0,11725,14453,0,1 S,0,11725,22123,1,1.168 F,0,14453,21271,1 F,0,21271,21953,1,0
Sprite,Foreground,Centre,"sad story\title\4.png",320,240 M,0,22294,,219,86 F,0,22294,22635,0,1 F,0,22635,26725,1 F,0,26725,27407,1,0
Sprite,Foreground,Centre,"sad story\title\5.png",320,240 M,0,27407,,172,236 F,0,27407,28089,0,1 F,0,28089,29794,1 F,0,29794,30475,1,0
Sprite,Foreground,Centre,"sad story\title\6.png",320,240 F,0,30475,30816,0,1 M,0,30816,,151,404 F,0,30816,32180,1 F,0,32180,32862,1,0
Sprite,Foreground,Centre,"sad story\title\7.png",320,240 M,0,32862,,474,91 F,0,32862,33544,0,1 F,0,33544,36271,1 F,0,36271,37635,1,0
Sprite,Foreground,Centre,"sad story\title\8.png",320,240 M,0,38316,,477,236 F,0,38316,38998,0,1 F,0,38998,41044,1,0
Sprite,Foreground,Centre,"sad story\title\9.png",320,240 M,0,41044,,320,249 F,0,41044,41555,0,1 F,0,41555,43089,1 F,0,43089,43771,1,0
Sprite,Foreground,Centre,"sad story\title\10.png",320,240 M,0,43771,,39,242 S,0,43771,,0.568 F,0,43771,44453,0,1 F,0,44453,54680,1 F,0,54680,55362,1,0
Sprite,Foreground,Centre,"sad story\title\11.png",320,240 F,0,46839,47521,0,1 M,0,47521,,111,241 S,0,47521,,0.5839999 F,0,47521,54680,1 F,0,54680,55362,1,0
Sprite,Foreground,Centre,"sad story\title\12.png",320,240 M,0,49225,,160,242 S,0,49225,,0.624 F,0,49225,49907,0,1 F,0,49907,54680,1 F,0,54680,55362,1,0
Sprite,Foreground,Centre,"sad story\title\13.png",320,240 F,0,50419,50930,0,1 M,0,50589,,476,242 S,0,50589,,0.608 F,0,50930,54680,1 F,0,54680,55362,1,0
Sprite,Foreground,Centre,"sad story\title\14.png",320,240 F,0,52294,52635,0,1 M,0,52635,,569,242 S,0,52635,,0.52 F,0,52635,54680,1 F,0,54680,55362,1,0
Sprite,Foreground,Centre,"sad story\title\a1.png",320,240 F,0,60646,60816,0,1 M,0,60816,,489,76 F,0,60816,62180,1 F,0,62180,62862,1,0
Sprite,Foreground,Centre,"sad story\title\a2.png",320,240 M,0,62521,,483,161 F,0,62521,62862,0,1 F,0,62862,63544,1,0
Sprite,Foreground,Centre,"sad story\title\a3.png",320,240 M,0,63203,,477,267 F,0,63203,63544,0,1 F,0,63544,64907,1 F,0,64907,65589,1,0
Sprite,Foreground,Centre,"sad story\title\a4.png",320,240 M,0,65248,,439,170 F,0,65248,65589,0,1 F,0,65589,67635,1 F,0,67635,68316,1,0
Sprite,Foreground,Centre,"sad story\title\a5.png",320,240 M,0,67975,,491,322 F,0,67975,68316,0,1 F,0,68316,70362,1 F,0,70362,70703,1,0
Sprite,Foreground,Centre,"sad story\title\a6.png",320,240 M,0,70873,,321,249 F,0,70873,71044,0,1 F,0,71044,71725,1,0
Sprite,Foreground,Centre,"sad story\title\b1.png",320,240 M,0,71555,,140,75 F,0,71555,71725,0,1 F,0,71725,73089,1 F,0,73089,73430,1,0
Sprite,Foreground,Centre,"sad story\title\b2.png",320,240 M,0,73600,,198,244 F,0,73600,74453,0,1 F,0,74453,75816,1 F,0,75816,76498,1,0
Sprite,Foreground,Centre,"sad story\title\b3.png",320,240 M,0,76498,,171,388 F,0,76498,77180,0,1 F,0,77180,78544,1 F,0,78544,79225,1,0
Sprite,Foreground,Centre,"sad story\title\b4.png",320,240 M,0,78885,,319,250 F,0,78885,79566,0,1 F,0,79566,81271,1 F,0,81271,81953,1,0
Sprite,Foreground,Centre,"sad story\title\b5.png",320,240 M,0,81953,,319,250 F,0,81953,82294,0,1 F,0,82294,86725,1 F,0,86725,88089,1,0
Sprite,Foreground,Centre,"sad story\title\c1.png",320,240 M,0,93373,,264,97 F,0,93373,93544,0,1 F,0,93544,97635,1 F,0,97635,97975,1,0
Sprite,Foreground,Centre,"sad story\title\c2.png",320,240 M,0,98146,,416,407 F,0,98146,98316,0,1 F,0,98316,103089,1 F,0,103089,103771,1,0
Sprite,Foreground,Centre,"sad story\title\c3.png",320,240 F,0,103771,104453,0,1 M,0,104453,,404,249 F,0,104453,108544,1 F,0,108544,109225,1,0
Sprite,Foreground,Centre,"sad story\title\c4.png",320,240 M,0,109055,,220,368 F,0,109055,109225,0,1 F,0,109225,111612,1 F,0,111612,111953,1,0
Sprite,Foreground,Centre,"sad story\title\c5.png",320,240 F,0,112294,112635,0,1 M,0,112635,,419,315 F,0,112635,113316,1 F,0,113316,113998,1,0
Sprite,Foreground,Centre,"sad story\title\d1.png",320,240 M,0,114339,,292,82 F,0,114339,114680,0,1 F,0,114680,116725,1 F,0,116725,117407,1,0
Sprite,Foreground,Centre,"sad story\title\d2.png",320,240 M,0,117748,,226,380 F,0,117748,118089,0.6279999,1 F,0,118089,119453,1 F,0,119453,120135,1,0
Sprite,Foreground,Centre,"sad story\title\d3.png",320,240 M,0,120135,,228,384 F,0,120135,120816,0,1 F,0,120816,122180,1 F,0,122180,122862,1,0
Sprite,Foreground,Centre,"sad story\title\d4.png",320,240 M,0,123373,,322,253 F,0,123373,123714,0,1 F,0,123714,126953,1 F,0,126953,127635,1,0
Sprite,Foreground,Centre,"sad story\title\e1.png",320,240 M,0,131725,,323,252 F,0,131725,132407,0,1 F,0,132407,133771,1,0
Sprite,Foreground,Centre,"sad story\title\e2.png",320,240 M,0,133771,,322,251 F,0,133771,134453,0,1 F,0,134453,135816,1 F,0,135816,136498,1,0
Sprite,Foreground,Centre,"sad story\title\e3.png",320,240 M,0,136498,,324,251 F,0,136498,137180,0,1 F,0,137180,137862,1 F,0,137862,138544,1,0
Sprite,Foreground,Centre,"sad story\title\e4.png",320,240 M,0,138714,,320,249 F,0,138714,139907,0,1 S,0,138714,141953,1,1.296 F,0,139907,141271,1 F,0,141271,141953,1,0
Sprite,Foreground,Centre,"sad story\title\e5.png",320,240 M,0,141953,,319,250 F,0,141953,142294,0,1 F,0,142294,142635,1,0
Sprite,Foreground,Centre,"sad story\title\e6.png",320,240 M,0,142635,,319,249 F,0,142635,143316,0,1 F,0,143316,143998,1 F,0,143998,144680,1,0
Sprite,Foreground,Centre,"sad story\title\e7.png",320,240 M,0,144680,,322,252 F,0,144680,145362,0,1 F,0,145362,146725,1 F,0,146725,147407,1,0
Sprite,Foreground,Centre,"sad story\title\e8.png",320,240 M,0,147407,,323,254 F,0,147407,148089,0,1 F,0,148089,149453,1 F,0,149453,150135,1,0
Sprite,Foreground,Centre,"sad story\title\f1.png",320,240 M,0,149794,,117,332 F,0,149794,150135,0,1 F,0,150135,152180,1 F,0,152180,152862,1,0
Sprite,Foreground,Centre,"sad story\title\f2.png",320,240 M,0,150475,,439,336 F,0,150475,150816,0,1 F,0,150816,152180,1 F,0,152180,152862,1,0
Sprite,Foreground,Centre,"sad story\title\f3.png",320,240 F,0,152521,153544,0,1 M,0,152521,154225,321,248,320,252 S,0,152521,154225,1,1.48 F,0,153544,154225,1,0
Sprite,Foreground,Centre,"sad story\title\v1.png",320,240 F,0,155589,155930,0,1 M,0,155589,157635,320,240 F,0,155930,157294,1 F,0,157294,157635,1,0
Sprite,Foreground,Centre,"sad story\title\v2.png",320,240 F,0,157635,157975,0,1 M,0,157635,158998,320,240 F,0,157975,158657,1 F,0,158657,158998,1,0
Sprite,Foreground,Centre,"sad story\title\v3.png",320,240 F,0,158998,159339,0,1 M,0,158998,161725,320,240 F,0,159339,161385,1 F,0,161385,161725,1,0
Sprite,Foreground,Centre,"sad story\title\v4.png",320,240 F,0,161725,162066,0,1 M,0,161725,162748,320,240 F,0,162066,162407,1 F,0,162407,162748,1,0
Sprite,Foreground,Centre,"sad story\title\v5.png",320,240 F,0,162748,163089,0,1 M,0,162748,165816,320,240 F,0,163089,164794,1 F,0,164794,165135,1,0
Sprite,Foreground,Centre,"sad story\title\v6a.png",320,240 F,0,165135,165475,0,1 M,0,165816,,320,240 F,0,166157,168203,1 F,0,168203,168544,1,0
Sprite,Foreground,Centre,"sad story\title\v6b.png",320,240 M,0,165816,,320,240 F,0,165816,166157,0,1 F,0,168203,168544,1,0
Sprite,Foreground,Centre,"sad story\title\v6c.png",320,240 M,0,165816,,320,240 F,0,166498,166839,0,1 F,0,168203,168544,1,0
Sprite,Foreground,Centre,"sad story\title\v7.png",320,240 F,0,168544,168885,0,1 M,0,168544,170589,320,240 F,0,168885,170248,1 F,0,170248,170589,1,0
Sprite,Foreground,Centre,"sad story\title\v8.png",320,240 F,0,170589,170930,0,1 M,0,170589,172635,320,240 F,0,170930,172635,1 F,0,172635,173998,1,0
Sprite,Foreground,Centre,"sad story\title\x1.png",320,240 M,0,175362,,117,151 F,0,175362,175703,0,1 F,0,175703,176725,1 F,0,176725,177407,1,0
Sprite,Foreground,Centre,"sad story\title\x2.png",320,240 M,0,177407,,516,148 F,0,177407,177748,0,1 F,0,177748,178771,1 F,0,178771,179112,1,0
Sprite,Foreground,Centre,"sad story\title\x3.png",320,240 M,0,179452,,108,356 F,0,179453,179794,0,1 F,0,179794,180816,1 F,0,180816,181157,1,0
Sprite,Foreground,Centre,"sad story\title\x4.png",320,240 M,0,181157,,533,350 F,0,181157,181498,0,1 F,0,181498,182862,1 F,0,182862,183544,1,0
Sprite,Foreground,Centre,"sad story\title\x5.png",320,240 M,0,183373,,255,324 F,0,183373,183544,0,1 F,0,183544,185248,1,0
Sprite,Foreground,Centre,"sad story\title\x6.png",320,240 M,0,185419,,241,324 F,0,185419,185589,0,1 F,0,185589,187294,1,0
Sprite,Foreground,Centre,"sad story\title\x7.png",320,240 M,0,187464,,237,321 F,0,187464,187635,0,1 F,0,187635,189680,1,0
Sprite,Foreground,Centre,"sad story\title\x8.png",320,240 M,0,191555,,332,360 F,0,191555,191725,0,1 F,0,191725,193089,1,0
Sprite,Foreground,Centre,"sad story\title\y1.png",320,240 M,0,193600,,569,225 F,0,193600,193771,0,1 F,0,193771,195135,1,0
Sprite,Foreground,Centre,"sad story\title\y2.png",320,240 M,0,195646,,280,163 F,0,195646,195816,0,1 F,0,195816,198544,1 F,0,198544,199225,1,0
Sprite,Foreground,Centre,"sad story\title\y3.png",320,240 M,0,199737,,121,104 F,0,199737,199907,0,1 F,0,199907,201271,1,0
Sprite,Foreground,Centre,"sad story\title\y4.png",320,240 M,0,201782,,554,155 F,0,201782,201953,0,1 F,0,201953,203316,1,0
Sprite,Foreground,Centre,"sad story\title\y5.png",320,240 S,0,203657,,1.368 F,0,203657,203998,0,1 M,0,203827,,178,137 F,0,203998,206044,1 F,0,206044,206725,1,0
Sprite,Foreground,Centre,"sad story\title\y6.png",320,240 F,0,207066,208260,0,1 S,0,207066,212862,1,1.288 F,0,208260,210816,1 F,0,210816,212862,1,0
Sprite,Foreground,Centre,"sad story\paper1.png",320,240 M,0,229907,,320,240 F,0,229907,230589,0,1 F,0,230589,234680,1 F,0,234680,235362,1,0
Sprite,Foreground,Centre,"sad story\title\a1.png",320,240 F,0,229907,230589,0,1 F,0,230589,234680,1 M,0,231270,,147,239 F,0,234680,235362,1,0
Sprite,Foreground,Centre,"sad story\title\a2.png",320,240 F,0,232294,232635,0,1 F,0,232635,234680,1 F,0,234680,235362,1,0
Sprite,Foreground,Centre,"sad story\title\a3.png",320,240 F,0,232975,233316,0,1 M,0,233315,,487,240 F,0,233316,234680,1 F,0,234680,235362,1,0
Sprite,Foreground,Centre,"sad story\title\z1.png",320,240 M,0,235703,,276,244 F,0,235703,236044,0,1 F,0,236044,237237,1 F,0,237237,237407,1,0
Sprite,Foreground,Centre,"sad story\title\z2.png",320,240 M,0,237748,,246,241 F,0,237748,238089,0,1 F,0,238089,239964,1 F,0,239964,240135,1,0
Sprite,Foreground,Centre,"sad story\title\z3.png",320,240 F,0,241157,241498,0,1 F,0,241498,242862,1 F,0,242862,243203,1,0
Sprite,Foreground,Centre,"sad story\title\z4.png",320,240 M,0,243203,,229,250 F,0,243203,243544,0,1 F,0,243544,245589,1 F,0,245589,245930,1,0
Sprite,Foreground,Centre,"sad story\title\z5.png",320,240 M,0,245930,,394,248 F,0,245930,246271,0,1 F,0,246271,248316,1 F,0,248316,248657,1,0
Sprite,Foreground,Centre,"sad story\title\z6.png",320,240 M,0,248657,,394,203 F,0,248657,248998,0,1 F,0,248998,251044,1 F,0,251044,251725,1,0
Sprite,Foreground,Centre,"sad story\title\z7.png",320,240 F,0,251725,252066,0,1 F,0,252066,255135,1 F,0,255135,256498,1,0
Sprite,Foreground,Centre,"sad story\title\ty.png",320,240 M,0,257862,,320,240 F,0,257862,258544,0,1 F,0,258544,261953,1 F,0,261953,265362,1,0
//Storyboard Sound Samples
//Background Colour Transformations
3,100,163,162,255

[TimingPoints]
816.818181818182,681.818181818182,4,2,1,50,1,0
11725,-100,4,2,1,50,0,0
22635,-100,4,2,1,70,0,0
58260,-100,4,2,1,30,0,0
59964,-100,4,2,1,30,0,0
60305,-100,4,2,1,70,0,0
60816,-100,4,2,1,70,0,1
85362,-100,4,2,1,30,0,0
93544,-100,4,2,1,50,0,0
131725,-100,4,2,1,70,0,1
153544,-100,4,2,1,70,0,0
156271,-100,4,2,1,30,0,0
175362,681.818181818182,3,2,1,40,1,0
191725,-100,3,2,1,50,0,0
206043,681.818181818182,4,2,1,50,1,0
214055,-100,4,2,1,30,0,0
230589,-100,4,2,1,50,0,0
235362,-100,4,2,1,60,0,0
236044,-100,4,2,1,70,0,1
257861,-100,4,2,1,30,0,0

[Colours]
Combo1 : 169,209,167
Combo2 : 126,63,63
Combo3 : 163,201,209
Combo4 : 180,105,105

[HitObjects]
128,112,816,38,0,B|40:132|68:272|160:256,1,225,2|0
248,280,2180,2,0,B|336:260|308:120|216:136,1,225,2|0
144,192,3544,22,0,B|108:264|156:336,1,150,2|0
320,264,4907,2,0,B|356:192|308:120,1,150,2|0
256,48,5930,1,2
176,96,6271,22,0,B|52:120|80:268,1,225,0|2
168,288,7635,2,0,B|164:340|196:380,1,75,0|2
256,304,8316,2,0,B|286:346|336:356,1,75,0|2
336,264,8998,22,0,B|460:240|432:92,1,225,0|2
352,136,10362,2,0,B|328:12|180:40,1,225,0|2
96,56,11725,22,0,B|72:88|80:136,1,75,4|0
144,192,12407,2,0,B|168:160|160:112,1,75,0|2
72,152,13089,1,0
32,232,13430,1,2
88,296,13771,1,0
168,264,14112,1,2
156,176,14453,22,0,B|228:208|220:304,1,150,0|2
256,376,15475,1,0
293,298,15816,2,0,B|286:207|358:175,1,150,2|0
446,194,16839,1,0
376,248,17180,22,0,B|448:296|432:376,2,150,2|0|0
320,320,18885,1,2
256,264,19225,1,0
192,320,19566,1,2
136,248,19907,2,0,B|64:296|80:376,2,150,0|2|0
256,112,21953,1,4
416,192,22634,22,0,B|368:192|336:152|344:104|376:80,1,150,4|0
456,112,23657,1,2
488,192,23998,2,0,B|512:224|504:272,1,75,0|2
424,304,24680,2,0,B|421:343|384:375,1,75,0|2
320,312,25362,2,0,B|292:341|243:341,2,75,0|0|2
400,264,26384,2,0,B|312:256|304:168,1,150,0|2
392,136,27407,21,0
328,72,27748,1,2
256,128,28089,1,0
184,72,28430,1,2
120,136,28771,1,0
168,216,29112,22,0,B|192:248|184:288,2,75,2|0|0
120,136,30134,1,0
48,192,30475,2,0,B|8:264|56:336,2,150,0|2|0
120,136,32180,1,0
120,48,32521,1,2
32,24,32862,22,0,B|8:56|16:96,1,75,0|2
40,184,33544,2,0,B|112:224|184:192,1,150,0|2
208,280,34566,2,0,B|288:240|256:152,1,150,0|2
184,104,35589,1,0
256,56,35930,1,2
328,104,36271,22,0,B|408:104,2,75,0|2|0
328,192,37294,2,0,B|408:192,1,75,0|0
224,216,38316,21,0
256,296,38657,1,2
184,344,38998,2,0,B|156:373|107:373,2,75,0|2|0
256,296,40021,2,0,B|312:360|392:328,1,150,0|2
256,208,41384,21,2
168,176,41725,1,0
208,96,42066,1,2
304,96,42407,1,0
344,176,42748,2,0,B|400:232|376:320,1,150,2|0
296,272,43771,21,0
208,256,44112,1,2
136,312,44453,2,0,B|113:229|169:173,2,150,8|0|0
256,176,46498,1,2
344,192,46839,22,0,B|368:224|352:264,2,75
320,104,47862,2,0,B|344:184|432:192,1,150,2|0
392,16,49225,1,0
304,48,49566,2,0,B|280:128|192:136,1,150,2|0
144,64,50589,21,2
112,152,50930,1,0
176,216,51271,2,0,B|192:256|176:288,2,75,2|0|0
96,248,52294,21,0
176,216,52634,2,0,B|232:160|320:192,1,150,2|0
400,216,53657,1,0
336,280,53998,2,0,B|352:320|336:352,1,75,2|0
248,328,54680,2,0,B|232:288|248:256,1,75,2|0
256,192,55362,12,0,57407
144,192,58089,22,0,B|120:112|136:32|256:-8|376:32|392:112|368:200,1,450,2|0
256,336,60816,22,0,B|296:352|328:336,1,75,4|0
328,248,61498,2,0,B|368:234|383:201,2,75,0|2|0
256,192,62521,1,2
184,248,62862,22,0,B|143:234|128:201,1,75,0|2
40,192,63544,2,0,B|40:104|112:72,1,150,0|2
192,112,64566,1,0
256,48,64907,1,2
320,112,65248,1,0
399,71,65589,22,0,B|472:104|472:192,1,150,2|0
392,224,66612,2,0,B|376:264|392:304,1,75,0|2
480,312,67294,1,0
408,368,67634,1,2
320,344,67975,22,0,B|280:328|240:344,2,75,0|2|0
408,368,68998,2,0,B|480:320|456:232,1,150,2|0
424,152,70021,1,0
344,192,70362,1,2
168,192,71044,21,0
88,152,71384,1,2
40,224,71725,2,0,B|16:256|24:304,1,75,4|0
112,296,72407,2,0,B|114:335|151:367,2,75,0|2|0
176,232,73430,1,2
256,192,73771,22,0,B|254:153|217:121,1,75,0|2
136,120,74453,2,0,B|128:72|160:32|216:32|248:56,2,150,0|2|0
192,192,76157,1,2
272,232,76498,22,0,B|288:272|256:304,1,75,0|2
184,352,77180,2,0,B|256:304|320:368,2,150,0|2|0
96,368,78884,21,2
144,296,79225,1,0
112,216,79566,1,2
24,192,79907,2,0,B|16:144|48:104|104:104|136:128,2,150,2|2|2
200,232,81953,1,0
256,192,82294,12,0,85362
384,136,93544,38,0,B|448:192|408:272,1,150,4|0
336,216,94566,2,0,B|322:299|233:308,1,150,2|0
216,224,95589,2,0,B|176:240|144:208,1,75,2|0
176,128,96271,22,0,B|137:108|139:63,2,75,2|0|2
208,48,97294,1,0
256,128,97634,1,2
304,48,97975,1,0
336,128,98316,22,0,B|374:108|372:63,1,75,2|0
448,120,98998,2,0,B|496:192|456:264,1,150,2|0
368,288,100021,2,0,B|320:216|360:144,2,150,2|0|2
456,296,101725,21,0
392,360,102066,1,2
304,336,102407,1,0
256,256,102748,2,0,B|224:200|296:160|256:112,1,150,2|0
192,48,103771,22,0,B|160:80|168:120,1,75,2|0
80,120,104453,2,0,B|80:208|168:224,1,150,0|2
256,208,105475,2,0,B|168:208|152:296,1,150,0|2
192,376,106498,1,0
256,312,106839,1,2
320,376,107180,21,0
408,344,107521,1,2
440,256,107862,1,0
416,168,108203,1,2
336,120,108544,1,0
256,280,109225,22,0,B|224:304|168:296,1,75,2|0
176,208,109907,2,0,B|208:184|264:192,2,75,2|0|2
96,248,110930,2,0,B|160:192|120:112,1,150,0|2
80,32,111953,1,2
168,48,112294,22,0,B|208:56,2,37.5
184,136,112975,1,2
256,192,113316,1,0
328,136,113657,2,0,B|376:192|344:280,1,150,2|0
288,344,114680,5,0
256,264,115021,1,2
167,277,115362,2,0,B|136:192|184:136,2,150,8|0|0
256,120,117407,1,2
256,208,117748,22,0,B|256:288,2,75,0|2|0
256,120,118771,2,0,B|344:128|344:224,1,150,2|0
256,376,120134,1,0
344,368,120475,2,0,B|256:360|256:264,1,150,2|0
304,192,121498,21,0
224,224,121839,2,0,B|168:160|88:192,2,150,2|0|2
176,304,123544,21,0
256,352,123884,1,2
336,304,124225,2,0,B|360:272|352:232,1,75,0|2
264,224,124907,2,0,B|344:200|344:112,1,150,0|2
256,112,125930,1,0
256,192,126271,12,0,128316
256,32,128998,21,0
320,200,129680,2,0,B|296:248|216:248|192:200,2,150,2|0|0
144,160,131725,22,0,B|120:192|136:240,1,75,4|0
208,280,132407,1,0
256,200,132748,1,2
344,224,133089,2,0,B|368:192|352:144,1,75,0|2
296,88,133771,22,0,B|272:120|288:168,1,75,0|2
344,224,134453,1,0
360,312,134794,1,2
288,368,135134,1,0
208,336,135475,1,2
184,248,135816,1,0
256,192,136157,1,2
184,248,136498,22,0,B|152:272|152:312,1,75,0|2
240,312,137180,2,0,B|231:351|257:381,1,75,0|2
320,312,137862,2,0,B|400:336|464:288,1,150,0|2
392,240,138884,22,0,B|416:208|408:168,1,75,0|2
344,104,139566,1,0
256,128,139907,1,2
168,104,140248,1,0
103,169,140589,2,0,B|96:208|120:240,2,75,2|0|2
256,264,141953,22,0,B|256:344,1,75,0|2
168,328,142635,2,0,B|120:328|88:288|96:240|128:216,2,150,4|0|2
256,344,144339,1,0
344,328,144680,22,0,B|376:304|368:256,1,75,2|0
304,200,145362,1,2
368,136,145703,1,0
448,160,146044,1,2
424,72,146385,1,0
336,40,146725,1,2
280,112,147066,1,0
368,136,147407,22,0,B|392:168|376:224,1,75,2|0
288,192,148089,2,0,B|312:264|256:336,2,150,2|0|2
200,192,149794,2,0,B|187:152|211:120,1,75,0|2
296,88,150475,21,0
368,144,150816,1,2
352,232,151157,1,0
264,264,151498,2,0,B|256:312|288:352|344:352|376:328,1,150,2|0
256,192,152862,12,0,156271
128,112,175362,21,4
48,152,175702,1,0
32,240,176043,1,2
88,312,176384,1,0
176,304,176725,1,2
336,232,177407,21,2
416,192,177748,1,0
432,104,178089,1,2
376,32,178430,1,0
288,40,178771,1,2
192,192,179452,22,0,B|168:224|184:264,1,75,2|0
256,320,180134,1,2
328,262,180475,2,0,B|344:224|320:192,1,75,0|2
256,128,181157,1,2
320,64,181498,2,0,B|360:136|448:128,2,150,0|2|0
448,192,183543,21,2
512,256,183884,1,0
472,336,184225,1,2
384,320,184566,1,0
368,232,184907,1,2
192,184,185589,21,2
128,120,185930,1,0
168,40,186271,1,2
256,56,186612,1,0
272,144,186952,1,2
192,184,187293,21,0
200,272,187634,2,0,B|208:320|256:320|296:320|312:272,2,150,2|0|2
144,192,189680,22,0,B|144:120|176:56|256:32|336:56|368:120|368:200,1,375,2|0
448,152,191725,21,6
472,240,192066,1,0
440,320,192407,1,2
360,344,192748,1,0
288,296,193089,1,2
128,216,193771,21,2
104,128,194112,1,0
136,48,194452,1,2
216,24,194793,1,0
288,72,195134,1,2
424,192,195816,22,0,B|440:224|424:264,1,75,2|0
368,336,196498,1,2
328,256,196839,1,0
256,312,197180,1,2
184,256,197521,1,0
144,336,197862,2,0,B|64:304|72:216,2,150,2|0|2
280,216,199907,21,6
248,128,200248,1,0
320,72,200589,1,2
392,128,200930,1,0
368,216,201271,1,2
192,192,201952,21,2
224,280,202293,1,0
152,336,202634,1,2
80,280,202975,1,0
104,192,203316,1,2
256,96,203998,22,0,B|256:56|296:24|352:32|368:64,2,150,2|0|2
424,152,206043,2,0,B|424:192|384:224|328:216|312:184,1,150,2|0
344,104,207065,1,2
424,152,207406,21,0
448,240,207747,1,2
400,320,208088,1,0
312,320,208429,1,2
256,192,208770,12,0,214224
112,136,230588,21,2
56,208,230929,1,0
80,296,231270,1,2
160,336,231611,1,0
232,288,231952,1,2
272,112,232633,2,0,B|256:144|264:184,1,75,2|0
352,208,233315,21,2
408,136,233656,1,0
384,48,233997,1,2
304,8,234338,1,0
232,56,234679,1,2
344,192,235361,22,0,B|352:232|336:264,1,75,6|0
248,264,236043,2,0,B|240:224|256:192,1,75,6|0
304,112,236724,1,2
392,120,237065,1,0
440,192,237406,1,2
424,280,237747,22,0,B|400:360|312:360,1,150,2|0
256,288,238770,2,0,B|168:288|144:208,2,150,2|0|2
320,224,240474,1,0
336,136,240815,21,2
256,88,241156,1,0
176,128,241497,2,0,B|160:168|176:208,1,75,2|0
88,216,242179,2,0,B|101:256|139:277,1,75,2|0
72,336,242861,2,0,B|108:358|150:349,1,75,2|0
208,288,243543,21,2
272,224,243883,1,0
360,232,244224,1,0
424,296,244565,2,0,B|448:328|432:368,2,75,0|2|0
480,224,245588,2,0,B|456:192|472:152,1,75,2|0
496,64,246270,21,2
416,112,246611,1,0
360,40,246952,2,0,B|296:88|328:176,2,150,2|0|2
416,112,248656,22,0,B|432:152|416:184,2,75,2|0|2
360,40,249679,2,0,B|208:40,2,150,0|2|0
256,192,251724,12,0,257861
