osu file format v9

[General]
AudioFilename: Our_Let_it_Be.mp3
AudioLeadIn: 1000
PreviewTime: 131725
Countdown: 0
SampleSet: Soft
StackLeniency: 0.7
Mode: 0
LetterboxInBreaks: 0

[Editor]
DistanceSpacing: 1
BeatDivisor: 4
GridSize: 8

[Metadata]
Title:Our let it be
Artist:Hatsune Miku
Creator:S h i a
Version:Easy
Source:Harry
Tags:Garven tutuhaha Thite s_h_i_a shia Vocaloid Vocaloid2

[Difficulty]
HPDrainRate:2
CircleSize:3
OverallDifficulty:1
ApproachRate:2
SliderMultiplier:1.5
SliderTickRate:2

[Events]
//Background and Video events
0,0,"bg.jpg"
//Break Periods
2,11925,21074
2,85362,91984
2,155589,173802
2,211497,218119
2,230588,233801
//Storyboard Layer 0 (Background)
Sprite,Background,TopLeft,"bg.jpg",0,0
Sprite,Background,Centre,"sad story\paper.png",320,240 F,0,816,1498,0,1 M,0,816,265362,320,240 F,0,1498,58089,1 F,0,58089,58260,1,0 F,0,58260,60475,0 F,0,60475,60816,0,1 F,0,60816,93203,1 F,0,93203,93373,1,0 F,0,93373,113657,0 F,0,113657,113828,0,1 F,0,113828,114680,1 F,0,114680,114850,1,0 F,0,114850,128146,0 F,0,128146,128316,0,1 F,0,128316,131725,1 F,0,131725,131896,1,0 F,0,131896,153544,0 F,0,153544,153885,0,1 F,0,153885,175362,1 F,0,175362,175532,1,0 F,0,175532,182862,0,0.2748776 F,0,175532,183544,0,1 F,0,182862,183544,0.2748776,1 F,0,183544,,1 F,0,183544,,1 F,0,183544,,1 F,0,183544,229907,1 F,0,183544,235362,1 F,0,229907,,1 F,0,235362,235703,1,0.568 F,0,235703,236044,0.568,1 F,0,236044,264680,1 F,0,264680,265362,1,0
//Storyboard Layer 1 (Fail)
//Storyboard Layer 2 (Pass)
//Storyboard Layer 3 (Foreground)
Sprite,Foreground,Centre,"sad story\title\1.png",320,240 F,0,2010,2180,0,1 F,0,2180,5930,1 F,0,5930,6271,1,0
Sprite,Foreground,Centre,"sad story\title\1.png",320,240 F,0,3544,4225,1,0 S,0,3544,4225,0.9680003,1.272
Sprite,Foreground,Centre,"sad story\dotf1.png",320,240 F,0,236044,,1 S,0,236044,,1 M,0,236044,243544,333,-20,309,490 F,0,236044,243544,1,0 R,0,236044,243544,5.4309,0
Sprite,Foreground,Centre,"sad story\dotf2.png",320,240 F,0,236044,,1 S,0,236044,,1 M,0,236044,243544,333,-20,309,490 F,0,236044,243544,1,0 R,0,236044,243544,0,5.4309
Sprite,Foreground,Centre,"sad story\dotf1.png",320,240 F,0,236044,,1 S,0,236044,,1 M,0,236044,243544,520,-10,309,400 F,0,236044,243544,1,0 R,0,236044,243544,0,4
Sprite,Foreground,Centre,"sad story\dotf2.png",320,240 F,0,236044,,1 S,0,236044,,1 M,0,236044,243544,20,-20,70,490 F,0,236044,243544,1,0 R,0,236044,243544,5,0
Sprite,Foreground,Centre,"sad story\dotf2.png",320,240 F,0,236044,,1 S,0,236044,,1 M,0,236044,243544,70,-40,160,600 F,0,236044,243544,1,0 R,0,236044,243544,5,0
Sprite,Foreground,Centre,"sad story\dotf1.png",320,240 F,0,236044,,1 S,0,236044,,1 M,0,236044,243544,90,-30,200,900 F,0,236044,243544,1,0 R,0,236044,243544,6,0
Sprite,Foreground,Centre,"sad story\dotf3.png",320,240 F,0,236044,,1 S,0,236044,,1 M,0,236044,243544,120,-20,90,350 F,0,236044,243544,1,0 R,0,236044,243544,0,7
Sprite,Foreground,Centre,"sad story\dotf3.png",320,240 F,0,236044,,1 S,0,236044,,1 M,0,236044,243544,250,-20,620,350 F,0,236044,243544,1,0 R,0,236044,243544,3,0
Sprite,Foreground,Centre,"sad story\dotf2.png",320,240 F,0,236044,,1 S,0,236044,,1 M,0,236044,243544,250,-20,320,350 F,0,236044,243544,1,0 R,0,236044,243544,3,0
Sprite,Foreground,Centre,"sad story\dotf1.png",320,240 F,0,238771,,1 S,0,238771,,1 M,0,238771,246271,303,-20,369,490 F,0,238771,246271,1,0 R,0,238771,246271,5,0
Sprite,Foreground,Centre,"sad story\dotf2.png",320,240 F,0,238771,,1 S,0,238771,,1 M,0,238771,246271,333,-20,309,490 F,0,238771,246271,1,0 R,0,238771,246271,0,5
Sprite,Foreground,Centre,"sad story\dotf1.png",320,240 F,0,238771,,1 S,0,238771,,1 M,0,238771,246271,500,-10,209,400 F,0,238771,246271,1,0 R,0,238771,246271,0,4
Sprite,Foreground,Centre,"sad story\dotf2.png",320,240 F,0,238771,,1 S,0,238771,,1 M,0,238771,246271,50,-20,90,490 F,0,238771,246271,1,0 R,0,238771,246271,5,0
Sprite,Foreground,Centre,"sad story\fn.png",320,240 M,0,235873,236044,478,364,477,310 F,0,236044,236214,0,1 M,0,236044,241498,477,310,478,284 F,0,236214,252066,1 M,0,241498,241669,478,284,478,239 M,0,241669,252066,478,239,478,186 M,0,252066,252407,478,186,477,137 F,0,252066,252407,1,0
Sprite,Foreground,Centre,"sad story\dotf2.png",320,240 F,0,238771,,1 S,0,238771,,1 M,0,238771,246271,80,-40,190,600 F,0,238771,246271,1,0 R,0,238771,246271,5,0
Sprite,Foreground,Centre,"sad story\dotf1.png",320,240 F,0,238771,,1 S,0,238771,,1 M,0,238771,246271,140,-30,200,900 F,0,238771,246271,1,0 R,0,238771,246271,6,0
Sprite,Foreground,Centre,"sad story\dotf3.png",320,240 F,0,238771,,1 S,0,238771,,1 M,0,238771,246271,110,-20,40,350 F,0,238771,246271,1,0 R,0,238771,246271,0,7
Sprite,Foreground,Centre,"sad story\dotf3.png",320,240 F,0,238771,,1 S,0,238771,,1 M,0,238771,246271,230,-20,600,350 F,0,238771,246271,1,0 R,0,238771,246271,3,0
Sprite,Foreground,Centre,"sad story\dotf2.png",320,240 F,0,238771,,1 S,0,238771,,1 M,0,238771,246271,280,-20,390,350 F,0,238771,246271,1,0 R,0,238771,246271,3,0
Sprite,Foreground,Centre,"sad story\dotf1.png",320,240 F,0,241498,,1 S,0,241498,,1 M,0,241498,248998,333,-20,309,490 F,0,241498,248998,1,0 R,0,241498,248998,5.4309,0
Sprite,Foreground,Centre,"sad story\dotf2.png",320,240 F,0,241498,,1 S,0,241498,,1 M,0,241498,248998,333,-20,309,490 F,0,241498,248998,1,0 R,0,241498,248998,0,5.4309
Sprite,Foreground,Centre,"sad story\dotf1.png",320,240 F,0,241498,,1 S,0,241498,,1 M,0,241498,248998,520,-10,309,400 F,0,241498,248998,1,0 R,0,241498,248998,0,4
Sprite,Foreground,Centre,"sad story\dotf2.png",320,240 F,0,241498,,1 S,0,241498,,1 M,0,241498,248998,20,-20,70,490 F,0,241498,248998,1,0 R,0,241498,248998,5,0
Sprite,Foreground,Centre,"sad story\dotf2.png",320,240 F,0,241498,,1 S,0,241498,,1 M,0,241498,248998,70,-40,160,600 F,0,241498,248998,1,0 R,0,241498,248998,5,0
Sprite,Foreground,Centre,"sad story\dotf1.png",320,240 F,0,241498,,1 S,0,241498,,1 M,0,241498,248998,90,-30,200,900 F,0,241498,248998,1,0 R,0,241498,248998,6,0
Sprite,Foreground,Centre,"sad story\dotf3.png",320,240 F,0,241498,,1 S,0,241498,,1 M,0,241498,248998,120,-20,90,350 F,0,241498,248998,1,0 R,0,241498,248998,0,7
Sprite,Foreground,Centre,"sad story\dotf3.png",320,240 F,0,241498,,1 S,0,241498,,1 M,0,241498,248998,250,-20,620,350 F,0,241498,248998,1,0 R,0,241498,248998,3,0
Sprite,Foreground,Centre,"sad story\dotf2.png",320,240 F,0,241498,,1 S,0,241498,,1 M,0,241498,248998,250,-20,320,350 F,0,241498,248998,1,0 R,0,241498,248998,3,0
Sprite,Foreground,Centre,"sad story\dotf1.png",320,240 F,0,244225,,1 S,0,244225,,1 M,0,244225,251725,303,-20,369,490 F,0,244225,251725,1,0 R,0,244225,251725,5,0
Sprite,Foreground,Centre,"sad story\dotf2.png",320,240 F,0,244225,,1 S,0,244225,,1 M,0,244225,251725,333,-20,309,490 F,0,244225,251725,1,0 R,0,244225,251725,0,5
Sprite,Foreground,Centre,"sad story\dotf1.png",320,240 F,0,244225,,1 S,0,244225,,1 M,0,244225,251725,500,-10,209,400 F,0,244225,251725,1,0 R,0,244225,251725,0,4
Sprite,Foreground,Centre,"sad story\dotf2.png",320,240 F,0,244225,,1 S,0,244225,,1 M,0,244225,251725,50,-20,90,490 F,0,244225,251725,1,0 R,0,244225,251725,5,0
Sprite,Foreground,Centre,"sad story\dotf2.png",320,240 F,0,244225,,1 S,0,244225,,1 M,0,244225,251725,80,-40,190,600 F,0,244225,251725,1,0 R,0,244225,251725,5,0
Sprite,Foreground,Centre,"sad story\dotf1.png",320,240 F,0,244225,,1 S,0,244225,,1 M,0,244225,251725,140,-30,200,900 F,0,244225,251725,1,0 R,0,244225,251725,6,0
Sprite,Foreground,Centre,"sad story\dotf3.png",320,240 F,0,244225,,1 S,0,244225,,1 M,0,244225,251725,110,-20,40,350 F,0,244225,251725,1,0 R,0,244225,251725,0,7
Sprite,Foreground,Centre,"sad story\dotf3.png",320,240 F,0,244225,,1 S,0,244225,,1 M,0,244225,251725,230,-20,600,350 F,0,244225,251725,1,0 R,0,244225,251725,3,0
Sprite,Foreground,Centre,"sad story\dotf2.png",320,240 F,0,244225,,1 S,0,244225,,1 M,0,244225,251725,280,-20,390,350 F,0,244225,251725,1,0 R,0,244225,251725,3,0
Sprite,Foreground,Centre,"sad story\dotf1.png",320,240 F,0,246953,,1 S,0,246953,,1 M,0,246953,254453,333,-20,309,490 F,0,246953,254453,1,0 R,0,246953,254453,5.4309,0
Sprite,Foreground,Centre,"sad story\dotf2.png",320,240 F,0,246953,,1 S,0,246953,,1 M,0,246953,254453,333,-20,309,490 F,0,246953,254453,1,0 R,0,246953,254453,0,5.4309
Sprite,Foreground,Centre,"sad story\dotf1.png",320,240 F,0,246953,,1 S,0,246953,,1 M,0,246953,254453,520,-10,309,400 F,0,246953,254453,1,0 R,0,246953,254453,0,4
Sprite,Foreground,Centre,"sad story\dotf2.png",320,240 F,0,246953,,1 S,0,246953,,1 M,0,246953,254453,20,-20,70,490 F,0,246953,254453,1,0 R,0,246953,254453,5,0
Sprite,Foreground,Centre,"sad story\dotf2.png",320,240 F,0,246953,,1 S,0,246953,,1 M,0,246953,254453,70,-40,160,600 F,0,246953,254453,1,0 R,0,246953,254453,5,0
Sprite,Foreground,Centre,"sad story\dotf1.png",320,240 F,0,246953,,1 S,0,246953,,1 M,0,246953,254453,90,-30,200,900 F,0,246953,254453,1,0 R,0,246953,254453,6,0
Sprite,Foreground,Centre,"sad story\dotf3.png",320,240 F,0,246953,,1 S,0,246953,,1 M,0,246953,254453,120,-20,90,350 F,0,246953,254453,1,0 R,0,246953,254453,0,7
Sprite,Foreground,Centre,"sad story\dotf3.png",320,240 F,0,246953,,1 S,0,246953,,1 M,0,246953,254453,250,-20,620,350 F,0,246953,254453,1,0 R,0,246953,254453,3,0
Sprite,Foreground,Centre,"sad story\dotf2.png",320,240 F,0,246953,,1 S,0,246953,,1 M,0,246953,254453,250,-20,320,350 F,0,246953,254453,1,0 R,0,246953,254453,3,0
Sprite,Foreground,Centre,"sad story\dotf1.png",320,240 F,0,249680,,1 S,0,249680,,1 M,0,249680,257180,303,-20,369,490 F,0,249680,257180,1,0 R,0,249680,257180,5,0
Sprite,Foreground,Centre,"sad story\dotf2.png",320,240 F,0,249680,,1 S,0,249680,,1 M,0,249680,257180,333,-20,309,490 F,0,249680,257180,1,0 R,0,249680,257180,0,5
Sprite,Foreground,Centre,"sad story\dotf1.png",320,240 F,0,249680,,1 S,0,249680,,1 M,0,249680,257180,500,-10,209,400 F,0,249680,257180,1,0 R,0,249680,257180,0,4
Sprite,Foreground,Centre,"sad story\dotf2.png",320,240 F,0,249680,,1 S,0,249680,,1 M,0,249680,257180,50,-20,90,490 F,0,249680,257180,1,0 R,0,249680,257180,5,0
Sprite,Foreground,Centre,"sad story\dotf2.png",320,240 F,0,249680,,1 S,0,249680,,1 M,0,249680,257180,80,-40,190,600 F,0,249680,257180,1,0 R,0,249680,257180,5,0
Sprite,Foreground,Centre,"sad story\dotf1.png",320,240 F,0,249680,,1 S,0,249680,,1 M,0,249680,257180,140,-30,200,900 F,0,249680,257180,1,0 R,0,249680,257180,6,0
Sprite,Foreground,Centre,"sad story\dotf3.png",320,240 F,0,249680,,1 S,0,249680,,1 M,0,249680,257180,110,-20,40,350 F,0,249680,257180,1,0 R,0,249680,257180,0,7
Sprite,Foreground,Centre,"sad story\dotf3.png",320,240 F,0,249680,,1 S,0,249680,,1 M,0,249680,257180,230,-20,600,350 F,0,249680,257180,1,0 R,0,249680,257180,3,0
Sprite,Foreground,Centre,"sad story\dotf2.png",320,240 F,0,249680,,1 S,0,249680,,1 M,0,249680,257180,280,-20,390,350 F,0,249680,257180,1,0 R,0,249680,257180,3,0
Sprite,Foreground,Centre,"sad story\dotf1.png",320,240 F,0,252407,,1 S,0,252407,,1 M,0,252407,259907,333,-20,309,490 F,0,252407,259907,1,0 R,0,252407,259907,5.4309,0
Sprite,Foreground,Centre,"sad story\dotf2.png",320,240 F,0,252407,,1 S,0,252407,,1 M,0,252407,259907,333,-20,309,490 F,0,252407,259907,1,0 R,0,252407,259907,0,5.4309
Sprite,Foreground,Centre,"sad story\dotf1.png",320,240 F,0,252407,,1 S,0,252407,,1 M,0,252407,259907,520,-10,309,400 F,0,252407,259907,1,0 R,0,252407,259907,0,4
Sprite,Foreground,Centre,"sad story\dotf2.png",320,240 F,0,252407,,1 S,0,252407,,1 M,0,252407,259907,20,-20,70,490 F,0,252407,259907,1,0 R,0,252407,259907,5,0
Sprite,Foreground,Centre,"sad story\dotf2.png",320,240 F,0,252407,,1 S,0,252407,,1 M,0,252407,259907,70,-40,160,600 F,0,252407,259907,1,0 R,0,252407,259907,5,0
Sprite,Foreground,Centre,"sad story\dotf1.png",320,240 F,0,252407,,1 S,0,252407,,1 M,0,252407,259907,90,-30,200,900 F,0,252407,259907,1,0 R,0,252407,259907,6,0
Sprite,Foreground,Centre,"sad story\dotf3.png",320,240 F,0,252407,,1 S,0,252407,,1 M,0,252407,259907,120,-20,90,350 F,0,252407,259907,1,0 R,0,252407,259907,0,7
Sprite,Foreground,Centre,"sad story\dotf3.png",320,240 F,0,252407,,1 S,0,252407,,1 M,0,252407,259907,250,-20,620,350 F,0,252407,259907,1,0 R,0,252407,259907,3,0
Sprite,Foreground,Centre,"sad story\dotf2.png",320,240 F,0,252407,,1 S,0,252407,,1 M,0,252407,259907,250,-20,320,350 F,0,252407,259907,1,0 R,0,252407,259907,3,0
Sprite,Foreground,Centre,"sad story\a1.png",320,240 M,1,22635,23316,520,393,520,330 F,0,22635,23316,0,1 M,0,23316,32862,520,330,520,281 F,0,23316,32862,1 F,0,32862,33203,1,0 M,2,32862,33544,520,281,520,196
Sprite,Foreground,Centre,"sad story\a2.png",320,240 M,0,33203,33544,120,393,120,330 M,0,33544,41044,120,330,120,281 F,0,41044,41385,1,0 M,0,41044,41725,120,281,120,196
Sprite,Foreground,Centre,"sad story\aj1.jpg",320,240 F,0,41385,42407,0,1 F,0,42407,43771,1,0
Sprite,Foreground,Centre,"sad story\a3.png",320,240 F,0,43771,44453,0,1 F,0,44453,54680,1 F,0,54680,55362,1,0
Sprite,Foreground,Centre,"sad story\a4.png",320,240 M,0,55362,,200,240 F,0,55362,56044,0,1 F,0,56044,57748,1 F,0,57748,58089,1,0
Sprite,Foreground,Centre,"sad story\5.jpg",320,240 F,0,58089,58260,0,1 M,0,58089,58430,319,336,319,286 F,0,58260,60475,1 M,0,58430,60475,319,286,319,220 M,0,60475,60816,319,220,319,144 F,0,60475,60816,1,0
Sprite,Foreground,Centre,"sad story\fll.jpg",320,240 M,1,60816,60987,235,419,235,312 F,0,60816,60987,0,1 M,0,60987,70703,235,312,235,239 F,0,60987,70703,1 M,0,70703,71044,235,239,235,170 F,0,70703,71044,1,0
Sprite,Foreground,Centre,"sad story\a5.png",320,240 M,0,60816,,179,258 F,0,60816,60987,0,1 F,0,60987,70703,1 F,0,70703,71044,1,0
Sprite,Foreground,Centre,"sad story\flr.jpg",320,240 M,1,71555,71725,406,419,406,328 F,0,71555,71725,0,1 M,0,71725,81612,406,328,405,240 F,0,71725,81612,1 M,0,81612,81953,405,240,406,170 F,0,81612,81953,1,0
Sprite,Foreground,Centre,"sad story\a6.png",320,240 M,0,71555,,494,240 F,0,71555,71725,0,1 F,0,71725,81612,1 F,0,81612,81953,1,0
Sprite,Foreground,Centre,"sad story\flm.jpg",320,240 M,0,81953,82294,320,312,319,239 F,0,81953,82294,0,1 F,0,82294,92862,1 M,0,82294,93203,319,239,320,124 F,0,92862,93203,1,0
Sprite,Foreground,Centre,"sad story\a7.png",320,240 F,0,81953,82294,0,1 F,0,82294,92862,1 F,0,92862,93203,1,0
Sprite,Foreground,Centre,"sad story\a8.jpg",320,240 F,0,93203,93373,0,1 F,0,93373,103771,1 M,0,93544,103771,400,240,259,239 M,0,103771,103941,259,239,240,239 F,0,103771,103941,1,0
Sprite,Foreground,Centre,"sad story\a9.jpg",320,240 F,0,103941,104453,0,1 M,0,103941,109225,239,240,399,240 F,0,104453,108885,1 F,0,108885,109225,1,0
Sprite,Foreground,Centre,"sad story\b1.jpg",320,240 F,0,108885,109225,0,1 M,0,108885,112294,372,240,294,240 F,0,109225,111953,1 F,0,111953,112294,1,0
Sprite,Foreground,Centre,"sad story\b2.jpg",320,240 M,0,111953,,320,240 F,0,111953,112294,0,1 F,0,112294,113657,1 F,0,113657,113998,1,0
Sprite,Foreground,Centre,"sad story\b4.jpg",320,240 F,0,120135,123544,1
Sprite,Foreground,Centre,"sad story\b3.jpg",320,240 F,0,114510,114680,0,1 F,0,114680,120135,1 F,0,120135,120816,1,0
Sprite,Foreground,Centre,"sad story\b3.png",320,240 M,0,117748,,171,240 F,0,117748,118089,0,1 F,0,118089,123544,1
Sprite,Foreground,Centre,"sad story\b5.jpg",320,240 M,0,123203,123544,320,179,319,228 F,0,123203,123544,0,1 F,0,123544,128316,1 M,0,123544,128998,319,228,319,304 F,0,128316,128998,1,0
Sprite,Foreground,Centre,"sad story\b6.jpg",320,240 F,0,128998,129680,0,1 F,0,129680,130362,1 F,0,130362,131725,1,0
Sprite,Foreground,Centre,"sad story\6.jpg",320,240 M,0,131725,132066,319,336,320,294 M,0,132066,142635,320,294,320,232 M,0,142635,142975,320,232,320,195 M,0,142975,153544,320,195,320,143 F,0,153544,154225,1,0
Sprite,Foreground,Centre,"sad story\c1.png",320,240 M,0,142635,142975,320,473,320,341 F,0,142635,142975,0,1 M,0,142975,153544,320,341,319,254 F,0,142975,153544,1 F,0,153544,153885,1,0
Sprite,Foreground,Centre,"sad story\c1.jpg",320,240 F,0,175191,175362,0,1 F,0,175362,182862,1 F,0,182862,183544,1,0
Sprite,Foreground,Centre,"sad story\No.jpg",320,240 F,0,183544,183885,0,1 F,0,183885,185589,1
Sprite,Foreground,Centre,"sad story\Non.jpg",320,240 F,0,184225,185589,0,1 M,0,185248,,325,240 F,0,185589,187635,1
Sprite,Foreground,Centre,"sad story\Nono.jpg",320,240 F,0,186271,187635,0,1 M,0,187294,,316,240 F,0,187635,189680,1
Sprite,Foreground,Centre,"sad story\Nonono.jpg",320,240 F,0,188316,189680,0,1 M,0,189339,,331,239 F,0,189680,191044,1 F,0,191044,191725,1,0
Sprite,Foreground,Centre,"sad story\f1.jpg",320,240 M,0,191725,,320,240 F,0,191725,192066,0,1 F,0,192066,193771,1,0
Sprite,Foreground,Centre,"sad story\f2.jpg",320,240 F,0,193771,194112,0,1 F,0,194112,195816,1,0
Sprite,Foreground,Centre,"sad story\f3.jpg",320,240 F,0,195816,196157,0,1 F,0,196157,197521,1,0
Sprite,Foreground,Centre,"sad story\f4.jpg",320,240 F,0,197521,197862,0,1 F,0,197862,199907,1,0
Sprite,Foreground,Centre,"sad story\f5.jpg",320,240 F,0,199907,200248,0,1 F,0,200248,201953,1,0
Sprite,Foreground,Centre,"sad story\f6.jpg",320,240 F,0,201953,202294,0,1 F,0,202294,203998,1,0
Sprite,Foreground,Centre,"sad story\f3.jpg",320,240 F,0,203998,204339,0,1 F,0,204339,206044,1,0
Sprite,Foreground,Centre,"sad story\f4.jpg",320,240 F,0,206044,206385,0,1 F,0,206385,207407,1,0
Sprite,Foreground,Centre,"sad story\8.jpg",320,240 F,0,207237,207748,0,1 S,0,207237,207748,0.9720001,0.8517632 F,0,207748,208089,1 S,0,207748,217123,0.8517632,0.772 F,0,208089,216271,1,0 F,0,213373,217123,0 F,0,216271,217123,0
Sprite,Foreground,Centre,"sad story\5.jpg",320,240 F,0,219680,220021,0,1 M,0,219680,220362,319,143,319,242 F,0,220021,220362,1 F,0,220362,229396,1 M,0,220362,229907,319,242,320,336 F,0,229396,229907,1,0 M,0,229907,230589,320,336,319,372
Sprite,Foreground,Centre,"sad story\9.jpg",320,240 F,0,213373,213714,0,0.5 M,0,213373,219680,319,197,319,270 F,0,213714,218998,0.5,1 F,0,218998,219680,1,0 M,0,219680,220021,319,270,319,321
Sprite,Foreground,Centre,"sad story\a8.jpg",320,240 F,0,224964,225135,0,1 F,0,225135,225816,1,0
Sprite,Foreground,Centre,"sad story\a9.jpg",320,240 F,0,226328,226498,0,1 F,0,226498,227180,1,0
Sprite,Foreground,Centre,"sad story\b1.jpg",320,240 F,0,227691,227862,0,1 F,0,227862,228544,1,0
Sprite,Foreground,Centre,"sad story\b2.jpg",320,240 F,0,229055,229225,0,1 F,0,229225,229907,1,0
Sprite,Foreground,Centre,"sad story\fxe.png",320,240 F,0,252407,252748,0,1 S,1,252407,252748,1.272,1 F,0,252748,257180,1 F,0,257180,257521,1,0
Sprite,Foreground,Centre,"sad story\paper1.png",320,240 M,0,816,,320,240 F,0,816,1498,0,1 F,0,1498,11044,1 F,0,11044,11725,1,0
Sprite,Foreground,Centre,"sad story\title\2.png",320,240 F,0,6271,6612,0,1 F,0,6612,11044,1 F,0,11044,11725,1,0
Sprite,Foreground,Centre,"sad story\title\3.png",320,240 M,0,11725,,320,220 F,0,11725,14453,0,1 S,0,11725,22123,1,1.168 F,0,14453,21271,1 F,0,21271,21953,1,0
Sprite,Foreground,Centre,"sad story\title\4.png",320,240 M,0,22294,,219,86 F,0,22294,22635,0,1 F,0,22635,26725,1 F,0,26725,27407,1,0
Sprite,Foreground,Centre,"sad story\title\5.png",320,240 M,0,27407,,172,236 F,0,27407,28089,0,1 F,0,28089,29794,1 F,0,29794,30475,1,0
Sprite,Foreground,Centre,"sad story\title\6.png",320,240 F,0,30475,30816,0,1 M,0,30816,,151,404 F,0,30816,32180,1 F,0,32180,32862,1,0
Sprite,Foreground,Centre,"sad story\title\7.png",320,240 M,0,32862,,474,91 F,0,32862,33544,0,1 F,0,33544,36271,1 F,0,36271,37635,1,0
Sprite,Foreground,Centre,"sad story\title\8.png",320,240 M,0,38316,,477,236 F,0,38316,38998,0,1 F,0,38998,41044,1,0
Sprite,Foreground,Centre,"sad story\title\9.png",320,240 M,0,41044,,320,249 F,0,41044,41555,0,1 F,0,41555,43089,1 F,0,43089,43771,1,0
Sprite,Foreground,Centre,"sad story\title\10.png",320,240 M,0,43771,,39,242 S,0,43771,,0.568 F,0,43771,44453,0,1 F,0,44453,54680,1 F,0,54680,55362,1,0
Sprite,Foreground,Centre,"sad story\title\11.png",320,240 F,0,46839,47521,0,1 M,0,47521,,111,241 S,0,47521,,0.5839999 F,0,47521,54680,1 F,0,54680,55362,1,0
Sprite,Foreground,Centre,"sad story\title\12.png",320,240 M,0,49225,,160,242 S,0,49225,,0.624 F,0,49225,49907,0,1 F,0,49907,54680,1 F,0,54680,55362,1,0
Sprite,Foreground,Centre,"sad story\title\13.png",320,240 F,0,50419,50930,0,1 M,0,50589,,476,242 S,0,50589,,0.608 F,0,50930,54680,1 F,0,54680,55362,1,0
Sprite,Foreground,Centre,"sad story\title\14.png",320,240 F,0,52294,52635,0,1 M,0,52635,,569,242 S,0,52635,,0.52 F,0,52635,54680,1 F,0,54680,55362,1,0
Sprite,Foreground,Centre,"sad story\title\a1.png",320,240 F,0,60646,60816,0,1 M,0,60816,,489,76 F,0,60816,62180,1 F,0,62180,62862,1,0
Sprite,Foreground,Centre,"sad story\title\a2.png",320,240 M,0,62521,,483,161 F,0,62521,62862,0,1 F,0,62862,63544,1,0
Sprite,Foreground,Centre,"sad story\title\a3.png",320,240 M,0,63203,,477,267 F,0,63203,63544,0,1 F,0,63544,64907,1 F,0,64907,65589,1,0
Sprite,Foreground,Centre,"sad story\title\a4.png",320,240 M,0,65248,,439,170 F,0,65248,65589,0,1 F,0,65589,67635,1 F,0,67635,68316,1,0
Sprite,Foreground,Centre,"sad story\title\a5.png",320,240 M,0,67975,,491,322 F,0,67975,68316,0,1 F,0,68316,70362,1 F,0,70362,70703,1,0
Sprite,Foreground,Centre,"sad story\title\a6.png",320,240 M,0,70873,,321,249 F,0,70873,71044,0,1 F,0,71044,71725,1,0
Sprite,Foreground,Centre,"sad story\title\b1.png",320,240 M,0,71555,,140,75 F,0,71555,71725,0,1 F,0,71725,73089,1 F,0,73089,73430,1,0
Sprite,Foreground,Centre,"sad story\title\b2.png",320,240 M,0,73600,,198,244 F,0,73600,74453,0,1 F,0,74453,75816,1 F,0,75816,76498,1,0
Sprite,Foreground,Centre,"sad story\title\b3.png",320,240 M,0,76498,,171,388 F,0,76498,77180,0,1 F,0,77180,78544,1 F,0,78544,79225,1,0
Sprite,Foreground,Centre,"sad story\title\b4.png",320,240 M,0,78885,,319,250 F,0,78885,79566,0,1 F,0,79566,81271,1 F,0,81271,81953,1,0
Sprite,Foreground,Centre,"sad story\title\b5.png",320,240 M,0,81953,,319,250 F,0,81953,82294,0,1 F,0,82294,86725,1 F,0,86725,88089,1,0
Sprite,Foreground,Centre,"sad story\title\c1.png",320,240 M,0,93373,,264,97 F,0,93373,93544,0,1 F,0,93544,97635,1 F,0,97635,97975,1,0
Sprite,Foreground,Centre,"sad story\title\c2.png",320,240 M,0,98146,,416,407 F,0,98146,98316,0,1 F,0,98316,103089,1 F,0,103089,103771,1,0
Sprite,Foreground,Centre,"sad story\title\c3.png",320,240 F,0,103771,104453,0,1 M,0,104453,,404,249 F,0,104453,108544,1 F,0,108544,109225,1,0
Sprite,Foreground,Centre,"sad story\title\c4.png",320,240 M,0,109055,,220,368 F,0,109055,109225,0,1 F,0,109225,111612,1 F,0,111612,111953,1,0
Sprite,Foreground,Centre,"sad story\title\c5.png",320,240 F,0,112294,112635,0,1 M,0,112635,,419,315 F,0,112635,113316,1 F,0,113316,113998,1,0
Sprite,Foreground,Centre,"sad story\title\d1.png",320,240 M,0,114339,,292,82 F,0,114339,114680,0,1 F,0,114680,116725,1 F,0,116725,117407,1,0
Sprite,Foreground,Centre,"sad story\title\d2.png",320,240 M,0,117748,,226,380 F,0,117748,118089,0.6279999,1 F,0,118089,119453,1 F,0,119453,120135,1,0
Sprite,Foreground,Centre,"sad story\title\d3.png",320,240 M,0,120135,,228,384 F,0,120135,120816,0,1 F,0,120816,122180,1 F,0,122180,122862,1,0
Sprite,Foreground,Centre,"sad story\title\d4.png",320,240 M,0,123373,,322,253 F,0,123373,123714,0,1 F,0,123714,126953,1 F,0,126953,127635,1,0
Sprite,Foreground,Centre,"sad story\title\e1.png",320,240 M,0,131725,,323,252 F,0,131725,132407,0,1 F,0,132407,133771,1,0
Sprite,Foreground,Centre,"sad story\title\e2.png",320,240 M,0,133771,,322,251 F,0,133771,134453,0,1 F,0,134453,135816,1 F,0,135816,136498,1,0
Sprite,Foreground,Centre,"sad story\title\e3.png",320,240 M,0,136498,,324,251 F,0,136498,137180,0,1 F,0,137180,137862,1 F,0,137862,138544,1,0
Sprite,Foreground,Centre,"sad story\title\e4.png",320,240 M,0,138714,,320,249 F,0,138714,139907,0,1 S,0,138714,141953,1,1.296 F,0,139907,141271,1 F,0,141271,141953,1,0
Sprite,Foreground,Centre,"sad story\title\e5.png",320,240 M,0,141953,,319,250 F,0,141953,142294,0,1 F,0,142294,142635,1,0
Sprite,Foreground,Centre,"sad story\title\e6.png",320,240 M,0,142635,,319,249 F,0,142635,143316,0,1 F,0,143316,143998,1 F,0,143998,144680,1,0
Sprite,Foreground,Centre,"sad story\title\e7.png",320,240 M,0,144680,,322,252 F,0,144680,145362,0,1 F,0,145362,146725,1 F,0,146725,147407,1,0
Sprite,Foreground,Centre,"sad story\title\e8.png",320,240 M,0,147407,,323,254 F,0,147407,148089,0,1 F,0,148089,149453,1 F,0,149453,150135,1,0
Sprite,Foreground,Centre,"sad story\title\f1.png",320,240 M,0,149794,,117,332 F,0,149794,150135,0,1 F,0,150135,152180,1 F,0,152180,152862,1,0
Sprite,Foreground,Centre,"sad story\title\f2.png",320,240 M,0,150475,,439,336 F,0,150475,150816,0,1 F,0,150816,152180,1 F,0,152180,152862,1,0
Sprite,Foreground,Centre,"sad story\title\f3.png",320,240 F,0,152521,153544,0,1 M,0,152521,154225,321,248,320,252 S,0,152521,154225,1,1.48 F,0,153544,154225,1,0
Sprite,Foreground,Centre,"sad story\title\v1.png",320,240 F,0,155589,155930,0,1 M,0,155589,157635,320,240 F,0,155930,157294,1 F,0,157294,157635,1,0
Sprite,Foreground,Centre,"sad story\title\v2.png",320,240 F,0,157635,157975,0,1 M,0,157635,158998,320,240 F,0,157975,158657,1 F,0,158657,158998,1,0
Sprite,Foreground,Centre,"sad story\title\v3.png",320,240 F,0,158998,159339,0,1 M,0,158998,161725,320,240 F,0,159339,161385,1 F,0,161385,161725,1,0
Sprite,Foreground,Centre,"sad story\title\v4.png",320,240 F,0,161725,162066,0,1 M,0,161725,162748,320,240 F,0,162066,162407,1 F,0,162407,162748,1,0
Sprite,Foreground,Centre,"sad story\title\v5.png",320,240 F,0,162748,163089,0,1 M,0,162748,165816,320,240 F,0,163089,164794,1 F,0,164794,165135,1,0
Sprite,Foreground,Centre,"sad story\title\v6a.png",320,240 F,0,165135,165475,0,1 M,0,165816,,320,240 F,0,166157,168203,1 F,0,168203,168544,1,0
Sprite,Foreground,Centre,"sad story\title\v6b.png",320,240 M,0,165816,,320,240 F,0,165816,166157,0,1 F,0,168203,168544,1,0
Sprite,Foreground,Centre,"sad story\title\v6c.png",320,240 M,0,165816,,320,240 F,0,166498,166839,0,1 F,0,168203,168544,1,0
Sprite,Foreground,Centre,"sad story\title\v7.png",320,240 F,0,168544,168885,0,1 M,0,168544,170589,320,240 F,0,168885,170248,1 F,0,170248,170589,1,0
Sprite,Foreground,Centre,"sad story\title\v8.png",320,240 F,0,170589,170930,0,1 M,0,170589,172635,320,240 F,0,170930,172635,1 F,0,172635,173998,1,0
Sprite,Foreground,Centre,"sad story\title\x1.png",320,240 M,0,175362,,117,151 F,0,175362,175703,0,1 F,0,175703,176725,1 F,0,176725,177407,1,0
Sprite,Foreground,Centre,"sad story\title\x2.png",320,240 M,0,177407,,516,148 F,0,177407,177748,0,1 F,0,177748,178771,1 F,0,178771,179112,1,0
Sprite,Foreground,Centre,"sad story\title\x3.png",320,240 M,0,179452,,108,356 F,0,179453,179794,0,1 F,0,179794,180816,1 F,0,180816,181157,1,0
Sprite,Foreground,Centre,"sad story\title\x4.png",320,240 M,0,181157,,533,350 F,0,181157,181498,0,1 F,0,181498,182862,1 F,0,182862,183544,1,0
Sprite,Foreground,Centre,"sad story\title\x5.png",320,240 M,0,183373,,255,324 F,0,183373,183544,0,1 F,0,183544,185248,1,0
Sprite,Foreground,Centre,"sad story\title\x6.png",320,240 M,0,185419,,241,324 F,0,185419,185589,0,1 F,0,185589,187294,1,0
Sprite,Foreground,Centre,"sad story\title\x7.png",320,240 M,0,187464,,237,321 F,0,187464,187635,0,1 F,0,187635,189680,1,0
Sprite,Foreground,Centre,"sad story\title\x8.png",320,240 M,0,191555,,332,360 F,0,191555,191725,0,1 F,0,191725,193089,1,0
Sprite,Foreground,Centre,"sad story\title\y1.png",320,240 M,0,193600,,569,225 F,0,193600,193771,0,1 F,0,193771,195135,1,0
Sprite,Foreground,Centre,"sad story\title\y2.png",320,240 M,0,195646,,280,163 F,0,195646,195816,0,1 F,0,195816,198544,1 F,0,198544,199225,1,0
Sprite,Foreground,Centre,"sad story\title\y3.png",320,240 M,0,199737,,121,104 F,0,199737,199907,0,1 F,0,199907,201271,1,0
Sprite,Foreground,Centre,"sad story\title\y4.png",320,240 M,0,201782,,554,155 F,0,201782,201953,0,1 F,0,201953,203316,1,0
Sprite,Foreground,Centre,"sad story\title\y5.png",320,240 S,0,203657,,1.368 F,0,203657,203998,0,1 M,0,203827,,178,137 F,0,203998,206044,1 F,0,206044,206725,1,0
Sprite,Foreground,Centre,"sad story\title\y6.png",320,240 F,0,207066,208260,0,1 S,0,207066,212862,1,1.288 F,0,208260,210816,1 F,0,210816,212862,1,0
Sprite,Foreground,Centre,"sad story\paper1.png",320,240 M,0,229907,,320,240 F,0,229907,230589,0,1 F,0,230589,234680,1 F,0,234680,235362,1,0
Sprite,Foreground,Centre,"sad story\title\a1.png",320,240 F,0,229907,230589,0,1 F,0,230589,234680,1 M,0,231270,,147,239 F,0,234680,235362,1,0
Sprite,Foreground,Centre,"sad story\title\a2.png",320,240 F,0,232294,232635,0,1 F,0,232635,234680,1 F,0,234680,235362,1,0
Sprite,Foreground,Centre,"sad story\title\a3.png",320,240 F,0,232975,233316,0,1 M,0,233315,,487,240 F,0,233316,234680,1 F,0,234680,235362,1,0
Sprite,Foreground,Centre,"sad story\title\z1.png",320,240 M,0,235703,,276,244 F,0,235703,236044,0,1 F,0,236044,237237,1 F,0,237237,237407,1,0
Sprite,Foreground,Centre,"sad story\title\z2.png",320,240 M,0,237748,,246,241 F,0,237748,238089,0,1 F,0,238089,239964,1 F,0,239964,240135,1,0
Sprite,Foreground,Centre,"sad story\title\z3.png",320,240 F,0,241157,241498,0,1 F,0,241498,242862,1 F,0,242862,243203,1,0
Sprite,Foreground,Centre,"sad story\title\z4.png",320,240 M,0,243203,,229,250 F,0,243203,243544,0,1 F,0,243544,245589,1 F,0,245589,245930,1,0
Sprite,Foreground,Centre,"sad story\title\z5.png",320,240 M,0,245930,,394,248 F,0,245930,246271,0,1 F,0,246271,248316,1 F,0,248316,248657,1,0
Sprite,Foreground,Centre,"sad story\title\z6.png",320,240 M,0,248657,,394,203 F,0,248657,248998,0,1 F,0,248998,251044,1 F,0,251044,251725,1,0
Sprite,Foreground,Centre,"sad story\title\z7.png",320,240 F,0,251725,252066,0,1 F,0,252066,255135,1 F,0,255135,256498,1,0
Sprite,Foreground,Centre,"sad story\title\ty.png",320,240 M,0,257862,,320,240 F,0,257862,258544,0,1 F,0,258544,261953,1 F,0,261953,265362,1,0
//Storyboard Sound Samples
//Background Colour Transformations
3,100,163,162,255

[TimingPoints]
816.818181818182,681.818181818182,4,2,1,50,1,0
11725,-100,4,1,0,50,0,0
22635,-100,4,2,1,50,0,0
22805,-100,4,2,1,70,0,0
24169,-100,4,2,1,40,0,0
24510,-100,4,2,1,70,0,0
25191,-100,4,2,1,50,0,0
25532,-100,4,2,1,70,0,0
26896,-100,4,2,1,50,0,0
27237,-100,4,2,1,70,0,0
27919,-100,4,2,1,50,0,0
28260,-100,4,2,1,70,0,0
29623,-100,4,2,1,50,0,0
29964,-100,4,2,1,70,0,0
30646,-100,4,2,1,50,0,0
30987,-100,4,2,1,70,0,0
32350,-100,4,2,1,50,0,0
32691,-100,4,2,1,70,0,0
33373,-100,4,2,1,50,0,0
33714,-100,4,2,1,70,0,0
35078,-100,4,2,1,50,0,0
35419,-100,4,2,1,70,0,0
36100,-100,4,2,1,50,0,0
36441,-100,4,2,1,70,0,0
37805,-100,4,2,1,50,0,0
38146,-100,4,2,1,70,0,0
38828,-100,4,2,1,50,0,0
39169,-100,4,2,1,70,0,0
40532,-100,4,2,1,50,0,0
40873,-100,4,2,1,70,0,0
41555,-100,4,2,1,50,0,0
41896,-100,4,2,1,70,0,0
43260,-100,4,2,1,50,0,0
43600,-100,4,2,1,70,0,0
44282,-100,4,2,1,50,0,0
44623,-100,4,2,1,70,0,0
45987,-100,4,2,1,50,0,0
46328,-100,4,2,1,70,0,0
47010,-100,4,2,1,50,0,0
47691,-100,4,2,1,70,0,0
48714,-100,4,2,1,50,0,0
49055,-100,4,2,1,70,0,0
49737,-100,4,2,1,50,0,0
50078,-100,4,2,1,70,0,0
51441,-100,4,2,1,50,0,0
51782,-100,4,2,1,70,0,0
52464,-100,4,2,1,50,0,0
52805,-100,4,2,1,70,0,0
54169,-100,4,2,1,60,0,0
60816,-100,4,2,1,50,0,1
60987,-100,4,2,1,70,0,1
62350,-100,4,2,1,50,0,1
62691,-100,4,2,1,70,0,1
63373,-100,4,2,1,50,0,1
64055,-100,4,2,1,70,0,1
65078,-100,4,2,1,50,0,1
65419,-100,4,2,1,70,0,1
66100,-100,4,2,1,50,0,1
66782,-100,4,2,1,70,0,1
67805,-100,4,2,1,50,0,1
68146,-100,4,2,1,70,0,1
68828,-100,4,2,1,50,0,1
69169,-100,4,2,1,70,0,1
70532,-100,4,2,1,50,0,1
70873,-100,4,2,1,70,0,1
71555,-100,4,2,1,50,0,1
71896,-100,4,2,1,70,0,1
73260,-100,4,2,1,50,0,1
73600,-100,4,2,1,70,0,1
74282,-100,4,2,1,50,0,1
74623,-100,4,2,1,70,0,1
75987,-100,4,2,1,50,0,1
76328,-100,4,2,1,70,0,1
77010,-100,4,2,1,50,0,1
77691,-100,4,2,1,70,0,1
78714,-100,4,2,1,50,0,1
79055,-100,4,2,1,70,0,1
79737,-100,4,2,1,50,0,1
80078,-100,4,2,1,70,0,1
81100,-100,4,2,1,50,0,1
81441,-100,4,2,1,70,0,1
82464,-100,4,1,0,50,0,1
85362,-100,4,1,0,50,0,0
93373,-100,4,2,1,70,0,0
98828,-100,4,2,1,50,0,0
99169,-100,4,2,1,70,0,0
104282,-100,4,2,1,50,0,0
104623,-100,4,2,1,100,0,0
104964,-100,4,2,1,50,0,0
105305,-100,4,2,1,100,0,0
105646,-100,4,2,1,50,0,0
106669,-100,4,2,1,100,0,0
107010,-100,4,2,1,50,0,0
107350,-100,4,2,1,100,0,0
107691,-100,4,2,1,50,0,0
108714,-100,4,2,1,100,0,0
109055,-100,4,2,1,50,0,0
110078,-100,4,2,1,100,0,0
110419,-100,4,2,1,70,0,0
110760,-100,4,2,1,100,0,0
111100,-100,4,2,1,50,0,0
111441,-100,4,2,1,100,0,0
111782,-100,4,2,1,70,0,0
112805,-100,4,2,1,100,0,0
113487,-100,4,2,1,70,0,0
113828,-100,4,2,1,100,0,0
114510,-100,4,2,1,70,0,0
115191,-100,4,2,1,50,0,0
115532,-100,4,2,1,70,0,0
116896,-100,4,2,1,50,0,0
117237,-100,4,2,1,70,0,0
117919,-100,4,2,1,50,0,0
118260,-100,4,2,1,70,0,0
119623,-100,4,2,1,50,0,0
119964,-100,4,2,1,70,0,0
120646,-100,4,2,1,50,0,0
121328,-100,4,2,1,70,0,0
122350,-100,4,2,1,50,0,0
122691,-100,4,2,1,70,0,0
123373,-100,4,2,1,50,0,0
123714,-100,4,2,1,70,0,0
125078,-100,4,2,1,50,0,0
125419,-100,4,2,1,70,0,0
127464,-100,4,2,1,30,0,0
127805,-100,4,2,1,70,0,0
128146,-100,4,2,1,50,0,0
128487,-100,4,2,1,70,0,0
131725,-100,4,2,1,60,0,1
131896,-100,4,2,1,80,0,1
133260,-100,4,2,1,60,0,1
133600,-100,4,2,1,80,0,1
134282,-100,4,2,1,60,0,1
134623,-100,4,2,1,80,0,1
135987,-100,4,2,1,60,0,1
136328,-100,4,2,1,80,0,1
137010,-100,4,2,1,60,0,1
137350,-100,4,2,1,80,0,1
138714,-100,4,2,1,60,0,1
139055,-100,4,2,1,80,0,1
139737,-100,4,2,1,60,0,1
140078,-100,4,2,1,80,0,1
141441,-100,4,2,1,60,0,1
141782,-100,4,2,1,80,0,1
142464,-100,4,2,1,60,0,1
142805,-100,4,2,1,80,0,1
144169,-100,4,2,1,60,0,1
144510,-100,4,2,1,80,0,1
145191,-100,4,2,1,60,0,1
145532,-100,4,2,1,80,0,1
146896,-100,4,2,1,60,0,1
147237,-100,4,2,1,80,0,1
147919,-100,4,2,1,60,0,1
148260,-100,4,2,1,80,0,1
149623,-100,4,2,1,60,0,1
149964,-100,4,2,1,80,0,1
150646,-100,4,2,1,70,0,1
151328,-100,4,2,1,60,0,1
152010,-100,4,2,1,50,0,1
153544,-100,4,1,0,60,0,0
175362,681.818181818182,3,2,1,70,1,0
180987,-100,3,2,1,40,0,0
181327,-100,3,2,1,70,0,0
183373,-100,3,2,1,30,0,0
185418,-100,3,2,1,40,0,0
187464,-100,3,2,1,50,0,0
189509,-100,3,2,1,60,0,0
191725,-100,3,2,1,50,0,0
195987,-100,3,2,1,100,0,0
196328,-100,3,2,1,50,0,0
196669,-100,3,2,1,100,0,0
197010,-100,3,2,1,50,0,0
198032,-100,3,2,1,100,0,0
198373,-100,3,2,1,50,0,0
198714,-100,3,2,1,100,0,0
199055,-100,3,2,1,50,0,0
200078,-100,3,2,1,100,0,0
200419,-100,3,2,1,50,0,0
200760,-100,3,2,1,100,0,0
201100,-100,3,2,1,50,0,0
202123,-100,3,2,1,100,0,0
202464,-100,3,2,1,50,0,0
202805,-100,3,2,1,100,0,0
203146,-100,3,2,1,50,0,0
203828,-100,3,2,1,65,0,0
204510,-100,3,2,1,55,0,0
205191,-100,3,2,1,45,0,0
206043,681.818181818182,4,2,1,35,1,0
206555,-100,4,2,1,25,0,0
219510,-100,4,2,1,50,0,0
219849,-100,4,2,1,70,0,0
221213,-100,4,2,1,50,0,0
221554,-100,4,2,1,70,0,0
222236,-100,4,2,1,50,0,0
222577,-100,4,2,1,70,0,0
223940,-100,4,2,1,50,0,0
224281,-100,4,2,1,70,0,0
224963,-100,4,2,1,50,0,0
225304,-100,4,2,1,70,0,0
226668,-100,4,2,1,50,0,0
227008,-100,4,2,1,70,0,0
229736,-100,4,2,1,50,0,0
235190,-100,4,2,1,70,0,0
236044,-100,4,2,1,50,0,1
236213,-100,4,2,1,70,0,1
237577,-100,4,2,1,50,0,1
237918,-100,4,2,1,70,0,1
238599,-100,4,2,1,50,0,1
238940,-100,4,2,1,70,0,1
240304,-100,4,2,1,50,0,1
240645,-100,4,2,1,70,0,1
241327,-100,4,2,1,50,0,1
241668,-100,4,2,1,70,0,1
243031,-100,4,2,1,50,0,1
243372,-100,4,2,1,70,0,1
244054,-100,4,2,1,50,0,1
244395,-100,4,2,1,70,0,1
245758,-100,4,2,1,50,0,1
246099,-100,4,2,1,70,0,1
246781,-100,4,2,1,50,0,1
247122,-100,4,2,1,70,0,1
248486,-100,4,2,1,50,0,1
248827,-100,4,2,1,70,0,1
249508,-100,4,2,1,40,0,1
250190,-100,4,2,1,50,0,1
250872,-100,4,2,1,60,0,1
252236,-100,4,1,0,60,0,1
252918,-100,4,2,1,70,0,1
253940,-100,4,2,1,50,0,1
254281,-100,4,2,1,70,0,1
254963,-100,4,2,1,50,0,1
255304,-100,4,2,1,70,0,1
256327,-100,4,2,1,60,0,1
257008,-100,4,2,1,50,0,1
257690,-100,4,2,1,40,0,1
257861,-100,4,2,1,40,0,0

[Colours]
Combo1 : 169,209,167
Combo2 : 126,63,63
Combo3 : 163,201,209
Combo4 : 180,105,105

[HitObjects]
256,192,816,53,2
144,96,1498,1,0
144,240,2180,2,0,B|160:304|256:384|352:304|368:240,1,300,2|2
64,192,4907,5,2
192,112,5589,2,0,B|272:96|352:112,1,150,0|2
464,208,6953,2,0,B|416:272|320:272,2,150,0|2|0
416,352,8998,21,2
240,112,10362,1,2
144,224,11044,2,0,B|80:272|0:240,1,150,0|4
160,128,22634,22,0,B|240:112|304:176,1,150,4|8
336,320,23998,1,0
256,320,24339,1,4
208,256,24680,1,8
208,256,25362,22,0,B|128:272|64:224,1,150,4|8
160,112,26725,2,0,B|192:80|176:32,2,75,0|4|8
288,176,28089,22,0,B|368:160|432:208,1,150,4|8
320,320,29453,1,0
240,336,29794,1,4
176,288,30134,1,8
64,192,30816,21,4
208,144,31498,1,8
176,288,32180,2,0,B|144:256|160:208,2,75,0|4|8
304,208,33544,22,0,B|320:176|368:160|368:160|320:144|304:112,1,150,4|8
448,192,34907,2,0,B|432:240|368:240,2,75,0|4|8
304,208,36271,2,0,B|224:240|224:336,1,150,4|8
128,208,37634,1,0
192,176,37975,1,4
224,112,38316,1,8
376,96,38998,22,0,B|344:176|424:224,1,150,4|8
280,176,40362,2,0,B|280:224|328:256,2,75,0|4|8
408,256,41725,22,0,B|392:336|296:344,1,150,4|8
216,208,43089,2,0,B|216:160|264:144,2,75,0|4|8
352,208,44453,22,0,B|432:160|416:64,2,150,4|8|0
272,224,46157,1,4
192,208,46498,2,0,B|112:160|128:64,1,150,8|4
272,80,47862,1,8
400,160,48544,2,0,B|432:192|432:240,1,75,0|4
416,304,49225,2,0,B|336:288|320:192,1,150,8|4
240,64,50589,22,0,B|160:112|176:208,1,150,8|0
240,240,51612,2,0,B|272:192|256:160,1,75,4|8
112,112,52634,22,0,B|80:192|128:272,1,150,4|8
192,288,53657,2,0,B|208:224|160:192,2,75,0|0|4
128,336,54680,1,8
48,320,55021,22,0,B|0:256|16:144|96:112,1,225,0|2
176,240,56725,2,0,B|240:288|320:272|320:272|240:288|208:384,1,300,0|2
384,112,60816,22,0,B|336:96|288:128,1,75,4|0
240,128,61498,2,0,B|160:160|96:96,1,150,8|0
48,48,62521,1,4
48,48,62862,22,0,B|112:112|48:208,1,150,8|4
0,320,64225,1,8
144,272,64907,2,0,B|176:240|240:264,1,75,0|4
192,336,65589,22,0,B|248:352|304:304|296:240,1,150,8|4
192,152,66953,1,8
48,184,67634,2,0,B|48:240|88:264,1,75,0|4
136,192,68316,22,0,B|136:96|16:88,2,150,8|4|8
248,88,70362,2,0,B|272:48|344:64,2,75,0|4|8
384,144,71725,22,0,B|288:160|288:272,2,150,4|8|0
440,88,73430,1,4
368,64,73771,2,0,B|280:32,1,75,8|0
224,24,74453,22,0,B|208:72|256:104|256:104|232:160,1,150,4|8
200,224,75475,1,0
168,296,75816,2,0,B|128:376,1,75,0|4
168,296,76498,22,0,B|120:280|96:216|144:160,1,150,8|4
272,224,77862,2,0,B|320:208|344:144|296:88,1,150,8|0
240,152,78884,21,4
272,224,79225,2,0,B|240:304|200:248|160:344,2,150,8|4|8
128,192,81271,1,4
256,112,81953,1,8
384,192,82634,21,4
96,144,93544,5,0
248,160,94225,2,0,B|328:168|352:264,1,150,8|0
208,304,95589,1,8
152,168,96271,22,0,B|152:80|256:56,2,150,0|8|0
208,304,98316,1,8
352,336,98998,22,0,B|432:360|496:304,2,150,4|8|0
392,192,101044,1,8
328,56,101725,22,0,B|248:72|232:184,1,150,0|8
88,144,103089,2,0,B|72:232|152:280,1,150,0|8
288,296,104453,22,0,B|360:256|440:304,2,150,4|4|4
256,224,106157,1,2
224,296,106498,2,0,B|152:256|72:304,2,150,4|4|4
256,368,108203,1,2
288,296,108544,22,0,B|336:208|280:136,1,150,4|4
256,88,109566,1,2
216,152,109907,22,0,B|176:208|216:296,3,150,4|8|4|8
320,192,112634,22,0,B|360:72|496:64,2,225,4|4|8
328,344,115362,6,0,B|296:256|200:256,1,150,4|8
72,280,116725,2,0,B|32:296|32:352,2,75,0|4|8
192,192,118089,22,0,B|280:144|256:40,1,150,4|8
120,128,119453,2,0,B|80:168|96:224,1,75,0|4
112,264,120134,2,0,B|184:328|272:264,1,150,8|4
384,352,121498,22,0,B|314:308|330:220,1,150,8|0
272,168,122521,2,0,B|312:144|304:88,2,75,4|8|0
232,104,123544,22,0,B|160:64|72:112,1,150,4|8
40,248,124907,1,0
104,288,125248,1,4
176,280,125589,22,0,B|256:248|328:312,5,150,8|0|0|2|2|2
32,88,131725,22,0,B|104:48|200:104,1,150,4|8
320,136,133089,2,0,B|360:160|424:144,1,75,0|4
464,128,133771,22,0,B|424:208|472:296,2,150,8|4|8
344,40,135816,1,0
280,80,136157,2,0,B|216:120,1,75,4|8
80,176,137180,22,0,B|192:296,1,150,4|8
328,248,138544,2,0,B|392:312,2,75,0|4|8
232,136,139907,22,0,B|192:64|104:64,1,150,4|8
168,200,141271,2,0,B|200:240|264:224,1,75,0|4
304,192,141953,22,0,B|328:240|296:304|240:304,1,150,8|4
104,256,143316,1,8
136,112,143998,2,0,B|168:72|232:96,1,75,0|4
280,88,144680,22,0,B|360:104|416:40,2,150,8|4|8
136,56,146725,1,0
72,96,147066,1,4
48,168,147407,22,0,B|128:184|144:288,1,150,8|4
272,352,148771,2,0,B|296:272|256:200,1,150,8|0
192,168,149794,2,0,B|168:200|192:256,1,75,4|8
328,184,150816,22,0,B|336:96|256:48,1,150,4|4
136,128,152180,1,4
208,256,152862,1,4
136,128,153544,21,4
352,200,175362,54,0,B|264:208|232:304,2,150
248,96,177407,2,0,B|176:120|136:192,2,150
216,240,179452,22,0,B|296:256|320:360,2,150
144,232,181157,1,2
72,208,181498,2,0,B|0:152|24:64,2,150
216,264,183543,21,2
296,264,185589,1,2
376,264,187634,1,2
456,264,189680,1,2
256,184,191725,22,0,B|320:128,4,75,4|0|4|0|4
120,120,193771,2,0,B|144:40,4,75,4|0|4|0|4
80,264,195816,22,0,B|160:232|232:264,2,150,4|4|4
24,208,197521,1,2
80,152,197862,2,0,B|152:192|248:144,2,150,4|4|4
208,72,199907,22,0,B|248:48|280:48|280:48|304:80|296:144,2,150,4|4|4
224,144,201612,1,2
248,216,201952,2,0,B|208:240|176:240|176:240|152:208|160:144,2,150,4|4|4
392,192,203998,5,4
328,328,204680,5,4
192,272,205362,5,4
256,136,206043,5,4
392,192,206724,5,4
336,336,207406,6,0,B|328:288|280:272,1,75
144,240,208429,5,2
112,152,219679,5,4
224,256,220361,1,8
376,248,221043,2,0,B|416:248|464:224,2,75,0|4|8
384,96,222406,21,4
280,200,223088,1,8
128,192,223770,2,0,B|80:192|48:144,2,75,0|4|8
256,112,225133,21,4
384,192,225815,1,8
256,272,226497,2,0,B|224:304|176:304,2,75,0|4|8
256,192,227861,12,4,229906
424,224,235361,22,0,B|400:304|296:304,1,150,0|4
256,160,236724,2,0,B|165:159|141:239,1,150,8|0
216,256,237747,2,0,B|200:304|152:312,1,75,4|8
64,200,238770,22,0,B|56:120|136:80,1,150,4|8
288,64,240133,2,0,B|336:64|360:104,2,75,0|4|8
144,112,241497,22,0,B|208:152|312:144,1,150,4|8
408,232,242861,2,0,B|376:264|328:256,1,75,0|4
264,256,243543,22,0,B|192:232|104:256,2,150,8|4|8
408,296,245588,1,0
448,232,245929,1,4
424,160,246270,1,8
312,64,246952,21,4
184,136,247633,2,0,B|96:144|40:80,1,150,8|0
104,40,248656,2,0,B|152:32|184:72,1,75,4|8
240,192,249679,21,4
360,280,250361,1,4
480,192,251043,1,4
360,96,251724,1,4
240,192,252406,21,4
168,320,253088,2,0,B|240:352|328:320,1,150,8|0
384,288,254111,1,4
424,224,254452,2,0,B|464:192|440:144,1,75,8|0
416,88,255133,22,0,B|376:104|368:152,2,75,4|0|8
344,216,256497,1,2
200,248,257179,1,2
248,104,257861,21,2
