osu file format v9

[General]
AudioFilename: One-way street.mp3
AudioLeadIn: 1000
PreviewTime: 66581
Countdown: 0
SampleSet: Normal
StackLeniency: 0.7
Mode: 0
LetterboxInBreaks: 1

[Editor]
DistanceSpacing: 0.8
BeatDivisor: 4
GridSize: 8

[Metadata]
Title:One-way Route
Artist:Hatsune Miku
Creator:tutuhaha
Version:One-way Route
Source:Yucha-P
Tags:yucha Vocaloid vocaloid2

[Difficulty]
HPDrainRate:6
CircleSize:4
OverallDifficulty:7
ApproachRate:8
SliderMultiplier:1.9
SliderTickRate:1

[Events]
//Background and Video events
Video,0,"sm14301091.avi"
0,0,"BG1.jpg"
//Break Periods
2,12006,21491
2,43311,52795
2,87658,97143
//Storyboard Layer 0 (Background)
//Storyboard Layer 1 (Fail)
//Storyboard Layer 2 (Pass)
//Storyboard Layer 3 (Foreground)
//Storyboard Sound Samples
//Background Colour Transformations
3,100,163,162,255

[TimingPoints]
1372,326.086956521739,4,1,1,30,1,0
1527,-100,4,2,1,30,0,0
1687,-100,4,1,1,30,0,0
1850,-100,4,2,1,30,0,0
2014,-100,4,1,1,30,0,0
2177,-100,4,2,1,30,0,0
2340,-100,4,1,1,30,0,0
2503,-100,4,2,1,30,0,0
2666,-100,4,1,1,30,0,0
4133,-100,4,2,1,30,0,0
4296,-100,4,1,1,30,0,0
4459,-100,4,2,1,30,0,0
4622,-100,4,1,1,30,0,0
4785,-100,4,2,1,30,0,0
4948,-100,4,1,1,30,0,0
5111,-100,4,2,1,30,0,0
5275,-100,4,1,1,30,0,0
6589,-100,4,1,1,30,0,0
6742,-100,4,2,1,30,0,0
6905,-100,4,1,1,30,0,0
7068,-100,4,2,1,30,0,0
7231,-100,4,1,1,30,0,0
7394,-100,4,2,1,30,0,0
7557,-100,4,1,1,30,0,0
7720,-100,4,2,1,30,0,0
7883,-100,4,1,1,30,0,0
9188,-100,4,1,1,30,0,0
9351,-100,4,2,1,30,0,0
9514,-100,4,1,1,30,0,0
9677,-100,4,2,1,30,0,0
9840,-100,4,1,1,30,0,0
10003,-100,4,2,1,30,0,0
10166,-100,4,1,1,30,0,0
10329,-100,4,2,1,30,0,0
10655,-100,4,1,2,60,0,0
11806,-100,4,2,1,80,0,0
22233,-100,4,1,2,50,0,0
22722,-100,4,1,2,30,0,0
22885,-100,4,1,2,50,0,0
32667,-100,4,2,1,70,0,0
34958,-100,4,2,1,40,0,0
35040,-100,4,2,1,70,0,0
37567,-100,4,2,1,40,0,0
37649,-100,4,2,1,70,0,0
40176,-100,4,2,1,40,0,0
40257,-100,4,2,1,70,0,0
42458,-100,4,2,1,50,0,0
42776,-100,4,2,1,80,0,0
53537,-100,4,2,1,70,0,0
55828,-100,4,2,1,40,0,0
55910,-100,4,2,1,70,0,0
58437,-100,4,2,1,40,0,0
58518,-100,4,2,1,70,0,0
61045,-100,4,2,1,40,0,0
61127,-100,4,2,1,70,0,0
63328,-100,4,2,1,50,0,0
63972,-100,4,1,1,30,0,0
65603,-100,4,1,1,40,0,0
65766,-100,4,1,1,50,0,0
66092,-100,4,1,1,60,0,0
66255,-100,4,1,1,70,0,0
66581,-100,4,1,2,60,0,1
74407,-100,4,2,1,70,0,1
74741,-100,4,1,2,50,0,1
74823,-100,4,2,1,70,0,1
75230,-100,4,1,2,60,0,1
87451,-100,4,2,1,70,0,0
97887,-100,4,2,1,70,0,0
100176,-100,4,2,1,40,0,0
100257,-100,4,2,1,70,0,0
102785,-100,4,2,1,40,0,0
102866,-100,4,2,1,70,0,0
105393,-100,4,2,1,40,0,0
105475,-100,4,2,1,70,0,0
106854,-100,4,2,1,30,0,0
108320,-100,4,1,1,30,0,0
117452,-100,4,2,1,70,0,0
120224,-100,4,1,1,30,0,0
120387,-100,4,1,1,40,0,0
120550,-100,4,1,1,40,0,0
120876,-100,4,1,1,50,0,0
121040,-100,4,1,1,60,0,0
121203,-100,4,1,1,70,0,0
121363,-100,4,1,2,60,0,1
129198,-100,4,2,1,70,0,1
129524,-100,4,1,2,50,0,1
129605,-100,4,2,1,70,0,1
130013,-100,4,1,2,60,0,1
142233,-100,4,2,1,60,0,0
151856,-100,4,2,1,30,0,0
152016,-100,4,2,1,75,0,0
152345,-100,4,1,1,5,0,0
152668,-100,4,1,2,60,0,0
160502,-100,4,2,1,60,0,0
160583,-100,4,1,2,50,0,0
160983,-100,4,2,1,60,0,0
161065,-100,4,1,2,50,0,0
161635,-100,4,2,1,60,0,0
161717,-100,4,1,2,50,0,0
162287,-100,4,2,1,60,0,0
162369,-100,4,1,2,50,0,0
163103,-100,4,2,1,60,0,0
163184,-100,4,1,2,50,0,0
173211,-100,4,2,1,30,0,0
173541,-100,4,1,1,30,0,0
181042,-100,4,1,2,70,0,0
183646,-100,4,1,1,70,0,0
183977,-100,4,1,2,60,0,1
184143,-100,4,1,1,60,0,1
184225,-100,4,1,2,60,0,1
194412,-100,4,2,1,80,0,0

[Colours]
Combo1 : 36,73,100
Combo2 : 134,120,111
Combo3 : 197,197,197
Combo4 : 236,183,207

[HitObjects]
136,48,1372,2,0,B|79:41|57:93,1,95,0|0
120,192,1698,2,0,B|176:198|198:146,1,95,0|0
123,59,2024,2,0,B|67:57|49:110,1,95,0|0
120,203,2350,2,0,B|177:205|194:151,1,95,0|0
256,256,2676,5,0
256,256,3002,1,0
392,112,3328,1,0
304,192,3491,1,0
416,232,3654,1,0
376,336,3980,22,0,B|432:342|454:290,1,95
392,192,4306,2,0,B|335:185|313:237,1,95,0|0
388,324,4632,2,0,B|444:326|462:273,1,95,0|0
391,180,4958,2,0,B|334:178|317:232,1,95,0|0
256,128,5285,5,0
256,128,5611,1,0
120,272,5937,1,0
208,192,6100,1,0
96,152,6263,1,0
455,177,6589,5,0
428,86,6752,1,0
398,175,6915,1,0
415,81,7078,1,0
347,147,7241,1,0
408,73,7404,1,0
317,98,7567,1,0
407,65,7730,1,0
256,48,7893,21,0
256,48,8219,1,0
208,192,8545,1,0
256,256,8708,1,0
304,192,8872,1,0
57,207,9198,5,0
84,298,9361,1,0
114,209,9524,1,0
97,303,9687,1,0
165,237,9850,1,0
104,311,10013,1,0
195,286,10176,1,0
105,319,10339,1,0
256,80,10665,21,12
368,256,10991,2,0,B|376:304|432:336,1,95,0|8
256,192,11480,1,8
256,192,11806,1,4
256,56,22241,5,0
96,48,22567,2,0,B|80:104|128:144,1,95,8|0
48,234,22893,2,0,B|96:240|136:208,1,95,0|0
216,208,23219,1,8
264,272,23382,1,8
320,120,23708,2,0,B|384:120|392:184|392:184|488:184,1,190,0|8
464,112,24198,2,0,B|456:56|384:48,1,95
328,48,24524,1,8
256,48,24687,1,0
216,48,24768,1,0
176,48,24850,5,0
80,168,25176,2,0,B|48:272,1,95,8|0
198,259,25502,2,0,B|101:309,1,95
113,302,25828,1,8
168,352,25991,2,0,B|216:352|256:280|304:352|360:352,2,190,8|0|8
256,352,26806,5,0
256,280,26969,1,0
256,208,27132,1,8
256,128,27295,1,0
256,88,27377,1,0
256,48,27458,21,0
104,72,27785,2,0,B|176:136,1,95,8|0
224,192,28111,1,0
176,248,28274,2,0,B|104:312,1,95,0|8
32,280,28600,21,8
32,280,28926,2,0,B|-32:176|72:96,2,190,0|8|0
104,312,29741,2,0,B|168:320|176:256,1,95,8|0
256,240,30067,37,8
256,200,30149,1,0
256,160,30230,1,0
376,136,30393,37,8
376,176,30475,1,0
376,216,30556,1,0
136,136,30719,21,0
192,88,30882,1,0
248,40,31045,1,8
192,88,31208,2,0,B|400:88,2,190,0|8|0
192,168,32024,2,0,B|96:168,1,95
120,256,32350,37,8
160,256,32431,1,0
200,256,32513,1,0
264,296,32676,37,2
336,328,32839,1,0
384,272,33002,2,0,B|384:224|432:192,1,95,2|0
424,120,33328,2,0,B|377:110|358:58,2,95
360,168,33817,1,2
80,233,34143,6,0,B|88:288|152:336|232:312,1,190,0|2
224,240,34632,1,2
136,192,34795,1,2
224,144,34958,1,6
135,96,35122,1,2
224,48,35285,5,2
256,336,35611,1,2
256,240,35774,1,2
256,144,35937,2,0,B|256:16,2,95,2|0|2
325,177,36426,22,0,B|308:123|262:104|197:115|184:186,2,190,2|2|2
424,112,37241,2,0,B|424:207,1,95,2|2
424,304,37567,1,4
328,304,37730,1,2
288,304,37812,1,2
248,304,37893,1,0
256,48,38219,5,2
176,120,38382,1,2
96,192,38545,1,2
256,48,38871,5,2
256,48,39035,2,0,B|320:48|320:48|312:96|360:128|408:80,2,190,2|0|2
256,160,39850,2,0,B|168:240,1,95,2|0
248,264,40176,2,0,B|160:344,1,95,4|0
104,328,40502,1,2
360,328,40828,1,2
464,280,40991,1,2
376,208,41154,1,2
96,192,41480,37,2
168,160,41643,2,0,B|151:105|104:86|40:97|27:169,1,190,2|0
32,232,42132,2,2,B|48:288|104:280|136:264,1,95
184,272,42458,1,6
320,96,42785,1,2
192,96,42948,1,2
256,192,43111,1,4
104,320,53545,38,0,B|80:272|112:232,1,95,2|2
72,168,53871,1,2
256,40,54198,1,2
256,40,54524,5,2
256,40,54687,1,2
176,40,54850,2,0,B|168:104|248:128|256:128,1,95,2|0
296,112,55176,2,0,B|408:112,1,95,2|0
487,184,55502,2,0,B|392:184,1,95,2|0
320,184,55828,1,4
320,264,55991,1,0
320,304,56073,1,0
320,344,56154,5,2
88,296,56480,1,2
256,80,56806,1,2
256,256,57132,1,2
256,184,57295,2,0,B|176:192|128:136|144:40,1,190,2|2
64,64,57785,2,0,B|64:128|16:160,1,95
96,192,58111,1,2
416,192,58437,1,4
416,192,58600,1,2
416,120,58763,22,0,B|416:72|352:72|352:72|352:16|280:16,1,190,2|0
256,88,59252,1,2
256,160,59415,2,0,B|344:248,1,95,2|0
256,264,59741,1,2
184,264,59904,1,2
176,192,60067,6,0,B|64:192,1,95,2|0
80,120,60393,2,0,B|80:0,2,95,2|0|2
144,160,60882,2,0,B|256:112,1,95,2|4
143,229,61208,2,0,B|240:301,1,95,2|2
368,320,61698,5,2
472,256,61861,1,2
360,192,62024,1,2
360,192,62350,1,2
360,192,62513,1,2
352,120,62676,2,0,B|296:128|288:184,1,95,2|0
216,168,63002,2,0,B|208:220|152:228,1,95,2|0
144,152,63328,2,0,B|152:96|224:96,1,95,4|2
248,32,63654,1,6
248,32,63817,1,6
320,32,63980,21,0
480,192,64469,1,4
480,192,64632,1,0
368,296,64958,2,0,B|264:296,1,95
120,264,65448,5,0
34,170,65611,1,0
156,142,65774,1,0
49,239,65937,1,0
88,122,66100,1,0
172,212,66263,1,0
256,120,66426,1,0
256,80,66507,1,0
256,40,66589,21,0
352,192,66915,1,8
352,192,67078,1,0
352,264,67241,2,0,B|352:368,2,95,0|0|8
288,232,67730,2,0,B|272:296|200:328|136:320,1,190
160,248,68219,2,0,B|176:192|128:160,1,95,8|0
191,96,68545,2,0,B|96:96,1,95
303,24,68871,2,0,B|208:24,1,95,8|0
321,96,69198,38,0,B|416:96,2,95,0|0|8
256,136,69687,2,0,B|256:344,1,190
328,296,70176,1,8
184,296,70339,1,0
72,192,70665,2,0,B|72:80,1,95,0|8
239,64,70991,2,0,B|144:64,1,95,0|0
208,136,71317,2,0,B|303:136,1,95,0|8
272,208,71643,2,0,B|392:208,1,95,0|0
368,136,71969,5,0
368,56,72132,1,8
432,96,72295,2,0,B|472:144|472:240|432:288,1,190
376,320,72785,1,8
296,304,72948,2,0,B|250:261|154:256|104:293,1,190
48,256,73437,1,8
48,256,73600,1,0
88,192,73763,2,0,B|88:80,1,95
175,58,74089,2,0,B|88:97,1,95,8|0
88,97,74333,1,0
88,97,74415,1,4
200,192,74741,37,8
200,192,74904,1,4
336,104,75230,2,0,B|424:40,1,95,0|8
368,192,75556,2,0,B|472:192,1,95
336,280,75882,2,0,B|424:344,2,95,0|8|0
296,192,76371,2,0,B|232:192,2,47.5
216,192,76698,1,8
216,192,76861,6,0,B|104:192,1,95
120,120,77187,2,0,B|200:40,1,95,0|8
256,88,77513,1,0
392,120,77676,2,0,B|312:40,2,95,0|0|8
328,168,78165,2,0,B|307:227|342:316|396:347,1,190
256,240,78654,1,8
256,240,78817,1,0
184,168,78980,2,0,B|204:227|169:316|115:347,1,190,0|8
80,280,79469,38,0,B|80:168,1,95
40,120,79795,1,0
40,120,79958,1,8
104,72,80121,2,0,B|320:72,1,190
288,152,80611,1,8
360,120,80774,2,0,B|360:320,2,190,0|8|0
288,152,81589,2,0,B|288:40,1,95,0|0
224,232,81915,2,0,B|224:344,1,95,8|0
80,192,82241,6,0,B|184:192,1,95
432,192,82567,2,0,B|328:192,1,95,8|0
256,192,82893,1,0
256,192,83056,1,0
256,192,83219,1,8
256,192,83382,1,0
368,256,83545,38,0,B|359:316|280:324,1,95
144,128,83871,2,0,B|153:68|232:60,1,95,8|0
256,192,84198,1,0
256,192,84361,1,0
256,192,84524,1,8
256,192,84687,1,0
376,96,84850,5,0
376,96,85013,1,0
376,96,85176,2,0,B|296:160,1,95,8|0
136,288,85502,1,0
136,288,85665,1,0
136,288,85828,2,0,B|216:224,1,95,8|0
136,96,86154,37,0
136,96,86317,1,0
136,96,86480,2,0,B|216:160,1,95,8|0
376,288,86806,1,0
366,281,86888,1,0
358,273,86969,1,0
348,267,87051,1,0
339,260,87132,1,0
331,254,87214,1,0
321,246,87295,1,0
312,240,87377,1,0
303,233,87458,1,0
256,48,97893,21,2
120,256,98219,1,2
256,256,98382,1,2
392,256,98545,1,2
256,128,98871,21,2
200,216,99035,1,2
312,216,99198,1,2
392,184,99361,2,0,B|456:184|464:256,1,95,2|0
448,312,99687,1,2
448,312,99850,2,0,B|432:360|352:376|352:376|352:288,1,190,2|4
392,128,100502,21,2
256,336,100828,1,2
184,232,100991,1,2
120,128,101154,1,2
120,128,101480,5,2
128,56,101643,2,0,B|32:56|32:56|0:104|48:160,1,190,2|2
80,200,102132,1,2
24,248,102295,1,2
64,312,102458,2,0,B|80:360|160:376|160:376|160:288,1,190,2|4
232,304,102948,5,2
232,304,103111,1,2
264,192,103437,2,0,B|272:160|256:112|208:104,1,95,2|2
152,112,103763,1,2
128,248,104089,21,2
112,176,104252,2,0,B|40:200|40:288|40:288|80:320,1,190,2|2
152,328,104741,2,0,B|200:320|208:248,1,95,2|0
256,192,105067,1,2
160,104,105230,1,2
256,32,105393,1,4
352,104,105556,1,2
352,104,105719,6,0,B|440:48,1,95,2|2
384,192,106045,2,0,B|504:192,1,95
352,280,106371,2,0,B|440:336,1,95,2|2
296,344,106698,1,2
256,280,106861,22,0,B|256:192|184:152|104:152,1,190,2|0
144,80,107350,2,0,B|216:88|240:32,1,95,0|2
304,48,107676,2,0,B|384:48|384:48|336:96|400:144,1,190,2|0
400,216,108165,1,2
400,288,108328,6,0,B|280:288,1,95,12|0
304,216,108654,2,0,B|184:216,1,95,0|0
112,152,108980,1,0
40,240,109143,1,0
152,264,109306,1,0
112,152,109469,1,0
184,152,109632,6,0,B|304:152,1,95,12|0
280,80,109958,2,0,B|400:80,1,95
352,192,110285,1,0
448,256,110448,1,0
344,304,110611,1,0
352,192,110774,1,0
296,248,110937,6,0,B|200:320,1,95,12|0
184,240,111263,2,0,B|88:312,1,95
216,136,111589,2,0,B|312:64,1,95,12|0
328,144,111915,2,0,B|424:72,1,95
464,136,112241,21,12
48,248,112567,1,12
464,192,112893,1,12
48,192,113219,2,0,B|48:88,1,95,12|0
120,96,113545,5,12
120,168,113708,2,0,B|120:288,1,95
160,328,114035,1,0
200,264,114198,2,0,B|295:264,1,95,8|0
312,120,114524,2,0,B|217:120,1,95
256,56,114850,6,0,B|368:56,1,95,12|0
256,328,115176,2,0,B|161:328,1,95,12|0
256,192,115502,1,8
128,280,115828,38,0,B|248:280,1,95
296,256,116154,38,0,B|352:256|352:256|352:296,1,95,8|0
480,256,116480,2,0,B|425:256|425:256|425:296,1,95
480,184,116806,2,0,B|425:184|425:184|425:144,1,95,8|0
296,184,117132,2,0,B|352:184|352:184|351:144,1,95
304,88,117458,5,6
152,88,117785,1,6
168,160,117948,1,6
192,232,118111,2,0,B|0:232|0:232,1,190,6|6
24,160,118600,2,0,B|80:160|80:160|80:96|80:96,1,95,2|4
312,96,119252,38,0,B|208:96,1,95
176,192,119741,1,0
104,192,119904,1,0
392,120,120230,21,0
478,214,120393,1,0
356,242,120556,1,0
463,145,120719,1,0
424,262,120882,1,0
340,172,121045,1,0
256,264,121208,1,0
256,304,121289,1,0
256,344,121371,5,0
160,192,121698,1,8
160,192,121861,1,0
160,120,122024,2,0,B|160:16,2,95,0|0|8
224,152,122513,2,0,B|240:88|312:56|376:64,1,190
352,136,123002,2,0,B|336:192|384:224,1,95,8|0
321,288,123328,2,0,B|416:288,1,95
209,360,123654,2,0,B|304:360,1,95,8|0
191,288,123980,38,0,B|96:288,2,95,0|0|8
256,248,124469,2,0,B|256:40,1,190
184,88,124958,1,8
328,88,125121,1,0
440,192,125448,2,0,B|440:304,1,95,0|8
273,320,125774,2,0,B|368:320,1,95
304,248,126100,2,0,B|209:248,1,95,0|8
240,176,126426,2,0,B|120:176,1,95,0|0
144,248,126752,5,0
144,328,126915,1,8
80,288,127078,2,0,B|40:240|40:144|80:96,1,190
136,64,127567,1,8
216,80,127730,2,0,B|261:122|357:127|407:90,1,190
464,128,128219,1,8
464,128,128382,1,0
424,192,128545,2,0,B|424:304,1,95
336,325,128871,2,0,B|424:287,1,95,8|0
424,287,129116,1,0
424,287,129198,1,4
304,192,129524,37,8
304,192,129687,1,4
176,280,130013,2,0,B|88:344,1,95,0|8
144,192,130339,2,0,B|40:192,1,95
176,104,130665,2,0,B|88:40,2,95,0|8|0
216,192,131154,2,0,B|280:192,2,47.5
296,192,131480,1,8
296,192,131643,6,0,B|408:192,1,95
392,264,131969,2,0,B|312:344,1,95,0|8
256,296,132295,1,0
120,264,132458,2,0,B|200:344,2,95,0|0|8
184,216,132948,2,0,B|204:156|169:67|115:36,1,190
256,144,133437,1,8
256,144,133600,1,0
328,216,133763,2,0,B|307:156|342:67|396:36,1,190,0|8
432,104,134252,38,0,B|432:216,1,95
472,264,134578,1,0
472,264,134741,1,8
408,312,134904,2,0,B|192:312,1,190
224,232,135393,1,8
152,264,135556,2,0,B|152:64,2,190,0|8|0
224,232,136371,2,0,B|224:344,1,95
288,152,136698,2,0,B|288:40,1,95,8|0
432,192,137024,6,0,B|328:192,1,95
80,192,137350,2,0,B|184:192,1,95,8|0
256,192,137676,1,0
256,192,137839,1,0
256,192,138002,1,8
256,192,138165,1,0
144,128,138328,38,0,B|153:68|232:60,1,95
368,256,138654,2,0,B|359:316|280:324,1,95,8|0
256,192,138980,5,0
256,192,139143,1,0
256,192,139306,1,8
256,192,139469,1,0
88,192,139632,38,0,B|136:280,1,95
208,256,139958,2,0,B|208:352,1,95,8|0
304,256,140285,2,0,B|304:352,1,95
424,192,140611,2,0,B|376:280,1,95,8|0
320,192,140937,1,0
256,80,141100,1,0
200,192,141263,1,8
256,304,141426,1,0
256,232,141589,5,0
256,232,141670,1,0
256,232,141752,1,0
256,232,141833,1,0
256,232,141915,1,0
256,232,141996,1,0
256,232,142078,1,0
208,344,142241,6,0,B|120:280,1,95,2|0
144,192,142567,2,0,B|49:192,1,95,2|0
208,40,142893,2,0,B|120:104,1,95,2|0
192,136,143219,1,2
256,104,143382,2,0,B|344:104|344:104|360:160|288:176,1,190,2|2
304,328,144035,2,0,B|297:268|329:204|414:205,1,190,2|2
440,280,144524,1,0
440,104,144687,1,2
304,40,144850,6,0,B|392:104,1,95,2|0
368,192,145176,2,0,B|463:192,1,95,2|0
304,344,145502,2,0,B|392:280,1,95,2|0
320,248,145828,1,2
256,280,145991,2,0,B|168:280|168:280|152:224|224:208,1,190,2|2
208,56,146643,2,0,B|215:116|183:180|98:179,1,190,2|2
72,104,147132,1,2
72,280,147295,1,2
144,296,147458,5,2
192,192,147621,1,2
248,296,147785,1,2
304,192,147948,1,2
320,264,148111,2,0,B|440:264,1,95,2|0
320,120,148437,2,0,B|440:120,1,95,2|0
320,264,148926,1,2
192,192,149252,2,0,B|184:304|40:312,1,190,2|0
40,240,149741,1,2
40,240,149904,1,2
40,168,150067,38,0,B|40:104|104:96,1,95,2|0
216,32,150393,2,0,B|224:88|168:104,1,95,2|0
240,128,150719,1,2
320,104,150882,2,0,B|400:104|400:176|400:176|328:176,2,190,2|2|2
256,240,151861,1,6
288,320,152024,2,0,B|478:320,1,190,6|0
480,168,152676,38,0,B|480:104|408:96,1,95,0|0
408,168,153002,2,0,B|296:168,1,95,8|0
217,96,153328,2,0,B|312:96,1,95,0|0
216,168,153654,2,0,B|121:168,1,95,8|0
48,176,153980,2,0,B|48:104|120:96,1,95,0|0
417,102,154469,2,0,B|480:176|416:280,1,190,0|0
320,328,154958,21,8
208,272,155121,1,0
312,200,155285,1,0
280,304,155448,1,0
168,248,155611,1,8
272,176,155775,1,0
240,288,155937,1,0
128,232,156100,1,0
232,160,156264,1,8
120,104,156426,2,0,B|120:48,2,47.5
256,72,156915,37,8
256,72,156996,1,0
256,72,157078,1,0
328,72,157241,1,0
400,72,157404,2,0,B|408:120|352:152|352:144,1,95,0|8
280,144,157730,2,0,B|280:216|352:272|440:256,1,190
408,184,158219,2,0,B|472:184|488:256,1,95,8|0
448,304,158545,37,0
64,304,158871,1,8
318,192,159198,2,0,B|128:192,1,190,0|8
224,48,159687,1,0
264,120,159850,2,0,B|152:120,1,95,0|0
96,120,160176,2,0,B|96:56,2,47.5,8|0|0
96,192,160502,22,0,B|96:248|168:256,1,95,4|0
232,256,160828,1,8
240,328,160991,2,0,B|296:328|312:256|312:256|400:256|400:256,1,190,4|0
392,184,161480,1,8
392,112,161643,38,0,B|400:112|312:112|312:112|296:40|240:40,1,190,4|0
232,112,162132,1,8
160,112,162295,1,4
32,192,162621,2,0,B|144:192,1,95,0|8
223,272,162948,38,0,B|128:272,1,95,0|4
256,192,163437,1,8
256,40,163763,2,0,B|480:40,1,190,0|8
448,112,164252,1,0
256,344,164578,2,0,B|32:344,1,190,8|8
64,192,165230,2,0,B|168:192,1,95,0|8
160,264,165556,1,0
232,264,165719,21,0
368,192,166045,1,8
376,344,166371,1,0
368,192,166698,1,8
328,120,166861,2,0,B|280:32|144:56,1,190,0|0
176,128,167350,2,0,B|240:128,2,47.5,8|0|0
104,96,167676,37,0
72,120,167757,1,0
48,152,167839,1,0
40,192,167920,1,0
48,232,168002,1,0
64,264,168083,1,0
96,288,168165,1,0
136,296,168246,1,0
160,264,168328,2,0,B|184:360|328:352,2,190,0|8|0
312,280,169306,6,0,B|408:280,1,95,8|0
392,208,169632,2,0,B|432:184|440:128,1,95
424,56,169958,1,8
352,88,170121,2,0,B|368:128|320:160|320:160|208:160,2,190,0|8|0
312,88,170855,1,0
272,88,170937,1,12
256,192,171018,12,4,173219
256,48,173545,21,0
256,272,173871,1,0
256,192,174035,1,0
104,192,174361,1,0
256,192,174687,2,0,B|368:192|368:192|392:144|312:104,1,190
272,120,175176,2,0,B|288:56|352:48,1,95
400,80,175502,1,0
441,143,175665,1,0
443,218,175828,1,0
48,192,176154,5,0
160,96,176480,2,0,B|248:32,1,95
168,320,176969,1,0
168,240,177132,1,0
168,160,177295,2,0,B|256:160|256:160|256:216|256:216|296:216|296:216,2,190
88,168,178111,2,0,B|88:360,1,190
160,328,178600,1,0
224,288,178763,6,0,B|440:288,1,190
392,216,179252,1,0
256,96,179578,1,0
112,40,179904,2,0,B|304:40,1,190
352,96,180393,2,0,B|456:96,1,95
448,168,180719,2,0,B|400:168|400:168|400:216,1,95
360,280,181045,1,4
360,280,181208,1,4
288,288,181371,6,0,B|224:288|224:288|224:240|224:240|176:240|176:240|176:288,1,190,0|8
112,224,181861,2,0,B|112:194|112:194|64:194|64:194|64:242|64:242|0:242,1,190
0,168,182350,2,0,B|8:112|80:120,1,95,8|0
72,40,182676,2,0,B|136:40|144:104|144:104|240:104,1,190,0|8
240,176,183165,2,0,B|304:176|312:112|312:112|408:112,1,190
408,40,183654,1,0
448,48,183736,1,0
472,72,183817,1,0
480,112,183899,1,0
480,152,183980,37,0
424,208,184143,2,0,B|344:296,1,95,0|8
288,256,184469,2,0,B|248:216|144:216|104:264,1,190
72,192,184958,1,8
111,127,185121,2,0,B|144:168|248:168|288:128,1,190
288,56,185611,1,8
288,56,185774,1,0
352,96,185937,2,0,B|440:152,1,95
352,288,186263,6,0,B|440:232,1,95,8|0
368,192,186589,2,0,B|256:192,1,95,0|0
200,192,186915,1,8
232,264,187078,1,0
272,328,187241,1,0
200,344,187404,2,0,B|149:264,1,95,0|8
136,192,187730,38,0,B|80:104,1,95
208,120,188056,2,0,B|152:32,1,95,0|8
304,120,188382,2,0,B|360:32,2,95
376,192,188871,1,8
256,64,189198,5,0
256,64,189361,1,0
256,136,189524,2,0,B|256:248,1,95,8|0
320,192,189850,2,0,B|415:192,1,95
192,192,190176,2,0,B|97:192,1,95,8|0
256,336,190502,37,0
328,304,190665,1,0
392,264,190828,2,0,B|456:176,1,95,8|0
304,256,191154,2,0,B|304:147,1,95
208,256,191480,2,0,B|207:147,1,95,8|0
120,264,191806,6,0,B|56:176,1,95
152,128,192132,1,8
360,128,192295,1,0
256,104,192458,2,0,B|256:200,1,95
256,272,192785,2,0,B|184:336,1,95,8|0
256,272,193111,38,0,B|328:336,1,95
392,264,193437,2,0,B|456:176,1,95,8|0
256,128,193763,1,0
256,136,193844,1,0
256,144,193926,1,0
256,152,194007,1,0
256,160,194089,1,0
256,168,194170,1,0
256,176,194252,1,0
256,184,194333,1,0
256,192,194415,1,4
