osu file format v9

[General]
AudioFilename: Ohigan-FuzzyRock.mp3
AudioLeadIn: 0
PreviewTime: 110200
Countdown: 0
SampleSet: Normal
StackLeniency: 0.7
Mode: 0
LetterboxInBreaks: 0

[Editor]
DistanceSpacing: 1
BeatDivisor: 4
GridSize: 4

[Metadata]
Title:Ohigan FuzzyClap
Artist:Hatsune Miku
Creator:val0108
Version:Easy
Source:bibuko
Tags:Vocaloid Posca Love

[Difficulty]
HPDrainRate:2
CircleSize:3
OverallDifficulty:2
ApproachRate:2
SliderMultiplier:0.799999999999999
SliderTickRate:2

[Events]
//Background and Video events
0,0,"0108 BG.jpg"
//Break Periods
2,73477,81563
//Storyboard Layer 0 (Background)
//Storyboard Layer 1 (Fail)
//Storyboard Layer 2 (Pass)
//Storyboard Layer 3 (Foreground)
//Storyboard Sound Samples
//Background Colour Transformations
3,100,163,162,255

[TimingPoints]
4355,307.692307692308,4,1,1,70,1,0
54816,461.538461538462,4,1,1,70,1,0
58508,-100,4,1,1,70,0,1
73277,307.692307692308,4,1,1,70,1,0
111430,461.538461538462,4,1,1,70,1,0
115122,-100,4,1,1,70,0,1
129891,307.692307692308,4,1,1,70,1,0

[Colours]
Combo1 : 255,0,128
Combo2 : 255,255,0
Combo3 : 0,255,255
Combo4 : 255,128,64

[HitObjects]
416,292,4355,6,2,B|388:224|472:160|416:56,1,240
336,56,5585,1,0
180,92,6201,1,0
192,172,6508,1,8
256,223,6816,6,2,B|240:284|196:316|136:320,1,160,6|2
58,187,8047,1,2
58,27,8662,1,2
132,52,8970,1,8
208,84,9278,6,2,B|264:64|324:156|380:64|448:84,1,240,6|10
443,162,10508,2,0,B|503:194|504:268|456:336|372:308,1,240,2|10
401,231,11739,6,2,B|341:199|293:195|240:204,1,160,6|2
128,316,12970,1,2
44,180,13585,1,2
44,100,13893,1,8
112,56,14201,6,2,B|280:56,1,160,6|2
380,176,15431,2,2,B|212:176,1,160
152,220,16354,1,8
152,300,16662,6,2,B|316:300,1,160,6|10
460,244,17893,1,2
332,148,18508,1,8
460,52,19124,6,2,B|300:52,1,160,6|8
148,108,20354,1,2
116,260,20970,1,2
180,308,21278,1,8
256,336,21585,6,2,B|320:304|344:264|344:208,1,160,6|10
256,80,22816,2,2,B|192:112|168:152|168:208,1,160,0|10
256,192,24047,12,0,25893
256,244,26508,6,2,B|244:164|244:164|256:68,1,160,6|10
93,85,27739,2,2,B|81:165|81:165|93:261,1,160,2|10
168,264,28662,1,8
124,332,28970,2,2,B|204:352|204:352|284:352|284:352|360:332,1,240,6|10
440,324,30201,1,2
448,164,30816,1,10
392,104,31124,1,8
332,52,31431,6,2,B|296:16|220:16|176:56,2,160,6|10|2
256,192,33278,1,8
183,334,33893,2,2,B|220:368|296:368|332:332,2,160,6|10|2
256,192,35739,1,10
175,192,36047,1,8
96,192,36355,6,2,B|108:132|136:80|192:60,2,160,6|10|2
256,192,38201,1,8
416,192,38816,2,2,B|404:252|376:304|320:324,2,160,6|10|2
256,192,40662,1,10
256,112,40970,1,8
256,32,41278,6,2,B|312:32|312:32|340:24|340:24|412:24|412:24|440:32|440:32|500:32,1,240,6|10
494,111,42508,1,2
372,212,43124,1,10
320,272,43431,1,8
256,320,43739,2,2,B|216:320|216:320|172:328|172:328|88:328,1,160,6|2
96,207,44816,6,0,B|68:163|96:119,1,79.9999999999999
169,130,45431,2,0,B|301:130,1,120
369,130,46201,1,0
500,40,46816,5,0
419,40,47124,1,8
339,40,47431,2,2,B|252:40|252:40|200:52|200:52|92:52,1,240,6|2
56,116,48662,5,6
56,276,49278,1,10
96,344,49585,1,8
176,336,49893,2,2,B|252:316|252:316|340:340,1,160,6|2
460,244,51124,6,2,B|392:232|324:172|292:68,1,240,6|10
216,84,52355,2,2,B|188:172|120:232|52:244,1,240,6|10
256,192,53585,12,4,57123
296,308,58508,6,0,B|256:324|212:312,2,79.9999999999999,4|10|0
344,200,59892,1,10
428,116,60354,2,0,B|456:76|432:28,1,79.9999999999999,4|10
320,24,61277,1,2
268,132,61739,1,10
160,84,62200,6,2,B|116:112|76:100,1,79.9999999999999,6|10
8,196,63123,2,0,B|44:224|92:212,1,79.9999999999999,0|10
172,296,64046,2,0,B|136:324|88:312,1,79.9999999999999,0|10
164,212,64969,1,10
256,292,65431,1,10
344,212,65892,6,2,B|336:156|304:128,2,79.9999999999999,6|10|2
256,292,67277,1,8
200,184,67739,2,2,B|188:140|196:92,1,79.9999999999999,6|2
300,48,68662,1,2
384,132,69123,1,10
432,240,69585,6,0,B|320:240,1,79.9999999999999,6|10
280,336,70508,2,2,B|200:336,1,79.9999999999999,2|10
104,264,71431,1,2
184,176,71892,1,8
256,80,72354,1,2
328,176,72815,1,8
408,264,73277,1,4
176,97,83123,6,2,B|256:85|256:85|352:97,1,160,6|10
334,254,84353,2,2,B|254:266|254:266|158:254,1,160
168,176,85277,1,8
248,176,85584,2,2,B|504:176,1,240,6|10
488,256,86815,1,2
488,96,87430,1,10
412,72,87738,1,8
336,48,88046,6,2,B|256:28|256:28|176:48,2,160,6|10|2
256,188,89892,1,10
176,324,90507,2,2,B|256:344|256:344|336:324,2,160,6|10|2
256,188,92353,1,10
336,188,92661,1,8
416,188,92969,6,2,B|404:128|376:76|304:52,2,160,6|10|2
256,192,94815,1,8
96,192,95430,2,2,B|108:252|136:304|208:328,2,160,6|10|2
256,192,97277,1,8
256,112,97584,1,8
256,31,97892,6,2,B|336:-4|408:92|488:40,1,240,6|10
504,120,99123,1,2
428,260,99738,1,10
368,312,100046,1,8
309,263,100353,2,2,B|254:219|166:303|106:243,1,200,6|2
44,288,101430,6,0,B|28:248|44:204,1,79.9999999999999,8|8
42,129,102046,2,0,B|166:129,1,120,8|0
212,68,102815,1,4
380,72,103430,6,0,B|380:160,1,79.9999999999999,2|10
372,232,104046,2,2,B|360:276|316:296,1,79.9999999999999
244,300,104661,2,0,B|196:292|168:260,1,79.9999999999999,2|8
108,220,105277,5,6
256,164,105892,1,10
332,136,106200,1,0
340,56,106507,2,2,B|258:28|258:28|178:56,1,160,6|2
220,208,107738,6,2,B|152:224|128:288,2,120,6|10|2
288,168,108969,2,2,B|356:152|380:88,2,120,6|10|2
256,192,110200,12,4,113391
300,88,115122,6,0,B|256:80|208:88,2,79.9999999999999,4|10|0
256,196,116506,1,10
256,256,116737,2,2,B|200:284|116:272,1,120,6|10
80,264,117660,1,0
36,224,117891,1,2
36,103,118353,1,10
95,103,118583,1,0
155,103,118814,6,2,B|240:104,1,79.9999999999999,6|10
355,103,119737,2,0,B|439:119,1,79.9999999999999,0|10
433,178,120429,2,2,B|357:218,1,79.9999999999999,6|2
320,256,121122,1,8
276,300,121353,1,0
216,312,121583,1,10
108,264,122045,1,10
80,212,122276,1,0
72,152,122506,6,2,B|64:104|44:72,2,79.9999999999999,6|10|2
160,72,123891,1,8
200,28,124122,2,2,B|256:20|328:32,1,120,6|10
360,72,125045,1,0
360,132,125276,1,10
256,196,125737,1,10
256,256,125968,1,8
312,280,126199,6,0,B|312:364,1,79.9999999999999,6|10
192,360,127122,2,0,B|192:280,1,79.9999999999999,6|10
192,219,127814,1,12
192,158,128045,5,6
192,38,128506,1,8
312,38,128968,1,6
312,158,129429,1,8
312,277,129891,1,4
