osu file format v9

[General]
AudioFilename: No,39.mp3
AudioLeadIn: 2000
PreviewTime: 43926
Countdown: 0
SampleSet: Normal
StackLeniency: 0.7
Mode: 0
LetterboxInBreaks: 0
EpilepsyWarning: 1

[Editor]
Bookmarks: 15947,30415,31691,43925,67064,81532,94989,118074,132596,146106,186904
DistanceSpacing: 1
BeatDivisor: 4
GridSize: 4

[Metadata]
Title:No,39
Artist:Hatsune Miku
Creator:val0108
Version:0108 style
Source:HujuniseikouyuuP
Tags:Vocaloid No,thank you NanahoshikangenGakudan

[Difficulty]
HPDrainRate:7
CircleSize:4
OverallDifficulty:7
ApproachRate:9
SliderMultiplier:1.8
SliderTickRate:2

[Events]
//Background and Video events
0,0,"BG.jpg"
//Break Periods
2,61137,66614
2,112201,114912
//Storyboard Layer 0 (Background)
//Storyboard Layer 1 (Fail)
//Storyboard Layer 2 (Pass)
//Storyboard Layer 3 (Foreground)
//Storyboard Sound Samples
//Background Colour Transformations
3,100,163,162,255

[TimingPoints]
2321,212.765957446809,4,1,1,80,1,0
26363,-100,4,1,2,80,0,0
26416,-100,4,1,1,80,0,0
33172,-100,4,1,2,80,0,0
33225,-100,4,1,1,80,0,0
36576,-100,4,1,2,80,0,0
36629,-100,4,1,1,80,0,0
43916,-100,4,1,2,80,0,1
43969,-100,4,1,1,80,0,1
60884,-100,4,1,1,80,0,0
60939,-100,4,1,1,80,0,1
60991,-100,4,1,1,80,0,0
77427,-100,4,1,2,80,0,0
77480,-100,4,1,1,80,0,0
94980,-100,4,1,2,80,0,1
95033,-100,4,1,1,80,0,1
111948,-100,4,1,1,80,0,0
112002,-100,4,1,1,80,0,1
112056,-100,4,1,1,80,0,0
165512,-100,4,1,2,80,0,0
165565,-100,4,1,1,80,0,0
169980,-100,4,1,1,60,0,0
170831,-100,4,1,1,70,0,0
171682,-100,4,1,1,80,0,0
172533,-100,4,1,1,90,0,0
172959,-100,4,1,1,100,0,0
173278,-100,4,1,2,80,0,1
173331,-100,4,1,1,80,0,1
186895,-200,4,2,0,40,0,0
187214,-100,4,1,2,80,0,1
187267,-100,4,1,1,80,0,1
203863,-100,4,1,1,80,0,0
203917,-100,4,1,1,80,0,1
203971,-100,4,1,1,80,0,0

[Colours]
Combo1 : 255,128,0
Combo2 : 0,255,64
Combo3 : 255,0,0
Combo4 : 128,128,64

[HitObjects]
176,120,2321,1,0
355,120,2533,1,0
256,272,2746,1,0
256,272,2852,1,0
256,272,2959,1,0
112,328,3065,6,0,B|72:336|72:336|32:304|28:248|72:180,1,180,4|0
136,252,3384,2,0,B|176:228|224:252,1,90,8|0
312,272,3597,2,0,B|316:320|356:348,2,90
376,208,3916,6,0,B|431:224|431:224|464:192|472:144|440:88,1,180,4|0
372,68,4235,2,0,B|328:54|284:68,1,90,8|0
204,112,4448,2,0,B|192:160|208:204,2,90
140,48,4767,6,0,B|109:-2|109:-2|42:11|12:80,1,180,4|0
68,144,5086,2,0,B|108:168|160:168,1,90,8|0
220,232,5299,2,0,B|272:220|328:244,2,90
172,308,5618,6,2,B|132:348|132:348|-12:348,1,180,6|2
240,360,5938,2,0,B|272:340|272:340|332:340,1,90,10|0
413,340,6150,5,8
413,249,6257,1,8
413,159,6363,1,8
413,69,6469,6,0,B|345:69|345:69|305:89|305:89|217:89,1,180,4|0
212,0,6789,2,0,B|122:0,1,90,8|0
44,40,7001,1,0
8,124,7108,1,0
84,168,7214,1,8
156,112,7321,6,0,B|220:136|220:136|356:136,1,180,4|0
164,204,7640,2,0,B|88:272,1,90,8|0
20,312,7852,1,0
84,376,7959,1,0
172,368,8065,1,8
192,280,8172,6,0,B|256:256|256:256|288:216|288:216|368:184,1,180,4|0
500,228,8491,2,0,B|399:264,1,90,8|0
332,288,8703,1,0
380,364,8810,1,0
464,332,8916,1,8
414,258,9023,6,2,B|422:215|422:215|399:219|399:219|408:184|408:184|390:172|390:172|399:130|377:100,1,180,6|2
208,100,9342,2,0,B|276:119|151:150|251:164,1,90,10|0
312,200,9555,5,8
304,112,9661,1,8
288,24,9767,1,8
196,16,9874,6,0,B|156:40|156:40|12:40,1,180,4|0
68,120,10193,1,8
20,196,10299,1,0
76,268,10406,2,0,B|100:300|100:300|100:364,2,90,0|0|8
120,188,10725,6,0,B|160:156|160:156|304:156,1,180,4|0
352,92,11044,1,8
412,156,11150,1,0
348,220,11257,2,0,B|380:236|380:236|468:236,2,90,0|0|8
288,288,11576,6,0,B|232:320|232:320|88:320,1,180,4|0
64,248,11895,1,8
152,248,12001,1,0
232,204,12108,2,0,B|203:165|203:165|147:165,2,90,0|0|8
232,204,12427,6,2,B|264:188|264:188|264:212|264:212|288:196|288:196|312:212|312:212|328:204|328:204|408:204,1,180,6|2
288,100,12746,2,0,B|242:91|242:91|200:103,1,90,10|0
32,32,12959,2,8,B|72:38|72:38|120:30,2,90,10|10|8
256,192,13278,12,4,15831
120,88,16044,5,0
120,88,16150,2,0,B|140:131|140:131|104:168|104:224|176:272,1,180
208,184,16469,1,8
208,184,16576,1,8
288,216,16682,6,0,B|336:184|336:184|400:256|480:184,1,180,4|0
400,128,17001,2,0,B|400:64|400:64|352:8|272:24,2,180,8|0|8
312,104,17533,1,0
224,128,17640,5,0
224,128,17852,2,0,B|176:152|128:160,1,90,8|0
24,96,18065,2,0,B|46:135|64:200,1,90
208,328,18278,2,0,B|173:294|152:232,1,90,8|0
72,264,18491,6,2,B|128:248|216:248|272:256,1,180,6|10
352,104,18810,2,0,B|480:104,2,90,6|0|0
128,176,19129,2,2,B|336:176,1,180,14|8
373,240,19448,5,0
444,192,19555,2,0,B|468:248|468:248|468:304|428:336|372:320,1,180,0|8
372,240,19874,1,0
308,176,19980,2,0,B|269:198|269:254,1,90
260,344,20193,6,2,B|308:344|308:344|348:328|396:280|364:208,1,180,6|8
424,73,20512,2,2,B|373:74|373:74|333:90|307:132|308:178,1,180,6|0
128,136,20831,2,2,B|134:187|134:187|153:223|200:245|248:240,1,180,14|2
243,241,21257,5,8
243,240,21469,2,0,B|243:148,1,90
208,320,21682,2,0,B|168:345|104:337,1,90,8|0
86,257,21895,2,2,B|136:216|112:152|112:152|56:120,1,180,6|8
56,120,22214,2,2,B|120:72|120:72|224:72,1,180,4|2
287,117,22533,5,4
287,117,22959,2,0,B|244:112|220:140|213:169,1,90,8|0
287,117,23172,2,0,B|325:186|394:206|448:163,1,180,0|8
376,104,23491,1,0
328,256,23597,6,0,B|282:227|230:249,2,90,6|0|8
328,256,23916,2,2,B|299:301|244:334|163:354,1,180,6|2
241,245,24235,2,2,B|246:176|229:102|190:51,2,180,10|2|10
152,260,24767,1,0
64,236,24874,2,0,B|36:192|24:132,1,90,0|0
124,56,25086,2,0,B|152:98|160:168,1,90,8|0
242,246,25299,6,0,B|282:206|282:206|370:206|370:206|394:134,1,180,6|8
455,36,25618,2,2,B|455:84|455:84|455:124|439:180|367:172,1,180,6|0
352,80,25938,2,2,B|320:48|320:48|320:96|320:96|288:64|288:64|280:96|280:96|248:56|248:56|176:80|184:24|184:24|144:48|96:24|96:24|126:64|128:104|72:160,1,540,14|2
64,232,26682,1,0
8,168,26789,1,8
24,80,26895,1,8
88,144,27001,6,0,B|141:144|123:198|123:198|187:238|213:163,1,180,4|8
256,104,27321,1,0
424,144,27427,2,0,B|370:144|388:198|388:198|324:238|298:163,1,180,4|8
256,256,27746,1,0
177,297,27852,2,0,B|224:352|304:352|332:301,1,180,4|8
256,256,28172,1,0
256,256,28278,2,0,B|216:208|216:144,1,90
258,87,28491,2,2,B|293:142|293:214|245:270,1,180,14|2
352,104,28916,5,8
168,104,29129,1,0
368,104,29342,1,8
152,104,29555,2,2,B|112:144|112:232|152:296,1,180,2|10
192,352,29874,1,0
256,288,29980,1,0
320,352,30086,1,0
368,272,30193,1,8
392,184,30299,6,0,B|184:184,1,180,4|0
120,184,30618,2,0,B|80:184|56:144|56:144|88:88|56:24,2,180,8|0|8
176,256,31150,2,0,B|262:247|355:257,1,180
176,256,31469,2,0,B|168:312|120:328,1,90,8|0
232,184,31682,2,0,B|240:128|288:112,1,90
320,336,31895,2,2,B|362:361|437:353|464:290|459:230|448:192|388:160,1,270,10|2
323,177,32321,5,8
323,176,32533,2,0,B|259:157|259:157|131:157,1,180,0|8
215,81,32852,2,2,B|174:47|103:37|38:56|0:154|21:219|84:276|164:288|231:215,1,450
145,156,33491,1,0
145,156,33597,1,8
145,156,33703,2,0,B|208:144|208:144|345:148,1,180,4|0
360,64,34023,6,0,B|408:64|424:104|424:104|400:128|408:168|472:192,2,180,8|0|8
352,224,34555,1,0
304,296,34661,2,0,B|248:304|200:296,1,90,2|0
24,240,34874,2,0,B|65:232|120:240,1,90,8|0
293,139,35086,2,0,B|249:129|203:137,1,90,2|0
304,296,35299,2,2,B|360:296|416:264|440:216|424:168,1,180,10|2
464,112,35618,1,0
376,136,35725,6,0,B|333:110|291:138,1,90,8|0
261,56,35938,2,0,B|264:97|293:140,1,90
290,138,36150,2,2,B|240:134|200:186|214:240|214:240|192:241|141:256|96:246|54:233|18:164|45:92|117:49,1,450,10|2
144,152,36789,1,0
295,221,36895,2,0,B|304:272|368:296,1,90,0|8
348,287,37108,6,2,B|389:263|437:215|445:143,1,180,6|2
295,221,37427,2,0,B|288:256|288:256|264:320|216:344|168:320,2,180,8|0|0
8,240,37959,2,2,B|216:240,1,180,10|2
236,164,38278,1,0
176,96,38384,1,0
268,96,38491,2,0,B|232:60|224:16,2,90,8|0|0
304,16,38810,6,2,B|344:56|408:72|408:72|368:88|360:128,1,180
440,240,39129,2,0,B|423:199|431:151,1,90,8|0
431,152,39342,2,2,B|383:191|311:215|247:223,1,180,10|0
28,244,39661,2,2,B|98:244|162:260|201:283,1,180,10|10
256,360,39980,5,8
256,288,40193,1,0
256,216,40406,1,0
253,139,40618,6,0,B|260:87|303:112|303:112|320:80|302:43|302:43|268:22,1,180,4|0
196,72,40938,1,8
254,139,41044,2,0,B|260:189|214:176|214:176|192:208|216:252|216:252|276:272,1,180,4|0
324,216,41363,1,8
434,88,41469,6,2,B|344:88,1,90,10|2
86,176,41682,2,2,B|176:176,1,90,10|2
256,24,41895,5,8
256,24,42108,2,2,B|248:40|248:40|264:56|264:56|248:72|248:72|264:88|264:88|248:104|248:104|264:120|264:120|288:120|264:160|264:160|296:200|232:216|232:216|208:272|272:312,1,360,6|2
256,320,42746,1,8
256,344,42959,1,8
256,368,43172,5,4
480,192,43384,1,0
389,192,43491,1,8
299,192,43597,1,8
208,192,43703,1,8
118,192,43810,1,8
28,192,43916,6,2,B|56:240|56:240|48:288|100:334|167:321,1,180,6|2
136,240,44235,2,0,B|176:216|176:160,1,90,10|0
176,24,44448,2,0,B|236:56|268:104|288:184,1,180,2|10
296,352,44767,1,0
296,352,44874,2,0,B|344:328|344:272,1,90
384,88,45086,2,0,B|356:136|384:188,1,90,10|0
456,344,45299,2,2,B|448:324|448:324|465:310|465:310|451:292|451:292|460:264|460:264|448:248|448:248|472:216|459:183,1,180,2|10
384,88,45618,6,2,B|440:81|472:112|472:112|512:80|496:24,1,180,2|2
378,175,45938,2,0,B|328:191|272:151,1,90,8|0
168,32,46150,2,0,B|216:32|264:80,1,90
368,256,46363,2,0,B|312:272|240:240|192:192,3,180,10|0|10|2
136,144,47108,1,0
88,64,47214,1,8
40,144,47320,6,2,B|64:168|64:168|24:192|-8:224|40:312,1,180,6|2
112,256,47640,2,0,B|160:216|144:152,1,90,8|0
113,257,47852,2,0,B|88:304|112:352,2,90,12|0|8
114,257,48172,2,2,B|163:306|219:330|307:314,1,180,6|2
416,208,48491,2,0,B|368:184|320:192,1,90,14|0
328,190,48703,2,2,B|368:240|384:280|376:368,1,180,14|8
377,357,49023,6,2,B|424:304|480:304|480:304|496:240,1,180,6|2
480,152,49342,1,8
480,152,49448,1,0
400,112,49555,2,0,B|368:80|368:80|312:80,2,90,14|8|8
327,190,49874,2,2,B|303:198|303:198|295:182|295:182|271:190|271:190|255:182|255:182|231:190|231:190|207:182|207:182|151:190,1,180
24,304,50193,2,0,B|46:301|46:301|58:305|58:305|70:301|70:301|78:305|78:305|89:301|89:301|93:309|93:309|106:305,1,90,2|0
88,120,50406,2,0,B|43:120,4,45,2|0|0|0|10
88,120,50725,6,0,B|112:128|112:128|120:112|120:112|144:120|144:120|160:112|160:112|184:120|184:120|208:112|208:112|264:120,1,180,4|2
432,168,51044,2,0,B|384:176|384:176|328:168,1,90,10|0
160,344,51257,2,0,B|208:336|208:336|256:344,1,90
416,280,51469,2,0,B|376:272|376:272|326:280,1,90,10|0
192,216,51682,2,2,B|233:226|233:226|281:218,1,90,2|0
496,88,51895,2,0,B|448:80|448:80|392:88,1,90,10|0
152,88,52108,2,2,B|240:112|240:112|332:88,1,180,2|8
151,88,52427,6,2,B|176:128|176:168|136:200|96:192|48:168,1,180,6|2
96,256,52746,2,0,B|152:272|192:224,1,90,8|0
430,155,52959,2,0,B|384:136|342:154,1,90
292,366,53172,2,0,B|312:320|293:278,1,90,10|0
219,17,53384,2,2,B|200:64|224:120,1,90,2|2
256,192,53597,1,8
256,192,53703,2,2,B|192:148|140:176|124:216|128:264,1,180
220,260,54023,1,0
224,348,54129,6,2,B|168:312|168:312|128:368|128:368|68:312,1,180,4|2
4,348,54448,1,8
32,264,54555,1,0
68,184,54661,2,0,B|16:168|12:108,2,90,2|8|8
162,200,54980,2,2,B|194:184|234:224|234:224|234:264|282:288|314:248,1,180,6|0
162,200,55299,2,0,B|170:152|162:96,1,90,10|0
296,120,55512,2,0,B|296:176,4,45,2|0|0|0|2
296,120,55831,6,2,B|344:88|344:88|408:88|408:88|456:120,1,180,4|2
456,210,56150,1,8
376,176,56257,1,0
384,264,56363,2,0,B|408:304|464:304,2,90,2|8|8
384,264,56682,2,2,B|344:224|296:200|248:200|192:216,1,180,6|0
40,224,57001,2,2,B|72:264|128:272,1,90,10|0
184,328,57214,1,10
256,384,57320,1,8
328,328,57427,1,8
256,280,57533,1,8
256,280,57640,5,4
256,24,57852,1,0
256,224,58065,1,0
256,72,58278,1,0
163,152,58491,5,4
347,152,58703,1,0
120,152,58916,1,0
400,152,59129,1,0
136,224,59342,6,2,B|144:248|144:248|120:272|120:272|136:304|136:304|136:352|208:384,1,180,6|10
376,224,59661,2,2,B|368:248|368:248|392:272|392:272|376:304|376:304|376:352|304:384,1,180,6|10
256,192,59980,2,0,B|256:102,1,90,6|0
168,56,60193,5,0
348,56,60406,1,0
256,256,60618,2,0,B|256:336,6,45,0|0|0|0|0|0|4
256,320,67214,5,0
256,232,67320,1,0
232,144,67427,2,0,B|200:112|144:104,2,90
256,232,67746,2,0,B|312:192|336:144|336:72,1,180,4|0
232,144,68065,2,0,B|192:184|128:200|32:200,2,180,8|0|8
240,154,68597,1,0
240,154,68703,1,0
240,154,68916,5,8
240,154,69129,2,0,B|272:130|328:130,1,90
464,192,69342,2,0,B|432:216|376:216,1,90,8|0
328,40,69555,2,2,B|368:32|368:32|432:64|448:120|368:152,1,180,6|8
368,312,69874,2,2,B|320:312|320:312|280:312|232:240|320:200,1,180,6|0
316,119,70193,5,10
316,119,70512,1,0
316,119,70618,2,0,B|316:159|284:167|284:167|248:144|200:144|157:197,1,180,8|0
240,240,70938,1,0
176,304,71044,1,8
104,256,71150,2,2,B|64:224|64:224|104:192|104:128|64:96,1,180,6|0
76,108,71469,2,2,B|136:120|208:104|264:64,1,180,10|2
320,24,71789,1,0
408,40,71895,1,8
456,112,72001,1,0
448,200,72108,5,0
448,200,72320,2,0,B|336:224,1,90,8|0
184,168,72533,2,0,B|273:150,1,90
304,328,72746,2,0,B|282:232,1,90,8|0
256,32,72959,2,2,B|261:18|293:10|325:26|335:72|335:72|350:142,1,180,6|8
304,328,73278,2,2,B|299:342|267:350|229:345|214:305|214:305|198:221,1,180,6|8
212,148,73597,2,2,B|161:153|121:181|98:215|115:300,1,180,14|2
88,128,73916,5,0
88,128,74023,2,0,B|144:80|144:80|256:80,1,180,8|0
312,144,74342,1,0
376,80,74448,1,8
440,144,74555,2,2,B|472:192|456:240|432:264|432:264|464:328,1,180,6|0
376,208,74874,2,2,B|320:248|272:248|192:240,2,180,10|2|10
392,120,75406,1,0
328,64,75512,5,0
328,64,75725,2,0,B|292:96|275:144,1,90,8|0
268,322,75938,2,0,B|293:299|321:250,1,90,0|0
153,170,76150,2,0,B|182:200|224:223,1,90,8|0
502,220,76363,2,2,B|494:148|406:124|358:167,1,180,6|8
267,322,76682,2,2,B|303:333|356:320|393:285|407:237,1,180,6|0
381,72,77001,2,2,B|312:72|278:104|256:160|285:216|285:216|240:248|200:280|144:264|96:224|84:162|120:88|181:90,1,540,6|2
200,168,77746,1,0
200,168,77852,1,8
200,168,77959,1,0
368,168,78065,6,0,B|480:168,2,90,4|0|8
256,312,78384,1,0
320,248,78491,2,0,B|432:248,2,90,4|0|8
200,112,78810,1,0
288,136,78916,2,2,B|288:192|256:224|200:248|144:224,1,180,6|8
88,176,79235,1,0
72,264,79342,5,6
72,264,79555,2,2,B|152:320|232:320|280:304,1,180,10|2
328,280,79874,1,0
328,280,79980,2,0,B|363:363,1,90,8|0
392,232,80193,2,0,B|440:152,1,90,2|0
312,40,80406,2,0,B|346:122,1,90,8|0
224,256,80618,2,0,B|272:176,1,90,6|0
152,40,80831,2,0,B|186:122,1,90,8|0
112,176,81044,1,14
112,176,81150,1,8
112,176,81257,1,8
104,264,81363,6,2,B|168:368|168:368|240:368,1,180,6|2
48,320,81682,2,0,B|40:273|-8:216,1,90,4|0
64,64,81895,2,0,B|120:72|176:56,1,90
336,80,82108,2,0,B|336:128|344:176,1,90,8|0
216,363,82321,2,0,B|256:344|304:344,1,90
456,263,82533,2,0,B|408:256|368:272,1,90,8|0
193,255,82746,2,0,B|224:240|280:232,1,90
344,152,82959,6,2,B|328:88|264:32|192:32|128:80|112:120,1,270,10|0
112,272,83384,2,0,B|149:229|142:183,1,90,10|0
72,24,83597,2,2,B|33:57|20:90|18:128|28:162|61:201,1,180,2|8
130,93,83916,2,2,B|180:100|218:125|232:152|241:184|240:212|230:254,1,180
240,304,84235,1,0
312,360,84342,1,0
392,328,84448,1,8
400,240,84555,1,8
328,184,84661,1,8
236,215,84767,6,2,B|183:202|127:250|127:250|87:202,1,180,6|2
56,288,85086,1,8
128,344,85193,1,0
208,296,85299,2,2,B|280:312|320:248|320:248|376:296,1,180,6|8
235,215,85618,2,2,B|224:160|240:120|296:80|352:80,1,180,6|2
504,40,85938,2,0,B|504:104|464:128,1,90,12|0
328,184,86150,2,0,B|384:176|400:120,1,90
328,184,86363,6,2,B|369:233|361:313|321:361|255:368|186:318,1,270,14|2
256,256,86789,1,8
168,232,86895,1,0
208,152,87001,1,8
176,72,87108,1,8
86,72,87214,1,8
86,72,87321,1,0
86,72,87427,2,0,B|22:88|6:168|46:224,2,180,6|4|10
176,72,87959,6,0,B|264:72,1,90,2|0
432,8,88172,2,2,B|376:32|376:32|328:80|368:160,1,180,6|0
448,176,88491,2,2,B|432:216|388:237|344:224|344:224|304:272,2,180,10|2|10
280,176,89023,2,2,B|152:320,1,180,6|2
88,272,89342,1,8
88,272,89448,1,8
88,184,89555,2,0,B|32:192|0:248,2,90,6|0|8
168,328,89874,6,2,B|224:356|276:364|352:356,1,180,6|0
423,348,90193,2,0,B|372:328|360:288,1,90,10|0
360,288,90406,2,2,B|424:272|464:208|464:152,1,180,6|8
265,149,90725,2,2,B|265:229|297:269|393:301,1,180,6|2
265,150,91044,2,0,B|231:205|163:235|102:232,2,180,4|0|12
176,128,91576,1,8
88,132,91682,6,2,B|104:76|168:36|256:52,1,180,6|0
320,72,92001,1,8
400,116,92108,2,2,B|384:172|320:212|232:196,1,180,6|0
164,200,92427,1,8
144,292,92533,2,2,B|198:319|240:288|256:260|256:176,1,180,6|2
256,200,92852,1,8
256,200,92959,1,8
255,96,93172,6,2,B|263:104|263:104|247:104|247:104|263:112|263:112|247:112|247:112|263:120|263:120|247:120|247:120|263:128|263:128|247:128|247:128|263:136|263:136|247:136|247:136|263:144|263:144|247:144|247:144|263:152|263:152|247:152|247:152|263:160|263:160|247:160|247:160|263:168|263:168|247:168|247:168|263:176|263:176|247:176|247:176|255:184|255:184|255:201,1,360
262,205,93810,1,0
262,205,94023,1,0
262,205,94235,6,0,B|190:261|150:125|94:229,1,180,4|0
96,300,94555,1,8
185,300,94661,1,8
274,300,94767,1,8
364,300,94874,1,8
453,300,94980,6,2,B|476:234|468:178|436:122,1,180,6|2
240,48,95299,2,0,B|267:76|323:76,1,90,8|0
92,184,95512,2,0,B|104:144|144:112,1,90
240,360,95725,2,0,B|213:325|165:311,1,90,8|0
376,184,95938,2,2,B|377:230|341:273,1,90,2|0
40,120,96150,2,0,B|62:76|104:48,1,90,8|0
244,190,96363,6,2,B|220:174|220:174|220:190|220:190|180:190|180:190|148:174|148:174|108:190|108:190|52:174,1,180,2|8
40,120,96682,2,2,B|0:136|-24:192|-8:256|64:280,1,180
40,120,97001,2,0,B|80:112|80:112|152:120,1,90,8|0
328,64,97214,2,0,B|280:71|280:71|216:64,1,90
392,168,97427,2,2,B|441:158|441:158|496:168,1,90,10|0
320,256,97640,2,0,B|280:262|280:262|231:253,1,90,2|0
184,176,97852,2,0,B|225:171|225:171|273:178,1,90,8|0
368,328,98065,2,2,B|280:360|280:360|176:320,1,180
68,221,98384,6,0,B|131:227|187:267|210:363,1,180,4|0
96,312,98703,1,8
66,222,98810,1,0
88,144,98916,2,0,B|48:112|-8:120,2,90,14|0|8
88,144,99235,2,2,B|152:168|208:168|272:160,1,180,6|0
384,192,99555,2,0,B|392:240|440:272,1,90,8|0
431,265,99767,2,2,B|360:248|320:248|232:264,1,180,14|8
432,112,100086,6,2,B|368:88|296:88|240:104,1,180,6|0
254,100,100406,1,8
254,100,100512,1,0
254,100,100618,2,2,B|216:64|216:64|168:48|128:64|96:120,1,180,14|8
36,164,100938,2,2,B|74:200|74:200|122:216|162:200|184:159,1,180,6|0
264,192,101257,2,0,B|354:192,1,90,8|0
408,120,101469,2,0,B|408:64,4,45,14|0|0|0|10
440,200,101789,6,0,B|440:248|440:248|416:312|328:288,1,180,4|2
168,208,102108,2,0,B|168:160|168:160|192:136|240:128,1,90,8|0
256,312,102321,2,0,B|256:360|256:360|232:384|184:392,1,90
152,312,102533,2,0,B|105:301|105:301|63:310,1,90,10|0
280,208,102746,2,0,B|328:208|328:208|384:232,1,90
64,184,102959,2,0,B|67:141|67:141|88:96,1,90,10|0
266,119,103172,2,2,B|170:95|74:103,1,180
341,271,103491,6,2,B|277:231|253:167|269:95,1,180,6|0
352,88,103810,1,8
432,136,103916,1,0
384,216,104023,2,0,B|344:280|296:312|232:344,2,180,2|10|2
344,136,104555,1,0
280,72,104661,1,8
280,72,104767,2,2,B|240:24|152:32|128:112,1,180,2|8
216,128,105086,5,8
216,128,105193,2,2,B|256:168|304:168|336:144|336:144|387:173,1,180,6|0
208,224,105512,2,0,B|184:272|128:288,1,90,8|0
56,256,105725,2,0,B|56:160,2,90,14|0|8
221,328,106044,2,2,B|53:256,1,180,6|0
280,264,106363,2,0,B|320:288|320:344,1,90,8|0
320,341,106576,2,2,B|384:325|416:261|360:189,1,180,14|8
176,176,106895,6,2,B|272:112|272:112|344:128,1,180,6|0
424,96,107214,1,8
424,96,107321,1,0
344,48,107427,2,2,B|272:32|272:32|144:32,1,180,14|8
24,144,107746,2,2,B|49:132|49:132|67:146|67:146|88:136|88:136|120:144|120:144|160:136|160:136|208:144,1,180,6|0
272,304,108065,2,0,B|264:256|216:232,1,90,8|0
129,234,108278,2,0,B|81:234,6,45,14|0|0|0|10|0|0
129,324,108703,5,4
383,324,108916,1,0
256,192,109129,1,0
256,192,109342,1,0
129,60,109555,5,4
383,60,109767,1,0
256,192,109980,1,0
256,192,110193,1,0
256,341,110406,6,2,B|256:288|256:288|240:232|240:232|270:198|270:198|243:161|243:161|265:142|265:142|249:125|249:125|256:112,2,270,6|6|6
375,335,111257,2,0,B|346:305|346:305|338:258,1,90,8|0
136,223,111469,2,0,B|165:188|165:188|176:145,1,90,8|0
256,64,111682,2,0,B|256:8,6,45,8|0|0|0|0|0|4
256,192,115512,12,0,118065
32,136,118278,6,0,B|58:102|58:102|96:72|160:72|208:120,1,180
208,192,118597,1,0
120,160,118703,1,4
120,160,119129,6,0,B|144:200|144:200|160:248|128:296|64:312,2,180,4|0|8
64,232,119661,2,2,B|141:242|141:242|242:230,1,180
360,160,119980,2,0,B|310:150|310:150|258:162,1,90,8|0
316,236,120193,5,4
136,32,120406,1,12
200,352,120831,6,0,B|208:304|208:304|256:248,1,90,8|0
298,336,121044,2,0,B|386:336,2,90,0|0|8
234,272,121363,2,2,B|320:248|336:192|304:120,1,180
232,184,121682,2,0,B|176:200|136:184,1,90,8|0
68,240,121895,5,4
336,284,122108,1,4
336,40,122533,6,0,B|384:56|448:32,1,90,8|0
244,33,122746,2,0,B|252:81|252:81|220:137,1,90
144,104,122959,1,8
184,184,123065,2,2,B|120:272|120:272|32:296,1,180
48,200,123384,1,8
48,200,123491,1,0
48,110,123597,5,4
308,32,123810,1,4
280,256,124235,6,0,B|288:320|344:368|416:320,2,180,8|0|8
200,296,124767,2,0,B|152:312|112:296,2,90
224,208,125086,1,8
280,144,125193,2,2,B|322:106|327:55|287:11|232:8,1,180
152,24,125512,1,8
72,56,125618,1,8
48,144,125725,1,4
232,256,125938,6,0,B|280:224|280:224|424:224,1,180,8|0
480,176,126257,1,0
424,104,126363,1,8
336,96,126469,2,2,B|280:128|280:128|152:128,1,180
8,216,126789,2,0,B|104:264,1,90,8|0
126,337,127001,5,4
356,196,127214,1,4
126,66,127640,5,8
126,66,127746,1,0
126,66,127852,2,0,B|152:128|152:128|272:184,1,180,0|8
176,224,128172,2,2,B|280:272|280:272|328:344,1,180
328,208,128491,2,0,B|352:168|408:160,1,90,8|0
401,70,128703,5,4
156,184,128916,1,4
401,339,129342,6,0,B|448:304|440:240,1,90,8|0
464,176,129555,2,0,B|416:200|352:176,1,90
296,152,129767,1,8
296,242,129874,2,2,B|312:314|288:370|208:378,1,180
200,152,130193,2,0,B|200:96|240:72,1,90,8|0
200,240,130406,2,0,B|160:256|104:256,1,90,4|0
48,192,130618,1,4
48,192,131044,5,8
256,88,131257,1,0
448,192,131469,1,8
184,152,131682,6,0,B|160:112|80:112,2,90,12|8|0
184,242,132001,1,4
184,242,132108,1,8
184,242,132214,2,2,B|216:304|288:328|376:304,1,180,6|2
427,311,132533,1,4
400,72,132746,6,0,B|376:136|320:168|224:144,2,180,4|0|8
264,64,133278,2,2,B|216:80|216:80|168:64|122:77|104:128,1,180
106,211,133597,2,0,B|160:200|186:139,1,90,8|0
32,128,133810,5,4
256,280,134023,1,4
256,280,134448,6,0,B|312:232|184:160|272:96,2,180,8|0|8
256,280,134980,2,2,B|184:264|112:272|48:280,1,180
320,352,135299,2,0,B|376:368|424:352,1,90,8|0
360,280,135512,5,4
488,40,135725,1,4
256,32,136150,6,0,B|192:64|192:64|80:64,1,180,8|0
24,136,136469,1,0
24,225,136576,1,8
96,176,136682,2,2,B|112:232|152:256|200:240|200:240|224:296,1,180
304,304,137001,2,0,B|272:208,1,90,8|0
176,168,137214,5,4
480,168,137427,1,0
480,168,137852,5,8
312,96,138065,2,0,B|392:144|312:216|408:264,1,180,4|8
200,96,138384,2,2,B|120:144|200:216|104:264,1,180,6|2
256,352,138703,2,2,B|262:324|262:324|251:338|251:338|262:291|262:291|249:313|249:313|256:272|256:272|256:250,1,180,14|2
256,163,139023,1,8
256,163,139129,1,8
256,163,139235,6,0,B|224:224|176:208|176:208|136:168|72:208,1,180,4|0
24,32,139555,2,0,B|80:24|128:48,1,90,8|0
64,272,139767,2,2,B|24:240|8:200|16:152|72:104,1,180,2|10
149,116,140086,1,0
149,116,140299,2,0,B|192:96|192:96|240:96,2,90,0|8|0
104,192,140618,5,4
316,24,140831,1,4
316,360,141257,6,0,B|356:384|412:352,1,90,8|0
316,360,141469,2,0,B|356:312|388:264|372:176,1,180,0|8
374,196,141789,1,6
120,96,142001,1,6
256,328,142214,1,6
288,80,142427,2,0,B|280:136|249:208|192:248,1,180,8|8
120,240,142746,6,0,B|72:248|48:304,2,90,4|0|8
196,288,143065,1,0
196,196,143172,2,0,B|223:154|204:92,2,90,4|0|8
120,240,143491,1,0
196,288,143597,2,0,B|228:336|284:328,2,90,4|0|8
272,240,143916,2,0,B|368:240,1,90,4|0
408,164,144129,2,0,B|520:164,2,90,4|8|4
336,128,144448,6,0,B|291:113|291:113|216:128,1,90,8|0
16,256,144661,2,0,B|63:268|63:268|112:256,1,90,8|0
104,128,144874,2,0,B|120:88|120:88|104:38,2,90,8|0|8
232,240,145193,2,0,B|216:288|216:288|240:344,2,90,0|8|0
280,168,145512,1,8
360,216,145618,1,8
432,168,145725,2,0,B|408:128|432:72,2,90,8|0|0
432,168,146044,6,2,B|416:248|384:288|320:296,1,180,6|2
120,304,146363,2,0,B|64:272|64:216,1,90,10|0
208,136,146576,2,0,B|258:154|272:224,1,90,2|0
311,352,146789,2,0,B|273:363|223:346,1,90,2|0
24,103,147001,2,0,B|72:88|112:99,1,90,10|0
288,40,147214,6,2,B|296:56|296:56|275:78|275:78|297:106|297:106|282:130|282:130|296:176|296:176|288:216,1,180,10|2
208,224,147533,1,0
208,224,147640,1,8
208,224,147746,2,2,B|157:249|103:235|78:180|104:120,1,180,6|2
293,196,148065,2,0,B|349:192|405:232,1,90,10|0
200,320,148278,2,0,B|144:352|96:352,1,90,2|0
146,63,148491,2,0,B|192:40|240:32,1,90,10|0
446,144,148703,2,0,B|408:144|360:168,1,90,2|0
0,216,148916,2,0,B|39:192|85:192,1,90,10|0
128,272,149129,5,10
128,272,149235,1,8
128,272,149342,1,8
128,272,149448,2,0,B|145:267|145:267|141:250|141:250|163:252|163:252|171:224|171:224|200:221|200:221|204:176|266:176,1,180,4|2
416,224,149767,2,2,B|360:216|416:296|344:264,1,90,10|2
280,312,149980,2,0,B|320:344|320:344|368:344,2,90,6|0|8
288,224,150299,1,0
328,144,150406,6,0,B|320:88|280:56,1,90,4|0
168,280,150618,2,0,B|176:336|216:368,1,90,10|0
160,144,150831,2,0,B|104:128|56:160,1,90,6|0
336,280,151044,2,2,B|378:273|472:242|496:136|462:69,1,270,14|2
320,184,151469,6,0,B|272:184|272:184|232:136,1,90,8|0
56,32,151682,2,0,B|55:79|55:79|102:120,1,90
88,336,151895,2,0,B|88:240,1,90,10|0
168,48,152108,2,2,B|162:64|162:64|177:84|177:84|163:108|163:108|184:139|184:139|184:176|166:213,1,180,6|10
184,296,152427,1,0
272,288,152533,2,0,B|315:277|384:288,2,90,0|0|8
400,128,152852,2,2,B|383:130|383:130|373:153|373:153|345:153|345:153|329:187|329:187|297:205|256:208,1,180,6|2
272,120,153172,6,0,B|264:72|272:24,1,90,10|0
184,112,153384,2,2,B|136:104|88:112|40:136|8:176,1,180,2|8
32,256,153703,1,0
84,328,153810,2,2,B|183:328|183:328|192:308|192:308|203:328|203:328|256:328,1,180,2|10
392,344,154129,2,0,B|340:344|316:288,1,90,2|0
332,208,154342,1,0
248,236,154448,2,2,B|176:224|128:192|106:131|124:50|176:0|277:15,1,360,14|10
400,120,155086,1,0
256,192,155193,12,0,156150
56,328,156363,6,0,B|56:216,1,90,4|0
56,40,156576,2,0,B|160:64,1,90,10|0
144,240,156789,2,0,B|144:136,1,90,4|0
256,194,157001,2,0,B|256:284,1,90,10|2
456,56,157214,6,0,B|456:168,1,90,4|0
456,344,157427,2,0,B|352:320,1,90,10|0
368,144,157640,2,0,B|368:248,1,90,4|0
256,194,157852,2,0,B|256:104,1,90,10|2
169,317,158065,6,0,B|216:288|208:243,1,90,10|0
382,277,158278,2,0,B|352:232|307:238,1,90,4|0
342,64,158491,2,0,B|296:96|303:140,1,90,10|2
129,105,158703,2,0,B|160:152|204:144,1,90,4|0
72,248,158916,6,0,B|176:216,1,90,4|0
440,136,159129,2,2,B|336:168,1,90,10|0
72,136,159342,2,0,B|176:168,1,90,4|0
440,248,159555,2,0,B|336:216,1,90,10|2
72,136,159767,6,0,B|72:24,1,90,4|0
192,288,159980,2,0,B|192:176,1,90,10|0
312,160,160193,2,0,B|312:48,1,90,4|0
440,338,160406,2,0,B|440:226,1,90,10|2
208,56,160618,6,0,B|224:104|224:104|208:168,1,90,4|0
304,336,160831,2,0,B|290:289|290:289|304:224,1,90,10|0
312,160,161044,2,0,B|358:174|358:174|400:160,2,90,4|0|10
32,232,161363,2,2,B|120:256|120:256|232:232,1,180
368,80,161682,2,0,B|272:80,1,90,10|0
192,112,161895,6,0,B|136:112|96:96,2,90,0|0|10
256,176,162214,1,2
320,232,162320,2,0,B|376:232|416:216,2,90,0|0|10
256,296,162640,1,2
184,352,162746,2,2,B|128:352|88:336,1,90
16,176,162959,2,2,B|72:176|128:200,1,90,10|10
128,280,163172,6,0,B|84:268|84:268|32:280,1,90,4|0
384,104,163384,2,0,B|432:120|432:120|480:104,1,90,8|0
371,229,163597,2,0,B|345:190|345:190|304:176,1,90,8|0
145,157,163810,2,0,B|174:195|174:195|212:216,1,90,4|0
275,280,164023,6,0,B|213:216,1,90,4|0
129,48,164235,2,0,B|215:113,1,90,8|0
296,56,164448,2,2,B|344:8|424:128|464:48,1,180,6|10
216,328,164767,2,2,B|168:376|88:256|48:336,1,180,6|2
80,184,165086,6,2,B|40:176|20:140|25:77|70:46|131:52|165:72|176:96|206:117|109:228|192:248|248:256|304:216,1,450,10|2
408,112,165725,2,2,B|368:72|328:64|272:96|264:136,1,180,6|10
344,176,166044,1,0
432,192,166150,2,0,B|432:296,1,90,12|0
344,280,166363,2,0,B|248:350,1,90,12|8
40,248,166576,6,2,B|192:384,1,180,6|10
208,288,166895,1,0
80,176,167001,2,0,B|152:232,1,90,4|0
208,56,167214,2,0,B|160:152,1,90,8|0
336,192,167427,2,0,B|264:136,1,90,4|0
400,16,167640,2,0,B|336:96,1,90,8|0
512,160,167852,2,0,B|439:107,1,90,4|0
360,272,168065,2,0,B|424:208,1,90,8|0
288,256,168278,6,2,B|208:320,1,90,6|2
128,320,168491,1,8
56,264,168597,1,0
24,176,168703,1,8
72,104,168810,1,8
152,64,168916,1,8
232,104,169023,1,8
256,192,169129,6,2,B|272:176|272:176|272:192|272:192|288:176|288:176|288:192|288:192|304:176|304:176|304:192|304:192|320:176|320:176|320:192|320:192|336:176|336:176|336:192|336:192|352:176|352:176|352:192|352:192|368:176|368:176|368:192|368:192|384:192,1,270,6|2
480,280,169555,2,2,B|464:264|464:264|464:280|464:280|448:264|448:264|448:280|448:280|432:264|432:264|432:280|432:280|416:264|416:264|416:280|416:280|400:264|400:264|400:280|400:280|384:264|384:264|384:280|384:280|368:264|368:264|368:280|368:280|352:280,1,270,6|0
272,336,169980,6,0,B|232:312|184:320,1,90,4|0
112,208,170193,2,0,B|136:168|128:120,1,90,0|0
240,48,170406,2,0,B|280:72|328:64,1,90,8|0
400,176,170618,2,0,B|376:216|384:264,1,90,12|0
221,359,170831,6,0,B|185:317|128:309,1,90,4|0
88,157,171044,2,0,B|130:121|138:64,1,90
290,24,171257,2,0,B|326:66|383:74,1,90,8|0
423,226,171469,2,0,B|381:262|373:319,1,90,12|0
166,361,171682,6,0,B|140:305|82:279,1,90,4|0
86,102,171895,2,0,B|142:76|168:18,1,90
345,22,172108,2,0,B|371:78|429:104,1,90,8|0
425,281,172320,2,0,B|369:307|343:365,1,90,12|0
93,325,172533,6,0,B|90:257|43:205,1,90,6|0
122,29,172746,2,2,B|190:26|242:-20,1,90,6|6
480,160,172959,2,2,B|442:154|442:154|422:162|422:162|395:156|395:156|368:168|368:168|347:160|347:160|320:168|320:168|275:155,1,180,6|2
96,160,173278,6,2,B|96:208|96:208|120:256|168:272|240:256,1,180,4|2
240,112,173597,2,0,B|216:160|168:192,1,90,8|0
120,336,173810,2,2,B|217:324|265:340|329:364,1,180,2|8
384,344,174129,1,0
344,264,174235,2,0,B|340:217|364:176,1,90
344,8,174448,2,2,B|358:49|324:96,1,90,10|0
119,334,174661,2,2,B|127:262|151:206|223:142,1,180,0|8
67,59,174980,6,2,B|74:119|130:160|217:180,1,180,4|2
352,112,175299,2,0,B|304:102|248:112,1,90,8|0
360,208,175512,2,0,B|408:223|464:208,1,90
440,32,175725,2,2,B|432:80|440:144,1,90,10|0
456,304,175938,2,2,B|392:336|336:344|256:328,1,180,6|8
48,216,176257,2,2,B|112:248|168:256|248:240,1,180,6|0
255,162,176576,1,8
168,160,176682,6,0,B|120:208|104:264|112:336,1,180,4|0
168,160,177001,2,0,B|216:180|284:152,1,90,8|0
343,208,177214,2,0,B|399:220|427:260,2,90,12|0|8
408,48,177533,6,2,B|408:168|320:224,1,180,6|2
301,348,177852,2,2,B|254:373|200:344,1,90,14|0
256,268,178065,1,12
256,176,178172,1,8
256,88,178278,1,8
180,80,178384,6,0,B|124:88|124:88|76:120|60:160|80:224,1,180,4|0
168,216,178703,1,8
168,216,178810,1,0
108,284,178916,2,0,B|308:284,1,180,12|8
436,308,179235,2,2,B|228:308,1,180,6|2
168,216,179555,2,0,B|280:216,1,90,14|0
332,168,179767,2,0,B|388:168,4,45,2|0|0|0|10
256,216,180086,6,2,B|312:168|184:104|272:40,1,180,4|2
168,52,180406,2,0,B|136:92|72:108,1,90,8|0
168,340,180618,2,0,B|136:300|72:284,1,90
16,192,180831,2,2,B|128:192,1,90,10|0
312,72,181044,2,0,B|248:152,1,90,4|0
416,296,181257,2,2,B|352:216,1,90,10|0
426,99,181469,2,10,B|464:152,4,45,10|0|0|0|8
426,99,181789,6,2,B|370:143|298:151|214:139,1,180,6|2
224,40,182108,2,0,B|194:71|184:119,1,90,8|0
24,200,182320,2,0,B|71:209|118:244,1,90
208,384,182533,2,0,B|242:345|232:283,1,90,14|0
304,184,182746,2,0,B|346:208|401:221,2,90,6|0|8
304,184,183065,2,2,B|272:256|216:288|144:296,1,180,6|8
88,328,183384,5,8
88,328,183491,2,2,B|136:304|176:256|208:184,1,180,6|2
120,32,183810,2,0,B|128:88|176:112,1,90,8|0
248,72,184023,2,0,B|352:72,2,90,12|0|0
296,152,184342,2,2,B|488:152,1,180,6|0
481,237,184661,2,0,B|504:200|476:152,1,90,6|0
416,296,184874,1,10
416,296,184980,1,8
416,296,185086,1,8
344,248,185193,6,2,B|312:192|256:160|168:160,1,180,6|2
178,245,185512,2,0,B|208:216|195:161,1,90,8|0
152,372,185725,2,0,B|216:384|261:338|256:256,1,180,12|8
220,24,186044,2,2,B|157:13|112:59|117:141,1,180,6|2
44,372,186363,2,0,B|44:276,1,90,6|0
43,192,186576,5,12
43,192,186682,1,8
43,192,186789,1,8
43,192,186895,2,0,B|83:160|115:232|159:184,1,112.5,2|0
148,193,187214,6,0,B|271:191,1,90,4|0
320,152,187427,2,0,B|294:107|320:48,1,90,8|0
320,232,187640,2,0,B|294:277|320:336,1,90,8|0
408,32,187852,2,0,B|456:48|464:104,1,90,8|0
408,352,188065,2,0,B|456:336|464:280,1,90,8|0
480,192,188278,6,0,B|296:192,1,180,12|0
208,144,188597,2,2,B|152:168|152:168|88:168|88:168|16:128,1,180,6|2
272,88,188916,2,0,B|376:88,1,90,8|0
224,224,189129,2,0,B|192:248|192:248|192:304,1,90
368,272,189342,2,0,B|392:304|392:304|448:304,1,90,12|0
424,56,189555,2,2,B|368:88|368:88|368:176|368:224,1,180,2|8
296,360,189874,2,2,B|304:344|304:344|288:328|288:328|304:296|304:296|288:264|288:264|304:240|304:240|288:208|288:208|296:168,1,180,6|2
264,120,190193,1,8
184,80,190299,6,0,B|152:32|152:32|104:16|64:32|32:72,1,180,4|0
112,120,190618,2,0,B|153:141|176:180,1,90,8|0
88,200,190831,2,0,B|48:216|16:256,2,90,8|0|8
112,288,191150,2,2,B|176:296|240:272|288:200,1,180,6|2
313,301,191469,2,0,B|312:248|252:208,1,90,4|0
424,324,191682,2,2,B|417:256|392:196|332:148,1,180,14|10
240,152,192001,6,0,B|200:168|144:160|120:104|149:42,1,180,4|0
232,32,192320,1,8
320,48,192427,1,0
408,24,192533,2,0,B|488:200,1,180,12|8
256,320,192852,2,2,B|392:192,1,180,6|2
180,85,193172,2,0,B|260:173,1,90,6|0
288,232,193384,1,10
288,232,193491,1,8
288,232,193597,1,8
200,232,193703,6,0,B|184:288|184:288|128:344|64:312,1,180,4|0
112,232,194023,2,0,B|120:176|168:152,1,90,8|0
320,88,194235,2,0,B|296:128|240:152,1,90
112,32,194448,2,0,B|160:40|208:88,1,90,8|0
384,48,194661,2,0,B|400:96|368:152,1,90,0|0
472,288,194874,2,0,B|432:320|368:320,1,90,8|0
128,376,195086,2,0,B|127:324|166:274,1,90,4|0
440,168,195299,6,2,B|418:181|418:181|404:200|404:200|387:208|387:208|385:237|348:259|272:264|208:240|192:184,1,270,14|2
120,192,195725,2,0,B|144:144|200:128,1,90,8|0
231,341,195938,2,0,B|175:325|151:285,1,90
384,240,196150,2,0,B|360:288|304:304,1,90,8|0
294,98,196363,2,0,B|342:122|366:170,2,90,6|0|8
224,40,196682,2,2,B|24:40,1,180,6|8
44,40,197001,1,8
44,40,197108,6,2,B|104:104|-24:136|64:224,1,180,6|2
136,184,197427,1,8
136,184,197533,1,0
104,272,197640,2,0,B|88:320|32:344,2,90,4|0|8
184,312,197959,2,2,B|272:304|312:288|376:216,1,180,6|0
392,80,198278,2,0,B|448:88|504:132,1,90,14|0
512,192,198491,5,6
512,192,198597,1,0
512,192,198703,1,8
512,192,198810,2,2,B|296:192,1,180,6|2
256,144,199129,1,8
224,232,199235,6,0,B|168:208|168:152,2,90,0|12|0
224,232,199555,1,8
224,232,199661,2,2,B|296:248|344:288|360:344,1,180,6|2
224,232,199980,2,0,B|200:280|144:288,1,90,12|0
64,288,200193,1,14
64,200,200299,1,8
64,112,200406,1,8
64,24,200512,1,8
144,64,200618,5,4
320,120,200831,1,0
144,320,201044,5,0
320,264,201257,1,0
407,34,201469,5,4
192,104,201682,1,0
407,348,201895,5,0
192,280,202108,1,0
392,96,202320,6,2,B|361:108|361:108|351:135|351:135|316:141|316:141|297:168|297:168|269:185|269:185|236:208,1,180,6|0
120,96,202640,2,2,B|151:108|151:108|161:135|161:135|196:141|196:141|215:168|215:168|243:185|243:185|276:208,1,180,6|0
251,274,202959,2,2,B|263:238|263:238|247:214|247:214|269:169,1,90,6|0
256,84,203172,5,0
356,232,203384,1,0
156,232,203597,2,0,B|156:293,4,45,8|0|0|0|8
64,228,203916,6,0,B|116:216|116:216|160:196|184:140|168:96,1,180,4|0
80,120,204235,2,0,B|84:60|136:36,1,90,8|0
244,176,204448,2,0,B|244:276,2,90,0|0|8
292,100,204767,6,0,B|340:64|392:60|440:96|456:148,1,180,4|0
472,288,205086,2,0,B|432:264|429:212,1,90,8|0
360,156,205299,2,0,B|344:200|288:228,2,90,0|0|8
292,100,205618,6,0,B|100:100,1,180,4|0
16,256,205938,2,0,B|16:152,1,90,8|0
104,184,206150,2,0,B|140:212|196:212,2,90,0|0|8
180,312,206469,6,2,B|224:348|224:348|356:348,1,180,6|2
404,280,206789,2,0,B|452:188,1,90,12|0
444,112,207001,1,14
364,68,207108,1,8
288,24,207214,1,8
200,0,207320,6,0,B|148:24|112:60|116:112|144:164,1,180,4|0
204,204,207640,1,8
204,204,207746,1,0
204,204,207852,2,0,B|232:160|212:104,2,90,0|0|8
220,284,208172,6,0,B|32:336,1,180,4|0
68,236,208491,1,8
68,236,208597,1,0
68,236,208703,2,0,B|112:208|112:208|112:152,2,90,0|0|8
292,284,209023,6,0,B|480:336,1,180,4|0
444,236,209342,1,8
444,236,209448,1,0
444,236,209555,2,0,B|408:204|408:204|408:156,2,90,0|0|8
342,200,209874,6,2,B|300:220|256:228|212:220|155:196,1,180,6|2
208,124,210193,2,0,B|256:148|307:120,1,90,14|0
256,36,210406,1,14
256,36,210512,1,8
256,36,210618,1,0
156,36,210725,6,0,B|96:40|56:60|40:92|40:160,1,180,4|0
40,244,211044,2,0,B|128:244,1,90,8|0
156,156,211257,1,0
228,212,211363,1,0
256,296,211469,1,8
336,336,211576,6,0,B|396:332|436:312|452:280|452:212,1,180,4|0
452,128,211895,2,0,B|364:128,1,90,8|0
292,68,212108,1,0
204,80,212214,1,0
156,156,212320,1,8
246,156,212427,6,0,B|246:212|230:276|194:300|130:300,1,180,4|0
80,260,212746,2,0,B|112:216|160:208,1,90,4|0
148,116,212959,1,12
60,108,213065,1,8
20,188,213172,1,8
80,260,213278,6,2,B|116:304|168:332|224:336|260:332,1,180,6|2
416,268,213597,2,0,B|368:244|308:248,1,90,12|0
256,192,213810,1,14
256,192,213916,1,8
256,192,214023,1,8
256,192,214129,12,0,216576
256,56,216682,6,2,B|300:136|188:156|276:248,1,180,6|2
257,317,217001,1,8
257,317,217108,1,8
168,316,217214,6,0,B|168:208,1,90,8|8
344,68,217427,2,0,B|344:176,1,90,8|12
