osu file format v8

[General]
AudioFilename: Hatsune Miku - No Title.mp3
AudioLeadIn: 0
PreviewTime: 0
Countdown: 0
SampleSet: Normal
StackLeniency: 0.7
Mode: 0
LetterboxInBreaks: 1
StoryFireInFront: 0
EpilepsyWarning: 1

[Editor]
DistanceSpacing: 0.8
BeatDivisor: 4
GridSize: 8

[Metadata]
Title:No Title
Artist:Hatsune Miku
Creator:Matsuri
Version:Hard
Source:Vocaloid
Tags:YunomiP

[Difficulty]
HPDrainRate:7
CircleSize:5
OverallDifficulty:7
ApproachRate:7
SliderMultiplier:1.4
SliderTickRate:2

[Events]
//Background and Video events
0,0,"Miku-BG.jpg"
//Break Periods
2,22811,23279
2,43408,44099
2,86393,86861
2,103408,104995
2,150423,156935
2,163408,163876
2,220722,221413
//Storyboard Layer 0 (Background)
//Storyboard Layer 1 (Fail)
//Storyboard Layer 2 (Pass)
//Storyboard Layer 3 (Foreground)
//Storyboard Sound Samples
//Background Colour Transformations
3,100,163,162,255

[TimingPoints]
7388,447.761194029851,4,2,0,80,1,0
28432,-100,4,1,1,80,0,1
43208,-100,4,2,0,80,0,0
89328,-100,4,1,1,80,0,1
103208,-100,4,2,0,80,0,0
135895,-100,4,1,1,80,0,1
150671,-100,4,2,0,80,0,0
193208,-100,4,1,1,80,0,1
206193,-100,4,2,0,80,0,0
207537,-100,4,1,1,80,0,1
220522,-100,4,1,1,80,0,0
222313,-100,4,1,1,80,0,1
234402,-100,4,1,1,80,0,1
234514,-100,4,1,0,80,0,0

[Colours]
Combo1 : 77,77,77
Combo2 : 32,185,85
Combo3 : 128,128,192

[HitObjects]
256,320,7387,6,0,B|256:24,1,280
256,40,8731,1,0
360,88,9179,1,2
360,88,9626,1,0
416,184,10074,1,2
418,185,10522,1,0
360,280,10970,1,2
358,280,11417,5,0
256,328,11865,1,2
257,327,12313,1,0
160,272,12761,1,2
161,271,13208,1,0
80,192,13656,1,2
81,192,14104,1,0
192,192,14552,2,0,C|416:192,2,210
192,192,16343,1,0
152,88,16795,5,0
152,88,17242,1,2
256,60,17686,1,0
256,62,18134,1,2
352,120,18582,1,0
352,121,19029,5,2
432,192,19477,1,0
431,191,19925,1,2
360,280,20373,1,0
359,281,20820,1,2
256,312,21268,1,0
192,160,21716,2,0,C|224:232|288:144|328:240,1,280
256,192,24179,12,4,27537
256,192,27985,5,0
184,272,28432,6,0,B|104:272|104:176,1,140
192,104,29328,2,0,B|288:104|288:200,1,140
344,280,30223,2,0,B|432:280|432:192,1,140
344,128,31119,1,0
296,152,31343,1,0
248,128,31567,1,0
152,80,32014,5,0
104,112,32238,1,8
88,168,32462,1,0
120,272,32910,2,0,L|160:312|184:280|232:296,1,140
336,304,33805,5,0
392,288,34029,1,8
424,240,34253,1,0
440,128,34701,2,0,L|416:80|384:104|336:64,1,140
280,160,35596,5,0
232,128,35820,1,8
184,104,36044,1,0
72,104,36492,2,0,B|16:160|40:248,1,140
120,312,37388,5,0
168,336,37611,1,8
224,336,37835,1,0
312,264,38283,2,0,L|352:200|304:128,1,140
216,200,39179,2,0,L|168:136|224:80,1,140
256,192,40074,12,4,43208
368,256,44999,6,0,L|280:256,1,70
240,256,45447,1,0
240,256,45671,1,0
184,272,45895,1,0
184,272,46119,1,8
128,248,46343,1,0
128,248,46567,1,0
104,200,46790,2,0,B|80:112|144:64,1,140
136,72,47462,1,0
136,72,47686,1,0
264,176,48358,6,0,L|304:224|344:152|432:168,1,210
488,240,49477,1,0
456,288,49701,1,8
408,320,49925,1,0
296,328,50373,2,0,B|144:328,1,140
256,264,51268,1,0
256,208,51492,1,8
256,152,51716,1,0
152,192,52164,6,0,B|96:120|144:48,1,140
248,40,53059,2,0,L|296:32|280:96|336:96,1,140
416,88,53955,2,0,B|464:144|408:248,1,140
312,232,54850,5,0
208,192,55298,2,0,L|136:192,2,70
256,88,56193,2,0,L|256:8,2,70
304,192,57089,2,0,L|392:192,2,70
256,264,57985,2,0,L|256:336,2,70
152,296,59328,5,0
104,272,59552,1,8
72,232,59776,1,2
24,152,60223,2,0,B|24:64|120:64,1,140
200,104,61119,1,0
248,128,61343,1,8
296,104,61567,1,2
360,48,62014,6,0,B|440:8|496:80,1,140
488,160,62910,1,0
488,216,63134,1,8
456,264,63358,1,0
344,280,63805,2,0,B|184:280,1,140
256,192,64701,12,0,66044
192,192,66492,5,0
256,192,66716,1,8
320,192,66940,1,0
256,256,67388,1,0
256,192,67611,1,8
256,128,67835,1,0
320,192,68283,5,0
256,192,68507,1,8
192,192,68731,1,0
192,192,69179,1,0
256,192,69402,1,8
320,192,69626,1,0
256,192,70074,12,4,73208
256,192,73880,5,0
256,192,74104,1,0
256,192,74328,1,0
256,192,74552,1,0
256,192,74776,1,0
256,192,74999,1,4
184,56,75447,6,2,B|360:56,1,140
320,56,76119,1,0
320,56,76343,1,0
456,160,77014,1,0
456,160,77126,1,0
456,160,77238,1,0
400,256,77686,6,0,C|360:312|264:312,1,140
232,312,78358,1,0
192,272,78582,1,0
144,296,78805,1,0
96,264,79029,1,0
112,208,79253,1,0
56,192,79477,1,0
80,144,79701,1,0
112,96,79925,1,0
256,192,80596,12,2,81716
256,192,82164,5,2
256,192,82611,12,2,83506
256,192,83955,5,2
256,192,84402,12,4,86193
256,280,87761,5,8
256,208,87985,1,8
248,128,88320,1,8
248,128,88656,2,0,B|248:48,1,70
248,56,89328,6,4,B|416:56,1,140
496,80,90223,1,0
480,136,90447,1,8
448,184,90671,1,0
376,272,91119,2,0,B|336:328|240:320,1,140
248,208,92014,1,0
208,168,92238,1,8
168,208,92462,1,0
80,272,92910,6,0,L|56:216|0:200|8:168,1,140
72,88,93805,1,0
120,56,94029,1,8
168,32,94253,1,0
280,48,94701,2,0,C|328:48|352:80|424:80,1,140
480,160,95596,1,0
456,208,95820,1,8
408,240,96044,1,0
360,136,96492,6,0,B|264:136|264:232,1,140
256,328,97388,1,0
208,360,97611,1,8
160,336,97835,1,0
104,240,98283,6,0,B|56:176|112:104,1,140
392,112,99179,2,0,B|440:184|384:248,1,140
256,40,100298,6,0,B|256:88,2,35
176,120,100970,2,2,B|176:240|344:240|344:104,1,280
336,224,102313,2,6,B|336:104|160:104|160:240,1,280
160,328,105895,6,0,B|80:312|56:208,1,140
8,136,106790,1,0
32,88,107014,1,8
88,72,107238,1,0
192,104,107686,2,2,B|264:112|288:168|328:184,1,140
360,272,108582,1,0
408,296,108805,1,8
456,272,109029,1,0
496,168,109477,6,0,B|528:80|448:32,1,140
352,40,110373,1,0
296,56,110596,1,8
256,96,110820,1,0
256,192,111268,12,0,112611
32,192,113059,5,0
256,24,113507,1,0
480,192,113955,1,0
256,344,114402,1,0
256,192,114850,12,2,115746
256,24,116193,5,0
256,352,116641,1,0
480,192,117089,1,0
32,192,117537,1,0
256,192,117985,12,4,119776
256,192,120447,5,2
256,192,120671,1,2
256,192,120895,1,2
256,192,121119,1,2
256,192,121343,1,2
256,192,121567,1,6
200,288,122014,6,2,B|368:288,1,140
448,272,122910,1,0
448,272,123134,1,8
448,272,123358,1,0
360,208,123805,6,0,B|424:144|360:80,1,140
144,208,124701,2,0,B|72:136|144:80,1,140
256,224,125596,2,2,B|256:72,2,140
256,192,126940,12,0,127835
256,192,128283,5,8
256,192,128731,12,0,129626
256,192,130074,5,8
256,192,130522,12,4,133208
120,208,134328,5,8
176,208,134552,1,8
256,200,134888,1,8
256,200,135223,2,8,B|256:104,1,70
192,48,135895,6,2,B|352:48,1,140
448,48,136790,1,0
480,96,137014,1,8
464,152,137238,1,0
432,256,137686,2,0,B|408:336|320:360,1,140
232,336,138582,1,0
176,336,138805,1,8
232,336,139029,1,0
152,240,139477,6,0,B|112:176|152:88,1,140
360,104,140373,2,0,B|400:176|352:272,1,140
256,192,141268,1,0
256,192,141492,1,8
256,192,141716,1,0
256,192,142164,12,0,143059
136,168,143507,6,0,B|152:88|240:72,1,140
384,208,144402,2,0,B|360:288|264:304,1,140
256,192,145298,1,0
136,168,145746,2,0,B|160:80|248:64,1,140
384,208,146641,2,0,B|360:288|272:304,1,140
256,192,147537,12,4,150223
208,176,157835,6,0,L|32:192|32:216|280:192|512:352|528:376|552:352|560:320|528:328|304:176|96:0|80:16|256:176|216:176,1,1680
128,272,164776,5,0
128,272,164999,2,0,C|288:272,1,140
268,272,165671,1,0
268,272,165895,1,0
424,208,166567,1,0
424,208,166679,1,0
424,208,166790,1,0
352,112,167462,2,0,C|296:56|240:112|192:72,1,210
203,83,168358,1,0
203,83,168582,1,0
104,144,169029,5,0
104,200,169253,1,0
136,248,169477,1,0
176,280,169701,1,0
232,296,169925,1,0
288,288,170149,1,0
328,248,170373,1,0
352,200,170596,1,0
360,144,170820,1,0
256,192,171716,12,2,173059
256,192,173507,12,2,174626
384,240,175074,6,2,L|352:240|344:224|336:240|328:224|320:240|312:224|304:240|296:224|288:240|280:224|272:240|264:224|256:240|248:224|240:240|232:224|224:240|216:224|208:240|200:224|192:240|144:240,1,420
256,40,177313,5,8
256,96,177537,1,8
256,176,177873,1,8
256,176,178208,2,8,L|256:272,1,70
88,288,178880,6,2,B|256:288,1,140
312,216,179776,2,2,B|144:216,1,140
248,136,180671,2,2,B|408:136,1,140
472,56,181567,2,2,B|296:56,1,140
280,152,182462,6,2,B|320:152,4,35
192,224,183358,1,0
144,192,183582,1,0
112,144,183805,1,0
184,56,184253,5,0
240,40,184477,1,0
296,56,184701,1,0
384,128,185149,1,0
368,184,185373,1,0
328,224,185596,1,0
248,152,186044,6,2,B|296:152,4,35
136,168,186940,1,0
112,216,187164,1,0
136,264,187388,1,0
240,296,187835,5,0
296,312,188059,1,0
344,288,188283,1,0
416,200,188731,1,0
400,144,188955,1,0
352,120,189179,1,0
288,64,189626,6,2,B|224:64,4,35
256,192,190522,12,4,192761
168,208,193208,6,0,B|168:120|256:96,1,140,0|8
336,168,194104,2,2,B|336:264|248:288,1,140,2|10
256,192,194999,1,4
120,96,195447,5,8
120,96,195671,1,0
120,96,195895,1,8
392,272,196343,1,8
392,272,196567,1,0
392,272,196790,1,8
200,304,197238,5,0
152,280,197462,1,8
120,232,197686,1,0
120,120,198134,1,0
152,72,198358,1,8
200,48,198582,1,0
312,48,199029,5,0
360,80,199253,1,8
392,128,199477,1,0
400,240,199925,1,0
376,288,200149,1,8
328,312,200373,1,0
256,232,200820,5,0
256,176,201044,1,8
256,120,201268,1,0
168,192,201716,1,0
112,192,201940,1,8
56,192,202164,1,0
352,192,202611,5,0
408,192,202835,1,8
464,192,203059,1,0
256,232,203507,1,0
256,176,203731,1,8
256,120,203955,1,0
256,192,204402,12,4,206193
40,56,207537,5,0
96,56,207761,1,8
152,56,207985,1,0
200,144,208432,1,0
200,144,208656,1,8
200,144,208880,1,0
232,232,209328,5,0
288,232,209552,1,8
344,232,209776,1,0
408,312,210223,1,0
408,312,210447,1,8
408,312,210671,1,0
184,248,211119,6,0,B|128:304,2,70,0|8|0
328,136,212014,2,0,B|384:80,2,70,0|8|0
176,136,212910,2,0,B|112:80,2,70,0|8|0
328,248,213805,2,0,B|384:304,2,70,0|8|0
256,264,214701,5,0
256,128,215149,1,0
192,192,215596,1,0
320,192,216044,1,0
376,72,216492,5,0
136,80,216940,1,0
136,280,217388,1,0
384,288,217835,1,0
256,192,218283,1,0
256,192,218731,12,4,220522
216,192,222313,5,4
256,160,222761,1,8
296,192,223208,1,0
256,224,223656,1,8
160,192,224104,5,0
256,112,224552,1,8
344,192,224999,1,0
256,280,225447,5,8
104,192,225895,1,0
256,56,226343,1,8
400,192,226790,1,0
256,336,227238,1,8
400,192,227686,1,0
48,192,228134,1,8
256,0,228582,5,0
176,80,229029,1,8
104,168,229477,1,0
168,264,229925,1,8
256,336,230373,1,0
336,264,230820,1,8
400,168,231268,1,0
256,192,231716,12,4,234402
256,192,234850,5,4
176,192,235186,5,4
336,192,235522,5,4
