osu file format v6

[General]
AudioFilename: Nijiiro Chouchou.mp3
AudioLeadIn: 1996
PreviewTime: 19241
Countdown: 0
SampleSet: Soft
StackLeniency: 0.7
Mode: 0
LetterboxInBreaks: 1

[Editor]
DistanceSpacing: 1.20000004768372
BeatDivisor: 4
GridSize: 8

[Metadata]
Title:Nijiiro Chouchou
Artist:Hatsune Miku
Creator:gdeath
Version:Hard
Source:Kurousa-P
Tags:abalee WyndII

[Difficulty]
HPDrainRate:6
CircleSize:5
OverallDifficulty:7
SliderMultiplier:1.5
SliderTickRate:0.5

[Events]
//Background and Video events
0,0,"miku26.jpg"
//Break Periods
2,9441,18644
2,87926,96220
2,164593,168947
2,174290,178644
//Storyboard Layer 0 (Background)
//Storyboard Layer 1 (Fail)
//Storyboard Layer 2 (Pass)
//Storyboard Layer 3 (Foreground)
//Storyboard Sound Samples
//Background Colour Transformations
3,100,163,162,255

[TimingPoints]
757,606.060606060606,4,2,2,50,1,0
19410,-100,4,2,2,50,0,0
28500,-100,4,2,2,64,0,0
29106,-100,4,2,2,50,0,0
36682,-100,4,2,2,65,0,0
37288,-100,4,2,2,50,0,0
38803,-100,4,2,1,60,0,0
47591,-100,4,2,1,50,0,0
48349,-100,4,2,1,60,0,0
58197,-100,4,2,2,80,0,0
58803,-100,4,2,1,60,0,0
64864,-100,4,2,1,73,0,0
66076,-100,4,2,1,85,0,0
67894,-100,4,2,1,84,0,0
75773,-100,4,2,1,73,0,0
77591,-100,4,2,2,84,0,0
87575,-100,4,2,2,0,0,0
96985,-100,4,2,1,60,0,0
105773,-100,4,2,1,50,0,0
106682,-100,4,2,1,60,0,0
123046,-100,4,2,1,77,0,0
124258,-100,4,2,1,86,0,0
126076,-100,4,2,1,70,0,0
133955,-100,4,2,1,71,0,0
135773,-100,4,2,1,60,0,0
140016,-100,4,2,2,80,0,0
140622,-100,4,2,1,60,0,0
143046,-100,4,2,1,60,0,0
144864,-100,4,2,1,90,0,0
160016,-100,4,2,2,80,0,0
160622,-200,4,2,1,60,0,0
161379,-100,4,2,1,60,0,0
161834,-100,4,2,1,42,0,0
163046,-200,4,2,1,25,0,0
164410,-100,4,2,1,0,0,0
169713,-100,4,2,2,80,0,0
183652,-100,4,2,2,100,0,0
184258,-100,4,2,1,60,0,0
188500,-100,4,2,2,90,0,0
189106,-100,4,2,1,60,0,0
192137,-100,4,2,1,70,0,0
193955,-100,4,2,1,60,0,0
198197,-100,4,2,2,81,0,0
198803,-100,4,2,1,60,0,0
200622,-100,4,2,2,82,0,0
201228,-100,4,2,1,70,0,0
204258,-100,4,2,2,100,0,0

[Colours]
Combo1 : 255,128,255
Combo2 : 255,0,128
Combo3 : 128,255,255
Combo4 : 255,128,0

[HitObjects]
352,144,756,1,2
352,144,908,1,0
352,144,1060,2,0,B|360:192|312:208,1,75,0|0
232,176,1666,1,0
176,104,1969,1,2
120,168,2272,2,0,B|80:184|88:248|88:248|88:240,1,75,0|0
87,230,2878,1,0
304,192,3181,5,2
352,272,3484,1,0
440,272,3787,1,0
440,272,3938,1,0
440,272,4090,1,0
480,192,4393,1,4
88,56,5302,5,0
176,80,5605,2,0,B|208:48,2,37.5,2|0|0
120,152,6211,1,0
88,240,6514,1,0
168,280,6817,2,0,B|176:328,2,37.5,2|0|0
248,232,7423,1,0
328,272,7726,1,0
456,64,8029,5,2
368,80,8332,1,0
328,160,8635,1,0
240,136,8938,1,0
272,48,9241,1,4
392,104,19544,5,0
392,104,20150,1,2
368,192,20453,1,0
304,256,20757,1,0
216,232,21060,2,0,B|152:288,2,75,0|2|0
184,144,21969,5,0
232,72,22272,1,0
304,120,22575,1,2
376,64,22878,2,0,B|456:64,2,75
288,64,23787,2,0,B|240:56|216:112,1,75,2|0
192,176,24393,5,0
192,176,24696,1,0
192,264,24999,2,0,B|184:312|232:328,1,75,2|0
312,304,25605,1,0
344,216,25908,1,0
416,272,26211,2,0,B|472:280|480:208,1,75,2|0
432,160,26817,5,0
416,72,27120,1,0
328,104,27423,2,0,B|264:152,1,75,2|0
184,120,28029,2,0,B|248:72,1,75,0|0
168,24,28635,1,4
120,200,29241,5,0
120,200,29847,2,0,B|120:280,1,75,2|0
192,328,30453,2,0,B|192:240,1,75
264,200,31060,2,0,B|264:296,1,75,2|0
352,280,31666,5,0
440,280,31969,1,0
352,280,32272,1,2
440,280,32575,1,0
472,192,32878,1,0
424,112,33181,2,0,B|392:80|344:120,2,75,0|2|0
392,192,34090,5,0
352,272,34393,1,0
296,200,34696,2,0,B|264:168|216:192,1,75,2|0
216,272,35302,2,0,B|168:296|136:248,2,75,0|0|2
184,184,36211,1,0
120,120,36514,1,0
184,56,36817,1,4
184,56,37423,5,2
256,112,37726,1,2
328,56,38029,1,2
344,144,38332,1,2
344,144,38484,1,0
344,144,38635,1,0
296,240,38938,5,8
208,304,39241,1,0
112,256,39544,1,0
184,176,39847,2,0,B|128:104,2,75,0|8|0
184,176,40757,1,0
376,32,41363,5,8
448,64,41666,1,0
480,136,41969,1,0
136,352,42575,5,8
64,320,42878,1,0
32,248,43181,1,0
376,352,43787,5,8
448,320,44090,1,0
480,248,44393,1,0
136,32,44999,5,8
64,64,45302,1,0
32,136,45605,1,0
256,192,46211,5,8
256,88,46514,1,0
256,192,46817,2,0,B|256:272,2,75,0|0|8
256,192,47726,5,4
256,192,48029,1,4
240,40,48635,5,8
344,64,48938,1,0
304,160,49241,2,0,B|312:208|384:216,2,75,0|0|8
408,144,50150,1,0
424,248,50453,1,0
424,248,51060,5,8
336,312,51363,1,0
248,248,51666,1,0
88,136,52272,5,8
176,72,52575,1,0
264,136,52878,1,0
216,344,53484,6,0,B|280:336|288:272,1,75,8|0
200,232,54090,1,0
200,232,54241,1,0
200,232,54393,1,0
160,136,54696,2,0,B|112:144|104:192,1,75,8|0
200,232,55302,1,0
304,216,55605,2,0,B|304:160|240:152,1,75,0|8
200,232,56211,1,0
96,256,56514,2,0,B|96:304|160:320,1,75
200,232,57120,5,8
200,232,57272,1,0
200,232,57423,1,0
200,232,57726,1,0
200,232,58332,1,4
344,80,58938,5,4
440,120,59241,1,0
368,200,59544,2,0,B|416:216|408:280,2,75,0|0|2
304,288,60453,2,0,B|264:272|264:224,2,75
216,352,61363,5,2
168,256,61666,1,0
88,328,61969,2,0,B|48:312|48:264,1,75,0|0
96,176,62575,2,0,B|80:128|136:96,1,75,2|0
224,112,63181,2,0,B|264:80|304:104,1,75,0|0
344,192,63787,5,4
408,272,64090,1,0
344,352,64393,1,0
272,272,64696,1,0
208,192,64999,5,4
144,272,65302,1,0
208,352,65605,1,0
208,248,65908,1,0
208,248,66211,5,4
64,64,66514,1,4
352,64,66817,1,4
136,160,67120,1,4
280,160,67423,1,4
40,344,68029,5,0
128,296,68332,1,0
96,192,68635,2,0,B|112:104,1,75,2|0
208,160,69241,2,0,B|280:120,1,75
296,224,69847,2,0,B|376:256,2,75,2|0|0
216,288,70757,5,0
112,304,71060,1,2
120,200,71363,1,0
64,112,71666,1,0
144,48,71969,2,0,B|184:32|216:64,2,75,0|2|0
200,136,72878,5,0
304,136,73181,1,0
344,40,73484,1,2
344,40,73635,1,0
344,40,73787,1,0
440,88,74090,1,0
464,192,74393,2,0,B|456:240|400:248,1,75,0|2
320,208,74999,1,0
304,312,75302,1,0
208,264,75605,1,0
352,96,75908,5,4
160,288,76211,1,4
160,96,76514,1,4
352,288,76817,1,4
256,192,77120,5,4
456,128,77726,5,2
400,216,78029,1,0
328,136,78332,2,0,B|272:72,2,75,0|0|2
224,160,79241,1,0
168,248,79544,1,0
168,248,79696,1,0
168,248,79847,2,0,B|128:248|112:296,1,75,0|2
216,320,80453,5,0
296,256,80757,1,0
264,152,81060,1,0
368,160,81363,2,0,B|448:128,1,75,2|0
480,224,81969,2,0,B|456:296,1,75,4|0
352,280,82575,5,0
272,208,82878,1,0
352,280,83181,1,2
256,328,83484,1,0
176,264,83787,2,0,B|120:264|104:200,1,75
128,120,84393,1,2
128,120,84544,1,0
128,120,84696,1,0
216,56,84999,5,0
296,120,85302,1,0
248,216,85605,2,0,B|264:264|320:264,2,75,2|0|0
176,288,86514,1,0
80,328,86817,2,0,B|16:280|104:208|24:104,1,225,4|0
384,96,97120,5,8
384,96,97726,2,0,B|376:184,1,75
288,160,98332,2,0,B|280:240,1,75,8|0
192,240,98938,2,0,B|184:320,1,75
32,344,99544,6,0,B|64:368|104:344,2,75,8|0|0
480,40,100757,2,0,B|448:16|408:40,2,75,8|0|0
32,40,101969,6,0,B|64:16|104:40,2,75,8|0|0
480,344,103181,2,0,B|448:368|408:344,2,75,8|0|0
256,192,104393,5,8
344,192,104696,1,0
256,192,104999,2,0,B|168:192,2,75,0|0|8
256,192,105908,5,4
256,192,106211,1,4
384,224,106817,5,8
384,224,107423,2,0,B|408:136,1,75
336,88,108029,1,8
264,144,108332,1,0
256,232,108635,1,0
336,88,109241,5,8
264,144,109544,1,0
176,152,109847,1,0
336,88,110453,5,8
264,144,110757,1,0
336,88,111060,1,0
192,192,111666,5,8
264,248,111969,1,0
240,336,112272,1,0
240,336,112423,1,0
240,336,112575,1,0
240,336,112878,2,0,B|144:336,1,75,8|0
112,264,113484,5,0
64,184,113787,1,0
120,112,114090,1,8
184,48,114393,1,0
272,72,114696,1,0
312,88,114847,1,0
344,120,114999,1,0
360,160,115150,1,0
368,200,115302,1,8
344,288,115605,5,0
256,320,115908,1,0
168,304,116211,1,0
128,280,116363,1,0
112,232,116514,1,8
224,88,117120,5,4
312,64,117423,1,0
328,152,117726,2,0,B|352:200|400:192,2,75,0|0|2
408,112,118635,1,0
408,112,118938,1,0
240,48,119544,5,4
176,112,119847,1,0
104,48,120150,2,0,B|56:32|24:96,2,75,0|0|2
80,136,121060,1,0
80,136,121363,1,0
232,232,121969,5,4
312,272,122272,1,0
376,208,122575,1,0
440,272,122878,1,0
376,208,123181,2,0,B|376:120,2,75,4|0|0
376,296,124090,1,0
376,296,124393,5,4
64,192,124696,1,4
256,0,124999,1,4
200,256,125302,1,4
320,136,125605,1,4
464,32,126211,5,0
464,120,126514,1,0
400,184,126817,2,0,B|384:224|328:232,1,75,2|0
296,152,127423,1,0
208,136,127726,1,0
184,224,128029,2,0,B|168:272|128:264,2,75,2|0|0
208,136,128938,5,0
240,48,129241,1,2
328,48,129544,1,0
352,136,129847,1,0
280,192,130150,1,0
312,272,130453,2,0,B|272:296|216:264,1,75,2|0
168,216,131060,5,0
112,288,131363,1,0
40,232,131666,1,2
40,184,131817,1,0
64,144,131969,1,0
280,96,132272,5,0
360,56,132575,1,0
384,144,132878,1,2
424,144,133029,1,0
464,120,133181,1,0
472,208,133484,1,0
416,280,133787,1,0
416,280,134090,5,4
168,352,134393,1,4
96,104,134696,1,4
344,32,134999,1,4
256,192,135302,5,4
48,328,135908,5,8
64,240,136211,1,0
152,240,136514,2,0,B|192:232|224:280,2,75,0|0|8
120,152,137423,1,0
200,104,137726,2,0,B|216:64|280:72,2,75,0|0|8
280,152,138635,5,0
360,184,138938,1,0
392,264,139241,1,0
320,320,139544,1,8
232,288,139847,1,0
208,200,140150,1,4
360,112,140756,5,8
432,56,141060,1,0
360,112,141363,2,0,B|296:160,1,75
152,272,141969,5,8
80,328,142272,1,0
152,272,142575,2,0,B|224:216,1,75
256,288,143181,5,0
256,200,143484,1,0
256,112,143787,1,4
256,24,144090,1,0
256,112,144393,1,0
256,200,144696,1,0
256,288,144999,2,0,B|256:376,2,75,4|0|0
352,136,146211,5,4
392,56,146514,1,0
304,48,146817,2,0,B|256:48|240:96,1,75
272,168,147423,2,0,B|256:216|192:208,1,75,2|0
160,136,148029,1,0
96,192,148332,1,0
96,192,148635,5,2
120,280,148938,1,0
208,304,149241,1,0
272,240,149544,1,0
272,240,149847,2,0,B|344:272,1,75,2|0
424,240,150453,2,0,B|344:208,1,75
360,120,151060,5,4
320,40,151363,1,0
240,80,151666,1,0
280,160,151969,2,0,B|240:248,1,75,0|2
208,312,152575,1,0
128,264,152878,1,0
104,176,153181,1,0
104,176,153484,5,2
160,104,153787,1,0
160,104,154090,2,0,B|240:72,1,75
160,104,154696,2,0,B|200:200,1,75,2|0
160,104,155302,2,0,B|80:136,1,75
136,216,155908,5,4
224,232,156211,1,0
288,296,156514,1,0
368,256,156817,2,0,B|416:256|432:200,1,75,0|2
352,168,157423,1,0
352,80,157726,2,0,B|304:72|264:136,1,75
192,104,158332,5,2
192,192,158635,1,0
120,248,158938,1,0
192,192,159241,1,0
264,248,159544,1,2
192,192,159847,1,0
192,104,160150,1,4
368,120,160756,6,0,B|416:136|408:192,1,75,4|0
408,224,161514,1,0
368,248,161666,1,0
280,264,161969,1,4
200,216,162272,1,0
184,176,162423,1,0
192,128,162575,1,0
264,80,162878,1,0
328,144,163181,2,0,B|424:160|448:56,1,150,4|0
296,40,169847,5,0
384,40,170150,1,0
472,40,170453,1,4
216,344,171060,5,0
128,344,171363,1,0
40,344,171666,1,4
304,112,172272,5,0
336,240,172575,1,0
208,272,172878,1,2
176,144,173181,1,0
400,136,173484,5,0
200,48,173787,1,0
112,248,174090,1,4
440,32,179544,6,0,B|488:48|480:104,2,75,0|0|4
256,192,180453,5,0
72,352,180756,6,0,B|24:336|32:280,2,75,0|0|4
256,192,181666,5,0
352,312,181969,5,0
400,168,182272,1,0
304,56,182575,1,2
160,96,182878,1,0
120,240,183181,1,0
224,344,183484,1,0
280,216,183787,2,0,B|320:192|280:144|232:192,1,75,4|0
120,136,184393,5,2
200,72,184696,1,2
296,112,184999,1,0
384,56,185302,1,0
456,128,185605,1,8
376,192,185908,1,0
376,192,186211,2,0,B|368:272,2,75,0|0|8
376,192,187120,5,0
272,176,187423,1,0
232,272,187726,1,0
152,200,188029,2,0,B|160:144|80:136,1,75,8|0
40,216,188635,1,4
456,144,189241,5,8
472,40,189544,1,0
368,72,189847,1,0
56,240,190453,5,8
40,344,190756,1,0
144,312,191060,1,0
352,288,191666,5,8
352,288,191969,1,0
352,288,192272,5,4
194,312,192575,1,4
121,170,192878,1,4
234,57,193181,1,4
376,130,193484,1,4
224,272,194090,5,8
304,232,194393,1,0
264,152,194696,2,0,B|288:72,1,75
200,48,195302,2,0,B|128:80,1,75,8|0
152,168,195908,2,0,B|144:256,1,75
216,288,196514,1,8
216,288,196817,5,0
288,232,197120,1,0
264,144,197423,1,0
336,96,197726,1,8
376,72,197878,1,0
416,88,198029,1,0
440,176,198332,1,4
320,312,198938,5,8
248,256,199241,1,0
160,280,199544,1,0
120,264,199696,1,0
96,224,199847,1,0
136,144,200150,2,0,B|176:112|144:64,2,75,8|0|4
304,88,201363,5,0
384,120,201666,1,0
344,200,201969,1,4
408,264,202272,2,0,B|408:312|352:328,1,75
280,304,202878,1,0
192,296,203181,2,0,B|72:216|184:128|32:40,1,300,4|4
