osu file format v5

[General]
AudioFilename: Hatsune Miku - Nijiiro.mp3
AudioLeadIn: 0
PreviewTime: -1
Countdown: 0
SampleSet: Soft
StackLeniency: 0.7
Mode: 0
LetterboxInBreaks: 0
EditorDistanceSpacing: 1.20000004768372

[Metadata]
Title:Nijiiro
Artist:Hatsune Miku
Creator:happy30
Version:Normal
Source:
Tags:

[Difficulty]
HPDrainRate:5
CircleSize:4
OverallDifficulty:6
SliderMultiplier:1.4
SliderTickRate:2

[Events]
//Background and Video events
0,0,"miku.png"
//Break Periods
2,38725,48552
//Storyboard Layer 0 (Background)
//Storyboard Layer 1 (Failing)
//Storyboard Layer 2 (Passing)
//Storyboard Layer 3 (Foreground)
//Storyboard Sound Samples
//Background Colour Transformations
3,100,0,0,0

[TimingPoints]
5287,461.538461538462,4,2,1,70,1,0
12440,-200,4,2,1,70,0,0
16367,-100,4,2,1,70,0,0
19598,-100,4,2,2,70,0,0
27325,-200,4,2,2,70,0,0
31017,-100,4,2,2,70,0,0
79367,-100,4,2,2,70,0,0
108210,-200,4,2,2,70,0,0
108675,-100,4,2,2,70,0,0
122871,-100,4,2,2,83,0,0
123448,-100,4,2,2,100,0,1
123477,461.538461538462,4,2,2,73,1,1
123564,-100,4,2,2,73,0,1
127025,-100,4,2,2,73,0,1
127141,-100,4,2,2,73,0,1
130743,-200,4,2,2,73,0,1
134295,-100,4,2,2,82,0,1
134525,-100,4,2,2,90,0,1
138127,-100,4,2,2,90,0,0
138243,-100,4,2,2,82,0,1
141352,-100,4,2,2,82,0,1
141583,-100,4,2,2,82,0,1
141820,-100,4,2,2,82,0,1
141935,-100,4,2,2,82,0,1
144929,-100,4,2,2,82,0,1
145391,-100,4,2,2,82,0,1
145621,-200,4,2,2,83,0,1
148621,-100,4,2,2,82,0,1
149781,-100,4,2,2,100,0,1

[Colours]
Combo1 : 216,248,254
Combo2 : 0,255,255
Combo3 : 11,172,148

[HitObjects]
96,304,5286,2,0,B|176:304,1,70,2|0
232,352,5748,2,0,B|280:296|280:216,1,140,2|2
232,64,6671,1,2
176,128,6902,1,0
240,184,7133,2,0,B|328:208|376:160,1,140,2|2
440,120,7825,2,0,B|456:200,1,70,0|2
464,272,8286,2,0,B|472:328,2,35,0|0|2
384,240,8748,5,2
336,168,8979,2,0,B|192:120,1,140,2|0
120,272,9902,2,0,B|264:320,1,140,2|0
320,264,10594,2,0,B|280:192|328:128,1,140,2|0
288,56,11286,1,2
208,72,11517,2,0,B|224:152|136:184,1,140,2|0
64,208,12210,1,2
192,256,12671,6,0,B|376:256,1,175,4|0
336,192,14056,1,2
304,128,14286,2,0,B|424:128,1,105,2|0
464,168,15210,2,0,B|464:216,4,35,0|2|0|2|2
464,96,16363,1,2
320,96,16825,1,0
320,96,17056,2,0,B|352:176|288:232,1,140,2|2
256,192,17979,12,0,19594
232,216,20056,6,0,B|304:128,1,105,2|2
328,152,20517,2,0,B|352:192|328:224,1,70,2|2
376,264,20979,2,0,B|280:312,1,105,2|2
248,296,21440,2,0,B|224:328|176:304,1,70,2|2
144,248,21902,6,0,B|96:144,1,105,2|2
64,144,22363,2,0,B|40:176|56:216,1,70,2|2
120,184,22825,2,0,B|216:136,1,105,2|2
224,104,23287,2,0,B|264:72|296:104,2,70,2|0|2
304,168,24094,6,0,B|336:184,1,35,2|0
296,240,24440,2,0,B|312:288|280:312,1,70,0|2
184,288,25017,2,0,B|160:320,1,35,2|2
120,256,25363,2,0,B|72:272|48:240,1,70,0|2
72,144,25940,6,0,B|40:120,1,35,2|2
104,88,26287,2,0,B|88:40|120:16,1,70,2|2
216,40,26863,2,0,B|240:8,1,35,2|2
288,64,27210,1,0
344,104,27440,6,0,B|280:152|320:256,1,140,2|0
184,296,28825,1,2
152,232,29056,2,0,B|208:168|176:96,1,140,2|0
104,96,30210,2,0,B|120:48,3,35,2|0|2|2
184,48,31133,6,0,B|240:104|296:64,1,105,2|2
304,48,31594,2,0,B|352:64|360:96,1,70,2|2
312,144,32056,2,0,B|336:208|296:256,1,105,2|2
328,272,32517,2,0,B|312:320|280:328,1,70,2|2
216,304,32979,2,0,B|168:224|192:192|208:160,1,140,2|2
128,168,33671,2,0,B|136:80|224:56,2,140,2|0|2
256,192,34825,12,4,38517
464,128,49594,6,0,B|456:88|416:80,1,70,8|0
368,32,50056,2,0,B|336:64,1,35,8|2
344,128,50402,2,0,B|296:136,1,35,2|8
272,192,50748,1,8
224,144,50979,1,8
152,144,51210,6,0,B|112:160,2,35,2|0|10
176,208,51671,1,0
136,264,51902,2,0,B|104:280,1,35,8|2
144,336,52248,2,0,B|176:352,1,35,2|8
248,336,52594,2,0,B|280:352,1,35,8|8
352,336,52940,2,0,B|384:352,1,35,2|8
408,288,53287,6,0,B|392:232|440:208,1,70,8|2
408,152,53748,2,0,B|376:136,1,35,8|2
336,192,54094,2,0,B|280:200,1,35,2|8
320,264,54440,1,8
272,312,54671,1,8
208,280,54902,6,0,B|160:264,2,35,0|2|8
208,208,55363,2,0,B|240:192,2,35,0|2|8
168,144,55825,1,8
112,96,56056,2,0,B|80:128,4,35,0|2|0|2|8
160,48,56748,1,8
232,56,56979,6,0,B|256:88|312:80,1,70,8|2
352,48,57440,2,0,B|368:80,1,35,8|2
440,88,57787,2,0,B|424:136,1,35,2|8
368,160,58133,1,8
296,168,58363,2,0,B|304:208,1,35,8|2
360,240,58710,6,0,B|352:280,1,35,2|8
288,296,59056,1,8
232,336,59287,2,0,B|200:304,1,35,8|2
152,264,59633,2,0,B|176:216,1,35,2|8
120,184,59979,2,0,B|136:144|112:112,2,70,8|8|8
72,232,60671,6,0,B|48:272,2,35,8|2|0
128,280,61133,2,0,B|144:320|184:328,1,70,8|8
248,312,61594,2,0,B|256:352,2,35,8|2|0
304,264,62056,2,0,B|336:240|336:200,1,70,8|8
336,136,62517,5,8
352,64,62748,2,0,B|392:40,1,35,0|10
424,96,63094,2,0,B|408:136,1,35,2|8
480,128,63440,2,0,B|520:168|480:216,3,70,8|2|8|8
464,256,64363,6,0,B|456:296|416:304,1,70,4|2
368,352,64825,2,0,B|336:320,1,35,8|2
344,256,65171,2,0,B|296:248,1,35,2|8
272,192,65517,1,8
224,240,65748,1,8
152,240,65979,6,0,B|112:224,2,35,0|2|8
176,176,66440,1,0
136,120,66671,2,0,B|104:104,1,35,8|2
144,48,67017,2,0,B|176:32,1,35,0|8
248,48,67363,2,0,B|280:32,1,35,8|8
352,48,67710,2,0,B|384:32,1,35,2|8
408,96,68056,6,0,B|392:152|440:176,1,70,8|2
408,232,68517,2,0,B|376:248,1,35,8|2
336,192,68863,2,0,B|280:184,1,35,2|8
320,120,69210,1,8
272,72,69440,1,8
208,104,69671,6,0,B|160:120,2,35,0|2|8
208,176,70133,2,0,B|240:192,2,35,0|2|8
168,240,70594,1,8
112,288,70825,2,0,B|80:256,4,35,0|2|0|2|8
160,336,71517,1,8
232,328,71748,6,0,B|256:296|312:304,1,70,8|2
352,344,72210,2,0,B|368:312,1,35,8|2
440,296,72556,2,0,B|424:248,1,35,2|8
368,224,72902,1,8
296,216,73133,2,0,B|304:176,1,35,8|2
360,144,73479,6,0,B|352:104,1,35,2|8
288,88,73825,1,8
232,48,74056,2,0,B|200:80,1,35,8|2
152,120,74402,2,0,B|176:168,1,35,2|8
120,200,74748,2,0,B|136:240|112:272,2,70,8|8|8
72,152,75440,6,0,B|48:112,2,35,8|2|0
128,104,75902,2,0,B|144:64|184:56,1,70,8|8
248,72,76363,2,0,B|256:32,2,35,8|2|0
304,120,76825,2,0,B|336:144|336:184,1,70,8|8
408,184,77287,5,8
384,248,77517,2,0,B|424:272,1,35,2|8
376,328,77863,2,0,B|336:336,1,35,2|8
256,192,78210,12,4,79133
112,344,79594,6,0,B|64:256|96:200,1,140,8|2
160,192,80286,1,0
232,183,80517,2,0,B|259:138|211:50,1,140,8|2
80,88,81440,1,8
80,88,81671,2,0,B|32:136|102:222,1,140,2|2
152,264,82363,5,8
216,296,82594,1,0
288,288,82825,2,0,B|384:272|400:192,1,140,2|8
328,192,83517,1,0
263,168,83748,2,0,B|275:106|368:72,1,140,2|8
432,64,84440,5,0
488,112,84671,2,0,B|528:192|456:256,1,140,2|8
416,192,85363,1,8
352,144,85594,2,0,B|312:224|384:288,1,140,10|8
320,328,86286,2,0,B|272:328,2,35,2|0|8
400,40,86979,6,0,B|448:128|416:184,1,140,8|2
352,192,87671,1,0
280,201,87902,2,0,B|253:246|301:334,1,140,8|2
432,296,88825,1,8
432,296,89056,2,0,B|480:248|410:162,1,140,2|2
360,120,89748,5,8
296,88,89979,1,0
224,96,90210,2,0,B|128:112|112:192,1,140,2|8
184,200,90902,2,0,B|172:262|79:296,1,140,2|8
224,312,91825,2,0,B|304:272|368:344,1,140,2|8
392,272,92517,1,0
464,256,92748,2,0,B|504:176|432:112,1,140,10|8
408,64,93440,2,0,B|456:40,4,35,8|8|0|8|8
112,40,94363,6,0,B|64:128|96:184,1,140,8|2
160,192,95056,1,0
232,201,95286,2,0,B|259:246|211:334,1,140,8|2
80,296,96210,1,8
80,296,96440,2,0,B|32:248|102:162,1,140,2|2
152,120,97133,1,8
216,88,97363,1,0
288,96,97594,6,0,B|384:112|400:192,1,140,2|8
328,192,98286,1,0
263,216,98517,2,0,B|275:278|368:312,1,140,2|8
432,320,99210,1,0
488,272,99440,6,0,B|528:192|456:128,1,140,2|8
416,192,100133,1,8
352,240,100363,2,0,B|312:160|384:96,1,140,10|8
320,56,101056,2,0,B|272:56,2,35,0|0|8
400,344,101748,6,0,B|448:256|416:200,1,140,8|2
352,192,102440,1,0
280,183,102671,2,0,B|253:138|301:50,1,140,8|2
432,88,103594,1,8
432,88,103825,2,0,B|480:136|410:222,1,140,2|2
360,264,104517,5,8
296,296,104748,1,0
224,288,104979,2,0,B|128:272|112:192,1,140,2|8
184,184,105671,2,0,B|172:122|79:88,1,140,2|8
224,72,106594,6,0,B|304:112|368:40,1,140,2|8
392,112,107286,1,0
464,128,107517,2,0,B|504:208|432:272,1,140,10|8
392,304,108210,2,0,B|288:304,1,70,8|4
128,264,109594,6,0,B|176:120,1,140,8|2
248,248,110517,2,0,B|360:200|328:72,1,210,8|2
264,96,111440,2,0,B|264:216|416:224,1,210,8|2
408,152,112363,2,0,B|288:128|248:288,1,210,8|2
224,328,113286,1,8
168,280,113517,6,0,B|120:264|104:224,1,70,0|0
72,176,113979,2,0,B|16:104|80:32|176:40,1,210,2|8
232,40,114902,1,2
304,56,115133,2,0,B|344:56,1,35,8|2
368,120,115479,2,0,B|320:120,1,35,2|8
272,152,115825,1,8
200,168,116056,2,0,B|24:224|208:296,1,210,8|2
256,264,116979,5,8
320,296,117210,1,0
368,248,117440,2,0,B|392:216,1,35,8|2
336,168,117786,2,0,B|360:136,1,35,2|8
320,80,118133,1,8
248,80,118363,2,0,B|216:104,1,35,8|2
256,160,118710,2,0,B|224:184,1,35,2|8
168,216,119056,1,2
112,256,119286,2,0,B|48:304,1,70,8|8
256,296,120210,5,8
352,192,120671,1,2
256,88,121133,1,8
160,192,121594,5,8
200,248,121825,1,8
256,296,122056,1,2
304,248,122286,1,8
352,192,122517,1,8
408,232,122748,1,2
456,184,122979,1,8
408,232,123210,1,8
416,304,123477,6,0,B|336:304,1,70,4|0
280,352,123938,2,0,B|232:296|232:216,1,140,2|8
280,64,124861,1,2
336,128,125092,1,0
272,184,125323,2,0,B|184:208|136:160,1,140,8|2
72,120,126015,2,0,B|56:200,1,70,0|8
40,272,126476,2,0,B|24:328,2,35,0|2|8
128,240,126938,5,2
176,168,127169,2,0,B|320:120,1,140,8|2
392,272,128092,2,0,B|248:320,1,140,8|2
192,264,128784,2,0,B|232:192|184:128,1,140,2|0
224,56,129476,1,8
304,72,129707,2,0,B|288:152|376:184,1,140,2|0
448,208,130400,1,8
320,256,130861,6,0,B|136:256,1,175,4|0
176,192,132246,1,8
208,128,132476,2,0,B|88:128,1,105,8|8
48,168,133400,2,0,B|48:216,4,35,0|8|0|8|8
48,96,134553,5,4
192,96,135015,1,8
192,96,135246,2,0,B|160:176|224:232,1,140,2|2
256,192,136169,12,2,137784
256,320,138246,5,8
312,256,138477,1,2
248,200,138707,2,0,B|272:160|232:112,1,70,2|8
192,64,139169,2,0,B|240:32|344:64,1,140,8|2
368,128,139861,1,2
440,168,140092,2,0,B|472:240|424:304,1,140,8|2
344,328,140784,1,8
296,256,141015,1,8
224,304,141246,2,0,B|192:272,2,35,2|0|10
152,344,141707,2,0,B|104:344,1,35,2|0
72,344,141938,6,0,B|24:272|64:208,1,140,8|2
144,192,142630,1,8
224,168,142861,2,0,B|264:104|168:40,1,140,8|2
128,112,143553,1,2
40,112,143784,2,0,B|2:175|83:228,1,140,8|2
80,312,144477,1,8
160,288,144707,2,0,B|312:288,1,140,8|2
264,208,145400,1,2
352,224,145630,6,0,B|440:128|336:32,1,210,8|2
168,39,147246,2,0,B|72:128|160:224,1,210,2|8
158,222,148861,1,8
136,336,149323,6,0,B|296:328,1,140,8|8
360,352,150015,2,0,B|392:264|376:200,1,140,8|8
336,144,150707,1,8
264,96,150938,2,0,B|216:184|232:240,1,140,8|2
176,296,151630,2,0,B|128:280|120:232,1,70,8|8
32,80,152323,5,2
104,40,152553,1,8
184,48,152784,1,2
248,104,153015,1,4
256,192,153246,12,4,156707
