osu file format v9

[General]
AudioFilename: nightmare party night.mp3
AudioLeadIn: 0
PreviewTime: 56179
Countdown: 0
SampleSet: Soft
StackLeniency: 0.7
Mode: 2
LetterboxInBreaks: 1

[Editor]
DistanceSpacing: 1
BeatDivisor: 4
GridSize: 8

[Metadata]
Title:Nightmare Party Night
Artist:Hatsune Miku
Creator:Kuzino
Version:4Q
Source:Kuchibashi-P
Tags:Vocaloid Vocaloid2 Project DIVA Arcade 4Q 2Q 3Q qqqqzx HQ

[Difficulty]
HPDrainRate:7
CircleSize:4
OverallDifficulty:7
ApproachRate:9
SliderMultiplier:1.8
SliderTickRate:1

[Events]
//Background and Video events
0,0,"bg.png"
//Break Periods
2,7007,11007
2,78321,88493
//Storyboard Layer 0 (Background)
//Storyboard Layer 1 (Fail)
//Storyboard Layer 2 (Pass)
//Storyboard Layer 3 (Foreground)
//Storyboard Sound Samples
//Background Colour Transformations
3,100,163,162,255

[TimingPoints]
1322,342.857142857143,4,2,0,70,1,0
57550,-100,4,2,0,70,0,1
78122,-100,4,2,0,70,0,0
89022,-100,4,2,0,50,0,0
94064,-100,4,2,0,60,0,0
99979,-100,4,2,0,70,0,0
123379,-100,4,2,0,70,0,1
149436,-100,4,2,0,70,0,0

[Colours]
Combo1 : 0,255,255
Combo2 : 0,255,0
Combo3 : 0,0,255
Combo4 : 128,255,0

[HitObjects]
480,56,1322,2,0,B|304:8|120:64,1,360
256,192,2350,1,0
32,328,2693,2,0,B|208:376|392:320,1,360
256,192,3722,1,0
472,16,4064,2,0,B|486:177|486:177|384:176|384:176|416:272,1,360
256,192,5093,1,0
40,16,5436,2,0,B|26:177|26:177|128:176|128:176|96:272,1,360
416,192,6464,1,0
96,192,6636,1,0
416,192,6807,1,0
256,192,11607,12,0,12122
160,32,12293,5,0
64,96,12464,1,2
256,96,12636,1,0
0,256,12807,1,2
320,256,12979,1,0
160,272,13150,2,0,B|160:320,1,45,0|2
352,272,13407,2,0,B|352:328,1,45,2|2
32,192,13664,6,0,B|56:232|120:248,1,90,0|2
488,192,14007,2,0,B|464:144|392:136,1,90,0|2
160,192,14350,1,0
392,192,14522,1,0
392,192,14607,1,0
392,192,14693,2,0,B|416:192|416:192|432:232|432:232|464:232,1,90,2|2
104,192,15036,5,0
312,64,15207,1,2
104,192,15379,1,0
392,184,15550,1,2
104,192,15722,1,0
312,320,15893,2,0,B|269:334,1,45,0|2
32,320,16150,2,0,B|80:336,1,45,0|2
448,192,16407,6,0,B|462:147|521:117,1,90,0|2
64,192,16750,2,0,B|51:244|-17:268,1,90,0|2
448,192,17093,1,0
160,192,17264,1,0
224,192,17350,1,0
288,192,17436,2,0,B|272:192|272:192|264:176|264:176|264:208|264:208|256:192|256:192|152:192,1,180,2|4
448,192,17950,5,0
128,192,18122,1,2
448,192,18293,1,0
32,288,18464,2,0,B|56:336|136:336,1,90,2|0
216,336,18722,2,0,B|264:304|344:320,1,90,2|0
416,320,18979,1,2
256,192,19150,5,0
480,192,19322,1,2
368,192,19493,1,2
144,192,19664,1,0
512,72,19836,2,0,B|464:32|392:48,1,90,2|0
296,104,20093,2,0,B|240:112|192:64,1,90,2|0
80,56,20350,1,2
304,168,20522,6,0,B|256:192|264:256,1,90,0|2
0,208,20864,2,0,B|48:192|56:112,1,90,0|2
456,192,21207,1,0
144,192,21379,1,0
80,192,21464,1,2
368,192,21636,1,2
432,192,21722,1,0
72,72,21893,6,0,B|160:24,1,90,0|2
440,72,22236,2,0,B|344:24,1,90,0|2
144,32,22579,1,0
384,128,22750,1,0
320,128,22836,1,0
256,128,22922,1,2
192,128,23007,1,0
128,128,23093,1,2
48,224,23264,6,0,B|16:272|40:320,1,90,4|0
464,224,23607,2,0,B|488:272|472:320,1,90,8|0
168,280,23950,2,0,B|256:280|352:280,1,180,8|8
168,280,24464,1,0
480,232,24636,2,0,B|480:136,1,90,8|0
32,144,24979,2,0,B|32:248,1,90,8|0
392,56,25322,5,8
136,64,25493,1,2
392,56,25664,1,8
256,192,25836,1,2
208,336,26007,5,8
0,336,26179,1,0
160,264,26350,1,8
48,264,26522,1,0
480,64,26693,2,0,B|432:24|384:24,1,90,8|0
32,64,27036,2,0,B|88:32|152:16,1,90,8|0
256,72,27379,5,8
504,40,27550,1,0
256,72,27722,1,8
416,192,27893,1,0
256,72,28064,2,0,B|144:32,1,90,8|2
0,104,28407,2,0,B|72:51,1,90,8|2
512,192,28750,6,0,B|536:296|448:352,1,180,4|8
56,344,29264,1,0
339,323,29436,2,0,B|320:352|256:352,1,90,8|0
0,192,29779,2,0,B|33:202|89:186,1,90,8|0
392,192,30122,1,8
120,192,30293,1,0
440,144,30464,1,8
72,144,30636,1,0
392,32,30807,6,0,B|448:102,1,90,8|2
120,32,31150,2,0,B|63:102,1,90,8|2
256,192,31493,5,8
128,192,31664,1,0
256,192,31836,1,8
384,192,32007,1,0
256,192,32179,1,8
72,192,32350,1,0
448,192,32522,1,8
0,192,32693,1,0
352,232,32864,6,0,B|416:312,1,90,4|0
160,232,33207,2,0,B|96:312,1,90,2|0
480,56,33550,2,0,B|448:96|352:0|304:64,1,180,2|2
88,80,34236,6,0,B|40:88|24:136,1,90,4|0
424,80,34579,2,0,B|472:88|488:136,1,90,8|0
168,192,34922,2,0,B|256:192|352:192,1,180,8|8
168,192,35436,1,0
392,256,35607,2,0,B|392:152,1,90,8|0
120,256,35950,2,0,B|120:152,1,90,8|0
464,112,36293,5,8
208,56,36464,1,2
464,112,36636,1,8
208,56,36807,1,2
80,136,36979,6,0,B|-8:184,1,90,8|0
256,136,37321,2,0,B|344:184,1,90,8|0
80,328,37664,1,8
256,336,37836,1,0
80,328,38007,1,8
432,328,38179,1,0
160,280,38350,6,0,B|112:296|56:280,1,90,8|0
440,288,38693,2,0,B|376:272|312:288,1,90,8|0
160,192,39036,1,8
352,192,39207,1,2
48,192,39379,1,8
464,192,39550,1,2
40,288,39721,6,0,B|248:288,1,180,4|8
480,296,40236,1,0
256,288,40407,2,0,B|368:288,2,90,8|0|8
32,296,40921,1,0
384,192,41093,2,0,B|440:184|464:120,1,90,8|0
128,192,41436,2,0,B|72:184|48:120,1,90,8|0
392,136,41779,5,8
120,32,41950,1,2
488,24,42121,1,8
24,144,42293,1,2
480,208,42464,5,4
360,264,42636,1,0
208,304,42807,1,2
56,328,42979,1,0
456,208,43150,5,4
304,264,43322,1,0
160,304,43493,1,2
24,328,43665,1,0
288,304,43836,5,2
352,280,43921,1,0
408,256,44007,1,0
464,224,44093,1,0
512,176,44179,1,2
144,80,44350,1,0
448,72,44521,1,2
256,80,44693,1,2
24,80,44864,1,2
256,80,45036,1,2
488,72,45207,6,0,B|424:144|304:120,1,180,4|2
32,128,45721,1,0
320,120,45893,2,0,B|392:192|360:312,1,180,2|2
72,192,46407,1,0
440,192,46579,2,0,B|360:144|248:160,1,180,2|2
440,192,47093,1,0
72,104,47264,2,0,B|16:136|16:212|48:240|85:264,1,180,2|2
312,328,47950,6,0,B|368:352|432:320,1,90
120,264,48293,2,0,B|64:288|0:256,1,90
506,96,48636,2,0,B|480:96|416:96,2,90,2|0|2
224,88,49150,1,0
368,32,49321,5,8
512,96,49493,1,2
256,96,49664,1,8
472,192,49836,1,2
96,192,50007,1,8
352,304,50179,1,2
424,304,50264,1,0
160,304,50436,1,2
88,304,50521,1,0
432,248,50693,6,0,B|472:272|520:272,2,90,4|0|2
224,256,51207,1,0
432,248,51379,2,0,B|480:216|464:136,1,90,2|0
80,248,51722,2,0,B|32:216|48:136,1,90,2|0
464,272,52064,1,2
288,192,52236,1,0
440,64,52407,1,2
176,40,52579,1,0
0,40,52750,2,0,B|96:16|192:40,1,180,2|2
72,352,53436,6,0,B|184:352,2,90,2|0|2
432,352,53950,1,0
152,272,54121,2,0,B|248:272,2,90,2|0|2
512,272,54636,1,0
122,192,54807,6,0,B|32:192,2,90,2|0|2
464,192,55321,1,0
472,192,55407,1,0
480,192,55493,1,2
344,32,55664,1,0
272,64,55750,1,0
208,104,55836,1,2
280,144,55921,1,0
368,176,56007,1,2
288,216,56093,1,0
200,256,56179,6,0,B|144:168|0:216,1,180,4|2
408,280,56693,1,0
104,280,56864,1,4
512,280,57207,1,4
96,128,57550,6,0,B|56:144|32:168|24:192|32:216|56:240|121:267,1,180,4|8
480,192,58064,1,0
344,192,58236,1,8
168,192,58407,1,0
32,192,58579,1,8
256,192,58750,1,0
104,152,58921,6,0,B|168:80,1,90,8|0
408,232,59264,2,0,B|336:304,1,90,8|0
48,280,59607,2,0,B|120:344,1,90,8|0
464,112,59950,2,0,B|400:48,1,90,8|0
40,192,60293,2,0,B|240:192,1,180,8|8
464,192,60807,1,0
224,192,60979,1,8
0,32,61150,5,2
112,32,61321,1,8
224,32,61493,1,2
508,32,61664,2,0,B|328:32,1,180,4|2
112,112,62179,1,0
328,112,62350,1,2
0,192,62693,1,2
416,128,63036,6,0,B|456:144|480:168|488:192|480:216|456:240|391:267,1,180,4|8
32,192,63550,1,0
168,192,63722,1,8
344,192,63893,1,0
480,192,64065,1,8
256,192,64236,1,0
424,112,64407,6,0,B|472:96|518:130,1,90,8|0
304,256,64750,2,0,B|256:272|209:237,1,90,8|0
32,192,65093,5,8
392,192,65264,1,2
152,192,65436,5,8
512,192,65607,1,2
64,48,65779,5,2
384,128,65950,1,2
128,128,66121,1,0
456,48,66293,1,0
256,48,66464,5,2
184,80,66550,1,0
256,96,66636,1,0
328,120,66721,1,0
256,144,66807,1,2
168,168,66893,1,0
256,192,66979,1,0
344,216,67064,1,0
256,240,67150,6,0,B|224:344|88:336,1,180,4|2
288,304,67664,1,0
32,304,67836,1,4
512,304,68179,1,4
32,88,68521,6,0,B|88:8|208:40,1,180,4|8
456,96,69036,1,0
192,40,69207,1,8
384,192,69379,1,0
128,192,69550,1,8
384,192,69721,1,0
72,160,69893,6,0,B|24:192|64:280,1,90,8|0
432,232,70236,2,0,B|463:195|439:147,1,90,8|0
144,152,70579,2,0,B|112:192|128:248,1,90,8|0
352,240,70921,2,0,B|384:192|352:120,1,90,8|0
256,143,71264,2,0,B|256:343,1,180,8|8
120,336,71779,1,0
392,336,71950,1,8
80,256,72121,5,2
256,256,72293,1,8
432,256,72464,1,2
200,192,72636,2,0,B|128:128,1,90,4|0
312,192,72979,2,0,B|384:128,1,90,2|0
256,192,73321,2,0,B|208:248|320:320|248:368,1,180,2|2
480,88,74007,6,0,B|424:8|304:40,1,180,8|8
96,112,74521,1,0
416,112,74693,2,0,B|464:112|512:72,1,90,8|0
0,192,75036,2,0,B|32:160|88:152,1,90,8|0
416,112,75379,1,8
0,112,75721,1,2
376,288,76064,5,8
136,288,76236,1,2
376,288,76407,1,8
72,288,76579,1,2
288,352,76750,5,2
480,280,76921,1,0
96,280,77093,1,2
288,192,77264,1,0
64,32,77436,5,4
128,32,77521,1,0
192,32,77607,1,0
256,32,77693,1,0
320,32,77778,1,2
384,32,77864,1,0
480,64,77950,1,0
384,96,78036,1,0
272,96,78121,1,2
144,352,89093,6,0,B|40:304|56:184,1,180,2|2
256,192,89607,1,0
0,192,89779,2,0,B|-5:135|59:119,1,90,2|0
256,192,90122,2,0,B|312:176|312:104,1,90,2|0
512,56,90464,2,0,B|459:43|435:91,2,90,2|0|2
224,88,91150,1,0
192,368,91664,5,0
256,344,91750,1,0
320,320,91836,2,0,B|416:320,1,90,2|0
176,288,92179,1,2
0,192,92350,1,0
176,128,92522,1,2
256,88,92693,1,0
336,128,92864,1,2
512,192,93036,1,0
336,288,93207,1,2
256,240,93379,2,0,B|168:240,3,90,0|2|0|2
456,144,94236,6,0,B|432:128|432:128|480:128|480:128|456:112|456:112|456:32,1,180,0|4
112,80,94922,1,2
400,80,95093,1,0
112,80,95264,1,2
456,288,95607,1,2
256,288,95779,1,0
56,288,95950,1,2
256,136,96293,1,2
128,192,96636,1,2
384,192,96979,1,2
112,328,97150,5,0
184,328,97236,1,0
256,328,97322,1,2
456,48,97664,1,2
56,48,98007,1,2
456,48,98350,1,2
256,344,98693,5,2
152,272,98864,1,0
360,272,99036,1,2
64,192,99207,1,0
448,192,99379,1,2
256,48,99722,2,0,B|256:136,1,90,4|0
176,200,100064,6,0,B|232:288|360:280,1,180,4|8
32,280,100579,1,0
400,296,100750,2,0,B|400:200,1,90,8|0
32,296,101093,2,0,B|32:200,1,90,8|0
400,120,101436,1,8
112,120,101607,1,0
464,120,101779,1,8
48,120,101950,1,0
256,136,102122,5,8
104,224,102293,1,2
256,136,102464,1,8
408,224,102636,1,2
296,312,102807,6,0,B|256:360|176:336,1,90,8|0
40,296,103150,2,0,B|-8:264|8:200,1,90,8|0
72,128,103493,1,8
240,56,103664,1,0
480,40,103836,1,8
240,56,104007,1,0
48,192,104179,6,0,B|88:224|160:208,1,90,8|0
384,192,104522,2,0,B|423:160|468:172,1,90,8|0
360,224,104864,1,8
48,320,105036,1,2
360,224,105207,1,8
48,320,105379,1,2
480,296,105550,6,0,B|272:296,1,180,4|8
480,296,106064,1,0
128,296,106236,2,0,B|16:296,2,90,8|0|8
304,296,106750,1,0
96,200,106922,2,0,B|40:192|16:128,1,90,8|0
416,200,107264,2,0,B|472:192|496:128,1,90,8|0
40,144,107607,5,8
472,48,107779,1,2
112,32,107950,1,8
400,144,108122,1,2
0,216,108293,5,2
88,272,108464,1,0
224,304,108636,1,2
408,312,108807,1,0
0,216,108979,5,2
120,296,109150,1,0
288,320,109322,1,2
488,328,109493,1,0
224,256,109664,5,2
144,232,109750,1,0
72,200,109836,1,0
144,160,109922,1,0
224,136,110007,1,2
0,192,110179,1,0
288,192,110350,1,2
136,192,110522,1,2
432,192,110693,1,2
256,192,110864,1,2
240,80,111036,6,0,B|288:160|408:152,1,180,4|2
120,152,111550,1,0
392,152,111722,2,0,B|320:240|208:240,1,180,2|2
392,152,112236,1,0
240,240,112407,2,0,B|144:240|56:216,1,180,2|2
240,240,112922,1,0
64,216,113093,2,0,B|128:216|240:152,1,180,2|2
344,328,113779,6,0,B|400:352|464:320,1,90,2|0
88,240,114122,2,0,B|24:248|-24:208,1,90,2|0
440,160,114464,2,0,B|504:144|528:80,2,90,2|0|2
88,160,114979,1,0
296,0,115150,5,8
432,56,115322,1,0
160,56,115493,1,8
480,184,115664,1,0
112,184,115836,1,8
312,336,116007,1,2
376,336,116093,1,0
48,336,116264,1,2
112,336,116350,1,0
480,136,116522,6,0,B|480:232,1,90,2|0
32,136,116864,2,0,B|32:248,1,90,2|0
392,192,117207,2,0,B|488:192,1,90,2|0
120,192,117550,2,0,B|16:192,1,90,2|0
480,200,117893,2,0,B|464:104|352:88,1,180,2|2
256,192,118407,1,0
32,200,118579,2,0,B|47:104|155:88,1,180,2|2
80,320,119264,6,0,B|176:280,1,90,2|0
432,320,119607,2,0,B|348:285,1,90,2|0
72,32,119950,2,0,B|106:115,1,90,2|0
440,32,120293,2,0,B|405:116,1,90,2|0
96,192,120636,5,2
256,296,120807,1,0
416,192,120979,1,2
368,192,121064,1,0
320,192,121150,1,0
32,112,121322,1,2
488,112,121493,1,0
432,112,121579,1,0
368,112,121664,1,2
304,112,121750,1,0
240,112,121836,1,0
176,112,121922,1,0
80,112,122007,6,0,B|272:112,1,180,4|2
80,112,122522,1,0
368,112,122693,1,4
0,192,123036,1,4
320,312,123379,6,0,B|304:352|280:376|256:384|232:376|208:352|185:288,1,180,4|8
368,256,123893,1,0
88,192,124064,1,8
472,128,124236,1,0
152,192,124407,1,8
512,192,124579,1,0
152,112,124750,6,0,B|152:64|152:64|96:24,1,90,8|0
360,264,125093,2,0,B|360:312|360:312|416:352,1,90,8|0
96,336,125436,2,0,B|48:336|48:336|8:280,1,90,8|0
416,48,125779,2,0,B|464:48|464:48|504:104,1,90,8|0
96,184,126122,2,0,B|0:184,2,90,8|0|8
328,184,126636,1,0
96,184,126807,5,8
400,184,126979,1,2
152,112,127150,1,8
352,112,127322,1,2
248,128,127493,2,0,B|248:320,1,180,4|2
96,336,128007,1,0
416,336,128179,1,2
0,336,128522,1,2
192,72,128864,6,0,B|208:32|232:8|256:0|280:8|304:32|327:96,1,180,4|8
144,128,129378,1,0
424,192,129549,1,8
40,256,129721,1,0
360,192,129892,1,8
0,192,130064,1,0
360,192,130236,6,0,B|424:112,1,90,8|0
152,192,130579,2,0,B|88:112,1,90,8|0
256,32,130922,5,8
96,120,131093,1,2
416,120,131264,1,8
256,216,131436,1,2
104,280,131607,5,2
352,360,131779,1,0
160,360,131950,1,2
408,280,132122,1,0
168,208,132293,5,2
96,184,132379,1,0
24,136,132464,1,0
96,88,132550,1,0
168,48,132636,1,2
240,24,132722,1,0
320,24,132807,1,0
400,40,132893,1,0
472,96,132979,6,0,B|424:16|296:24,1,180,4|2
96,24,133493,1,0
320,24,133664,1,4
8,24,134007,1,4
480,304,134350,6,0,B|424:384|304:352,1,180,4|8
256,288,134864,1,0
120,192,135036,1,8
392,192,135207,1,0
256,96,135379,1,8
256,192,135550,1,0
120,192,135722,6,0,B|48:120,1,90,8|0
392,192,136064,2,0,B|464:120,1,90,8|0
120,192,136407,2,0,B|120:96,1,90,8|0
392,192,136750,2,0,B|392:80,1,90,8|0
168,299,137093,6,0,B|256:338|344:298,1,180,8|8
136,304,137607,1,0
376,304,137779,1,8
88,128,137950,5,2
256,128,138122,1,8
424,128,138293,1,2
88,192,138464,2,0,B|16:256,1,90,4|0
424,192,138807,2,0,B|496:256,1,90,2|0
256,195,139150,2,0,B|208:139|320:67|248:19,1,180,2|2
0,296,139836,6,0,B|56:376|176:344,1,180,8|8
256,344,140350,1,0
512,344,140522,1,8
256,344,140693,1,0
464,344,140864,1,8
256,192,141036,1,0
344,80,141207,2,0,B|256:24|161:87,1,180,8|2
432,192,141893,5,8
80,192,142064,1,2
496,192,142236,1,8
16,192,142407,1,2
432,192,142579,5,2
80,192,142750,1,0
432,192,142922,1,2
80,192,143093,1,0
144,192,143264,5,2
208,216,143350,1,0
264,248,143436,1,0
320,280,143522,1,0
264,320,143607,1,2
208,344,143693,1,0
144,344,143779,1,0
80,344,143864,1,0
16,344,143950,6,0,B|16:152,1,180,4|0
496,344,144636,2,0,B|496:152,1,180,2|0
56,48,145322,2,0,B|56:228,1,180,2|0
456,48,146007,2,0,B|456:228,1,180,2|2
24,64,146693,6,0,B|114:64,1,90,2|0
376,192,147036,2,0,B|286:192,1,90,2|0
24,192,147379,2,0,B|114:192,1,90,2|0
512,192,147722,2,0,B|422:192,1,90,2|0
160,192,148064,6,0,B|70:192,1,90,2|0
352,192,148407,2,0,B|442:192,1,90,2|0
96,192,148750,2,0,B|6:192,1,90,2|0
416,192,149093,2,0,B|506:192,1,90,2|0
256,192,149436,5,4
