osu file format v7

[General]
AudioFilename: Hatsune Miku - Nico Nico Messe no uta.mp3
AudioLeadIn: 0
PreviewTime: 27078
Countdown: 1
SampleSet: Soft
StackLeniency: 0.7
Mode: 0
LetterboxInBreaks: 0

[Editor]
DistanceSpacing: 2
BeatDivisor: 8
GridSize: 8

[Metadata]
Title:Nico Nico Messe no Uta
Artist:Hatsune Miku
Creator:happy30
Version:Hard
Source:Windows Live Messenger
Tags:nico nico douga MSN

[Difficulty]
HPDrainRate:6
CircleSize:4
OverallDifficulty:5
SliderMultiplier:1.8
SliderTickRate:1

[Events]
//Background and Video events
0,0,"messemesseBG.jpg"
Video,0,"messemessemesse.avi"
//Break Periods
2,18670,25998
2,132125,135089
2,140307,143816
2,149034,152543
2,157761,161270
2,179034,183089
//Storyboard Layer 0 (Background)
//Storyboard Layer 1 (Fail)
//Storyboard Layer 2 (Pass)
//Storyboard Layer 3 (Foreground)
//Storyboard Sound Samples
//Background Colour Transformations
3,100,0,0,0

[TimingPoints]
5380,545.454545454545,4,2,1,80,1,0
79295,-100,4,2,1,50,0,0
79976,-100,4,2,1,70,0,0
112567,-100,4,1,0,45,0,0
114749,-100,4,2,2,70,0,0
130704,-100,4,1,2,46,0,0
142834,-100,4,1,2,35,0,0
151561,-100,4,1,2,25,0,0
160289,-100,4,2,1,50,0,0
164379,-100,4,2,1,80,0,0
184289,-200,4,2,1,35,0,0
188107,-200,4,2,1,16,0,0
190834,-200,4,2,1,4,0,0

[HitObjects]
200,192,5379,1,4
304,192,5925,1,0
200,192,6470,1,2
304,192,7016,1,0
200,192,7561,1,4
304,192,8107,1,0
200,192,8652,1,2
304,192,9198,1,0
96,336,9743,6,0,B|24:264|96:152,1,180,4|2
152,232,10561,1,0
152,232,10834,2,0,B|264:256|288:112,1,180,0|2
408,104,11652,2,0,B|368:192,1,90,0|4
400,336,12198,2,0,B|440:248,1,90,0|2
437,254,12743,5,0
344,264,13016,1,8
344,264,13289,1,0
280,200,13561,1,2
280,200,13834,1,0
200,152,14107,2,0,B|88:128|32:232,1,180,4|2
112,328,14925,1,0
112,328,15198,2,0,B|296:328,1,180,0|2
360,272,16016,1,0
360,272,16289,2,0,B|392:168|288:88,1,180,4|2
232,152,17107,5,0
232,152,17379,1,10
144,136,17652,1,0
144,136,17925,1,2
120,224,18198,1,0
208,240,18470,1,4
128,216,27198,5,4
128,216,27470,1,0
104,304,27743,1,2
104,304,28016,1,0
184,352,28289,2,0,B|296:368|344:256,1,180,0|2
440,336,29107,5,0
440,336,29380,2,0,B|496:160,1,180,4|2
440,24,30470,2,0,B|384:200,1,180,8|2
304,232,31289,1,0
232,184,31561,5,4
232,184,32107,2,0,B|176:272|64:224,1,180,2|0
8,168,32925,1,0
24,80,33198,1,2
104,40,33470,1,0
176,96,33743,6,0,B|200:144|176:192,1,90,4|0
96,304,34289,2,0,B|72:256|96:208,1,90,2|0
288,160,34834,2,0,B|328:256|256:336,2,180,8|2|4
312,72,36198,5,0
392,32,36470,1,2
456,96,36743,1,0
400,168,37016,2,0,B|288:152|248:256,1,180,0|2
272,328,37834,1,0
360,360,38107,2,0,B|416:264|328:176,1,180,4|2
152,24,39198,2,0,B|96:120|184:208,1,180,8|2
256,176,40016,5,0
312,104,40289,2,0,B|416:136|408:264,1,180,4|2
408,239,41380,1,0
256,336,41925,1,2
256,336,42470,2,0,B|152:304|160:176,2,180,4|2|8
344,320,43834,1,0
408,256,44107,1,2
408,168,44380,1,0
352,96,44652,6,0,B|248:128|256:256,2,180,4|2|0
424,152,46016,2,0,B|480:144|488:80,2,90,0|2|0
368,224,46834,2,0,B|400:272|360:328,1,90,4|0
240,264,47379,1,2
200,184,47652,2,0,B|160:88|256:16,1,180
296,104,48470,5,2
296,104,48743,1,0
368,152,49016,2,0,B|424:160|456:128,2,90,4|0|2
144,232,50107,2,0,B|88:224|56:256,2,90,0|0|2
160,320,50925,1,0
248,344,51198,2,0,B|304:352|336:304,1,90,4|0
280,240,51743,1,2
280,240,52016,2,0,B|232:152|288:56,1,180
368,32,52834,6,0,B|416:112,1,90,2|0
384,232,53379,2,0,B|336:152,1,90,4|0
472,184,53925,1,2
472,184,54198,1,0
480,272,54470,1,0
400,320,54743,1,0
400,320,55016,1,2
320,272,55289,1,0
240,304,55561,1,4
240,304,55834,1,0
160,256,56107,2,0,B|96:184|136:80,1,180,2|8
208,40,56925,5,0
208,40,57198,2,0,B|288:104,1,90,2|0
232,176,57743,1,4
232,176,58016,1,0
296,240,58289,1,2
384,216,58561,1,0
384,216,58834,1,2
448,272,59107,2,0,B|408:376|264:336,1,180,0|2
256,192,59925,12,0,61561
368,336,62107,6,0,B|415:297|387:230,1,90,4|0
328,139,62652,2,0,B|280:177|308:244,1,90,2|0
456,192,63198,2,0,B|504:80|376:40,2,180,0|2|4
456,192,64561,1,0
384,248,64834,1,2
384,248,65107,2,0,B|280:208|208:296,1,180
144,328,65925,6,0,B|96:240,1,90,2|0
120,120,66470,1,4
120,120,66743,1,0
120,120,67016,2,0,B|168:208,1,90,2|0
96,304,67561,2,0,B|48:216,1,90
192,160,68107,2,0,B|240:248,1,90,2|0
64,344,68652,2,0,B|-16:280|40:144,2,180,4|2|8
64,344,70289,1,2
176,208,70834,6,0,B|288:208,1,90,4|0
392,288,71379,2,0,B|288:288,1,90,2|0
408,160,71925,1,0
464,232,72198,1,0
432,320,72470,2,0,B|400:360|320:336,1,90,2|0
288,216,73016,2,0,B|303:264|238:316,1,90,4|0
184,352,73561,1,2
104,304,73834,2,0,B|32:224|88:120,1,180
79,136,74652,5,2
79,136,74925,1,0
152,192,75198,1,4
360,192,75743,1,2
152,192,76289,1,0
360,192,76834,1,2
408,272,77107,1,0
352,344,77380,2,0,B|304:368|248:328,1,90,4|0
120,256,77925,2,0,B|200:184|304:248,1,180,2|8
416,128,79016,1,0
416,128,79561,5,4
416,128,79834,1,0
344,176,80107,1,8
344,176,80380,1,4
272,128,80652,2,0,B|232:96|176:112,1,90,4|0
256,248,81198,2,0,B|296:280|352:264,1,90,8|0
416,216,81743,1,4
416,216,82016,1,0
400,128,82289,1,8
400,128,82561,1,4
320,88,82834,2,0,B|272:72|216:96,1,90,4|0
192,296,83380,2,0,B|240:312|296:288,1,90,8|0
232,128,83925,6,0,B|184:112|128:136,1,90,4|0
104,336,84470,2,0,B|152:352|208:328,1,90,8|4
264,272,85016,1,4
264,272,85289,1,0
232,184,85561,1,8
232,184,85834,1,0
144,160,86107,2,0,B|88:152|40:192,1,90,4|0
136,272,86652,2,0,B|192:280|240:240,1,90,8|4
280,184,87198,1,4
280,184,87470,1,0
336,112,87743,1,8
336,112,88016,1,0
416,160,88289,6,0,B|440:208|416:256,1,90,4|0
344,344,88834,2,0,B|320:296|344:248,1,90,8|4
464,192,89380,2,0,B|488:240|464:288,1,90,4|0
392,376,89925,2,0,B|368:328|392:280,1,90,8|0
424,208,90470,1,4
424,208,90743,1,0
384,128,91016,1,8
384,128,91289,1,4
296,96,91561,2,0,B|240:120|248:176,1,90,4|0
256,256,92107,1,8
256,256,92380,1,0
192,320,92652,6,0,B|144:312|120:264,1,90,4|0
96,136,93198,2,0,B|144:144|168:192,1,90,8|4
122,268,93743,1,4
32,248,94016,1,0
8,160,94289,1,8
72,96,94561,1,0
160,120,94834,2,0,B|224:208|328:152,1,180,4|8
318,156,95652,1,4
318,156,95925,1,4
192,288,96470,1,8
368,328,97016,5,4
424,256,97289,1,0
376,176,97561,1,8
376,176,97834,1,4
288,184,98107,2,0,B|256:120|288:40,2,135,4|0|0
208,216,99198,2,0,B|240:280|208:360,2,135,4|0|4
136,80,100289,2,0,B|72:168|144:272,1,180,4|8
208,296,101107,5,0
280,240,101380,1,4
280,240,101925,1,8
224,168,102198,1,4
256,88,102470,1,4
256,88,103016,1,8
256,88,103561,2,0,B|368:88,1,90,4|0
208,192,104107,2,0,B|16:192,1,180,8|4
272,288,105198,1,8
272,288,105743,5,4
352,240,106016,1,0
360,152,106289,1,8
304,80,106561,1,4
216,104,106834,2,0,B|184:144|200:200,1,90,4|0
272,288,107380,2,0,B|304:248|288:192,1,90,8|0
216,104,107925,1,4
136,152,108198,1,0
128,240,108470,1,8
184,312,108743,1,4
272,288,109016,2,0,B|304:248|288:192,1,90,4|0
216,104,109561,6,0,B|184:144|200:200,1,90,8|0
312,240,110107,2,0,B|344:200|328:144,1,90,4|0
256,56,110652,2,0,B|224:96|240:152,1,90,8|4
280,216,111198,1,4
280,216,111470,1,0
208,272,111743,1,8
256,344,112016,1,0
256,344,112289,1,4
256,344,112834,1,0
256,232,113380,5,0
256,208,113516,1,0
256,184,113652,1,0
256,160,113789,1,0
256,136,113925,1,0
256,112,114061,1,0
256,88,114198,1,0
256,64,114334,1,0
256,40,114470,1,4
432,88,115016,6,0,B|440:152|400:208,1,90,8|4
360,264,115561,1,4
360,264,116107,2,0,B|288:176|176:216,1,180,8|4
136,272,116925,1,0
184,344,117198,1,8
264,312,117470,2,0,B|312:216|248:120,1,180,4|0
208,64,118289,5,8
208,64,118561,1,0
144,128,118834,1,4
144,128,119380,1,8
176,208,119652,1,4
112,272,119925,1,4
112,272,120470,1,8
288,320,121016,1,4
368,272,121289,1,0
384,184,121561,2,0,B|344:88,1,90,8|4
240,80,122107,2,0,B|280:176,1,90,4|0
304,16,122652,1,8
304,16,123198,5,4
80,144,123743,1,8
208,368,124289,1,4
432,240,124834,1,8
376,72,125380,2,0,B|400:176|288:240,1,180,4|8
309,226,126198,1,4
136,312,126470,2,0,B|112:208|224:144,1,180,4|8
202,157,127289,1,0
280,104,127561,5,4
280,104,128107,1,8
408,232,128652,2,0,B|376:344|256:328,1,180,4|8
104,152,129743,2,0,B|136:40|256:56,1,180,4|8
235,54,130561,1,4
256,144,130834,5,0
256,168,130970,1,0
256,192,131107,1,0
256,216,131243,1,0
256,240,131380,1,0
256,264,131516,1,0
256,288,131652,1,0
256,312,131789,1,0
256,336,131925,1,4
200,192,136289,5,0
304,192,136834,1,0
200,192,137380,1,0
304,192,137925,1,0
200,192,138470,1,0
304,192,139016,1,0
200,192,139561,1,0
304,192,140107,1,0
95,241,145016,5,0
417,143,145561,1,0
100,150,146107,1,0
412,234,146652,1,0
166,92,147198,1,0
346,292,147743,1,0
256,120,148289,1,0
256,264,148834,1,0
256,264,153743,5,0
256,120,154289,1,0
346,292,154834,1,0
166,92,155380,1,0
412,234,155925,1,0
100,150,156470,1,0
417,143,157016,1,0
95,241,157561,1,0
168,192,162470,5,0
344,192,163016,1,0
168,192,163561,1,0
344,192,164107,1,0
168,192,164652,1,4
344,192,165198,1,0
168,192,165743,1,2
344,192,166289,5,0
408,256,166561,1,0
352,320,166834,2,0,B|256:368|160:304,1,180,4|0
80,232,167652,1,0
80,232,167925,2,0,B|176:184|272:248,1,180,8|2
252,236,168743,1,0
296,160,169016,2,0,B|336:72,2,90,4|0|0
368,208,169834,2,0,B|400:320|288:360,1,180
256,272,170652,1,2
256,272,170925,1,0
168,192,171198,5,4
344,192,171743,1,0
168,192,172289,1,2
344,192,172834,1,0
168,192,173380,1,4
344,192,173925,1,0
168,192,174470,1,2
344,192,175016,1,0
344,192,175561,6,0,B|344:88|208:48,1,180,4|0
216,144,176380,1,0
216,144,176652,2,0,B|145:220|217:342,1,180,2|8
288,336,177470,1,0
360,288,177743,2,0,B|430:211|358:89,1,180,4|0
374,120,178834,1,2
168,352,184289,6,0,B|272:368|320:256,1,180,4|0
313,270,185652,1,0
352,192,185925,2,0,B|248:208|200:96,1,180,2|2
206,110,187289,1,0
206,110,187561,1,8
256,256,188652,6,0,B|256:352,5,90,2|0|8|2|0|0
