osu file format v7

[General]
AudioFilename: Hatsune Miku - Nico Nico Messe no uta.mp3
AudioLeadIn: 0
PreviewTime: 27078
Countdown: 1
SampleSet: Soft
StackLeniency: 0.7
Mode: 0
LetterboxInBreaks: 0

[Editor]
DistanceSpacing: 1
BeatDivisor: 8
GridSize: 8

[Metadata]
Title:Nico Nico Messe no Uta
Artist:Hatsune Miku
Creator:happy30
Version:Easy
Source:
Tags:nico nico douga MSN

[Difficulty]
HPDrainRate:3
CircleSize:3
OverallDifficulty:3
SliderMultiplier:1.2
SliderTickRate:1

[Events]
//Background and Video events
0,0,"messemesseBG.jpg"
Video,0,"messemessemesse.avi"
//Break Periods
2,18670,25758
2,132124,134849
2,140307,143576
2,149034,152303
2,157761,161030
2,175216,178485
2,183943,187212
//Storyboard Layer 0 (Background)
//Storyboard Layer 1 (Fail)
//Storyboard Layer 2 (Pass)
//Storyboard Layer 3 (Foreground)
//Storyboard Sound Samples
//Background Colour Transformations
3,100,0,0,0

[TimingPoints]
5380,545.454545454545,4,2,1,80,1,0
16289,-200,4,2,1,80,0,0
26652,-100,4,2,1,80,0,0
79295,-100,4,2,1,50,0,0
79976,-100,4,2,1,70,0,0
112567,-100,4,1,0,45,0,0
114749,-100,4,2,2,70,0,0
130016,-100,4,1,2,46,0,0
142834,-100,4,1,2,35,0,0
151561,-100,4,1,2,25,0,0
160289,-100,4,2,1,50,0,0
164379,-100,4,2,1,80,0,0
184289,-200,4,2,1,35,0,0
188107,-200,4,2,1,16,0,0
190834,-200,4,2,1,4,0,0

[HitObjects]
192,192,5379,1,4
320,192,5925,1,0
192,192,6470,1,0
320,192,7016,1,2
192,192,7561,1,4
320,192,8107,1,0
192,192,8652,1,0
320,192,9198,1,2
192,192,9743,6,0,B|128:160|128:88,1,120,4|0
40,208,10834,2,0,B|104:240|104:312,1,120,0|2
103,302,11925,1,4
216,264,12470,2,0,B|216:200,4,60,0|0|8|0|2
312,336,14107,6,0,B|376:304|376:232,1,120,4|0
312,64,15198,2,0,B|248:96|248:168,1,120,0|2
408,296,16289,6,0,B|504:192|400:80,1,240,4|4
136,288,27198,5,4
304,224,28016,1,0
304,224,28289,1,0
152,120,29107,1,0
152,120,29380,2,0,B|256:8|368:128,1,240,4|8
216,328,31561,6,0,B|184:272|224:208,1,120,4|0
296,48,32652,2,0,B|328:104|288:168,1,120,0|2
408,192,33743,1,4
408,192,34016,1,0
408,192,34289,1,0
408,192,34561,1,0
112,232,35925,6,0,B|80:104,1,120,4|0
192,176,37016,2,0,B|224:304,1,120,0|2
80,296,38107,2,0,B|-32:192|88:80,1,240,4|8
432,88,40016,5,0
432,88,40289,2,0,B|544:192|424:304,1,240,4|0
328,232,41925,1,2
256,328,42470,2,0,B|168:256|120:376|16:304,1,240,4|0
168,112,44652,6,0,B|184:184,3,60,4|0|0|0
240,208,45743,2,0,B|224:136,4,60,0|0|2|0|4
288,320,47379,2,0,B|352:288|352:216,1,120,0|8
351,225,48470,1,2
264,144,49016,6,0,B|280:80,2,60,4|0|0
152,192,50107,2,0,B|168:256,2,60,0|0|2
64,112,51198,1,4
24,224,51743,2,0,B|16:296|80:336,1,120,0|0
69,328,52834,1,2
160,256,53379,6,0,B|288:256,1,120,4|0
352,160,54470,2,0,B|224:160,1,120,0|2
368,288,55561,2,0,B|400:344,2,60,4|0|0
144,288,56925,2,0,B|112:344,3,60,0|2|0|4
40,248,58289,5,0
96,144,58834,1,0
216,136,59379,1,2
280,240,59925,1,4
400,232,60470,1,0
456,128,61016,1,0
376,40,61561,1,2
272,104,62107,6,0,B|200:104,2,60,4|0|0
352,200,63198,2,0,B|280:208|248:264,1,120,0|2
168,344,64289,2,0,B|128:296,3,60,4|0|0|0
352,96,66470,6,0,B|312:40,2,60,4|0|0
424,192,67561,2,0,B|464:136,2,60,0|0|2
312,240,68652,2,0,B|288:304|352:360,2,120,4|0|8
128,88,70834,6,0,B|152:208,1,120,4|0
88,336,71925,2,0,B|64:216,1,120,0|2
176,264,73016,1,4
288,216,73561,1,0
288,216,73834,2,0,B|424:216,1,120
368,104,74925,1,0
368,104,75198,5,4
264,40,75743,1,0
176,128,76289,1,0
64,80,76834,1,2
24,192,77380,1,4
136,240,77925,1,0
208,336,78470,1,8
320,288,79016,1,2
256,192,79561,6,0,B|256:128|304:72,1,120,4|8
376,40,80380,1,4
376,40,80652,1,4
448,208,81198,1,8
312,328,81743,2,0,B|240:352|184:312,1,120,4|8
112,280,82561,1,4
112,280,82834,1,4
232,144,83380,1,8
88,40,83925,6,0,B|64:104|80:160,1,120,4|8
144,216,84743,1,4
144,216,85016,1,4
304,136,85561,1,8
304,136,85834,1,0
304,136,86107,2,0,B|328:200|312:256,1,120,4|8
264,328,86925,1,4
264,328,87198,1,4
144,192,87743,1,8
240,40,88289,5,4
240,40,88561,1,0
240,40,88834,1,8
240,40,89107,1,4
240,40,89380,2,0,B|216:104|232:160,1,120,4|8
272,344,90470,1,4
272,344,90743,1,0
272,344,91016,1,8
272,344,91289,1,4
272,344,91561,2,0,B|296:280|280:224,1,120,4|8
136,120,92652,6,0,B|112:184|128:240,1,120,4|8
127,237,93470,1,4
127,237,93743,1,4
256,112,94289,1,8
256,112,94834,1,4
256,192,95107,12,4,97016
128,88,97834,5,4
128,88,98107,1,4
64,256,98652,1,8
224,336,99198,1,4
456,192,100016,1,4
456,192,100289,1,4
280,224,100834,1,8
184,72,101380,6,0,B|144:128|168:200,3,120,4|8|4|8
328,312,103561,2,0,B|368:256|344:184,3,120,4|8|4|8
256,40,105743,6,0,B|256:104,3,60,4|0|8|4
256,344,107925,2,0,B|256:280,3,60,4|0|8|4
120,192,110107,5,4
392,192,111198,1,8
256,336,112289,5,4
256,216,112834,1,0
256,96,113380,2,0,B|256:56,8,30,0|0|0|0|0|0|0|0|4
368,128,115016,6,0,B|440:128,2,60,8|4|4
296,224,116107,2,0,B|256:280|176:264,1,120,8|4
152,152,117198,2,0,B|80:152,2,60,8|4|4
272,176,118289,6,0,B|312:232|288:312,1,120,8|4
200,360,119380,2,0,B|160:304|184:224,1,120,8|4
178,245,120470,1,8
296,272,121016,2,0,B|368:288,4,60,4|0|8|4|4
216,128,122652,2,0,B|144:144,2,60,8|0|4
320,192,123743,5,8
320,192,124016,1,4
320,192,124289,2,0,B|392:192|424:136,1,120,4|8
480,248,125380,2,0,B|416:281|414:346,1,120,4|8
414,341,126198,1,4
414,341,126470,1,4
304,296,127016,1,8
192,344,127561,6,0,B|136:312|128:224,1,120,4|8
152,96,128652,2,0,B|208:128|216:216,1,120,4|8
213,194,129743,1,4
256,304,130289,1,0
256,304,130834,6,0,B|256:352,8,30,0|0|0|0|0|0|0|0|4
64,256,136289,5,0
88,176,136834,1,0
144,240,137380,1,0
64,256,137925,1,0
88,176,138470,1,0
144,240,139016,1,0
64,256,139561,1,0
88,176,140107,1,0
448,192,145016,5,0
424,112,145561,1,0
368,176,146107,1,0
448,192,146652,1,0
424,112,147198,1,0
368,176,147743,1,0
448,192,148289,1,0
424,112,148834,1,0
216,352,153743,5,0
288,312,154289,1,0
216,272,154834,1,0
288,232,155380,1,0
216,192,155925,1,0
288,152,156470,1,0
216,112,157016,1,0
288,72,157561,1,0
192,192,162470,5,4
320,192,163016,1,0
192,192,163561,1,0
320,192,164107,1,2
192,192,164652,1,4
320,192,165198,1,0
192,192,165743,1,0
320,192,166289,1,2
384,288,166834,6,0,B|272:376|136:320,1,240,4|0
80,232,168470,1,2
120,120,169016,2,0,B|256:72|320:224,1,240,4|0
232,296,170652,1,2
192,192,171198,5,4
320,192,171743,1,0
192,192,172289,1,0
320,192,172834,1,2
192,192,173380,1,4
320,192,173925,1,0
192,192,174470,1,0
320,192,175016,1,2
192,192,179925,5,4
320,192,180470,1,0
192,192,181016,1,0
320,192,181561,1,2
192,192,182107,1,4
320,192,182652,1,0
192,192,183198,1,0
320,192,183743,1,2
208,320,188652,5,4
304,320,189198,1,0
208,320,189743,1,0
304,320,190289,1,2
208,320,190834,1,4
304,320,191380,1,0
