osu file format v9

[General]
AudioFilename: netoge.mp3
AudioLeadIn: 0
PreviewTime: 81612
Countdown: 1
SampleSet: Normal
StackLeniency: 0.5
Mode: 0
LetterboxInBreaks: 1

[Editor]
Bookmarks: 173063
DistanceSpacing: 1.4
BeatDivisor: 4
GridSize: 4

[Metadata]
Title:Netoge Haijin Sprechchor
Artist:Hatsune Miku
Creator:Lalarun
Version:Insane
Source:VOCALOID
Tags:Apriy makuro y0c1e satsuki ga tenkomori

[Difficulty]
HPDrainRate:5
CircleSize:4
OverallDifficulty:7
ApproachRate:8
SliderMultiplier:1.8
SliderTickRate:1

[Events]
//Background and Video events
0,0,"miku.jpg"
//Break Periods
2,38096,48444
2,105296,115644
2,171125,171530
2,183468,193473
//Storyboard Layer 0 (Background)
//Storyboard Layer 1 (Fail)
//Storyboard Layer 2 (Pass)
//Storyboard Layer 3 (Foreground)
//Storyboard Sound Samples
//Background Colour Transformations
3,100,163,162,255

[TimingPoints]
3612,342.857142857143,4,1,1,80,1,0
11749,-100,4,1,1,80,0,0
36092,-200,4,1,1,80,0,0
49121,-100,4,1,1,80,0,0
60092,-200,4,1,1,80,0,0
78949,-100,4,1,1,80,0,0
81778,-100,4,1,1,80,0,1
103292,-200,4,1,1,80,0,1
105092,-100,4,1,1,80,0,0
127292,-200,4,1,1,80,0,0
146149,-100,4,1,1,80,0,0
148978,-100,4,1,1,80,0,1
170921,-100,4,1,1,80,0,0
194235,-100,4,1,1,80,0,1
216178,-100,4,1,1,80,0,0

[Colours]
Combo1 : 249,172,172
Combo2 : 255,255,255
Combo3 : 94,166,253
Combo4 : 255,138,21

[HitObjects]
467,40,11839,5,0
470,71,11925,1,0
467,102,12011,1,0
454,130,12096,1,0
432,152,12182,1,0
402,161,12268,1,0
371,156,12353,1,0
342,143,12439,5,0
311,136,12525,1,0
280,129,12611,1,0
249,124,12696,1,0
218,130,12782,1,0
189,144,12868,1,0
167,166,12953,1,0
164,197,13039,1,0
172,227,13125,1,0
178,258,13211,6,0,B|186:306|178:350,1,90,4|0
76,292,13553,2,0,B|68:244|76:200,1,90,4|0
116,92,13896,1,4
116,92,13982,1,0
228,124,14153,1,4
228,124,14239,1,0
324,56,14411,5,0
324,56,14496,1,0
324,56,14582,2,0,B|392:40|460:56,1,135,4|0
457,55,14925,1,10
392,152,15096,1,0
392,152,15182,1,0
392,152,15268,2,0,B|392:240,1,90
280,332,15611,2,0,B|280:240,1,90,10|0
220,188,15953,5,0
144,216,16125,2,0,B|56:216,2,90,0|10|0
144,100,16639,1,0
260,100,16811,1,0
260,100,16896,1,0
260,100,16982,2,0,B|260:188,1,90,10|0
335,280,17325,1,0
260,190,17496,1,0
404,188,17668,2,0,B|404:100,2,90,10|0|0
404,98,18182,5,0
260,100,18353,2,0,B|260:192,1,90,10|0
160,252,18696,1,0
260,313,18868,2,0,B|440:313,2,180,2|2|2
160,252,19725,1,10
68,180,19896,5,0
68,180,19982,1,0
68,180,20068,2,0,B|60:136|68:88,1,90,4|0
172,36,20411,1,10
172,36,20582,1,0
244,128,20753,2,0,B|288:136|336:128,1,90
392,72,21096,1,10
472,72,21268,5,0
472,72,21353,1,0
472,72,21439,2,0,B|480:120|472:164,2,90,0|0|10
360,36,21953,1,0
254,87,22125,1,0
149,37,22296,1,0
36,68,22468,1,10
36,68,22639,5,0
36,68,22725,1,0
36,68,22811,2,0,B|28:112|36:160,1,90
104,200,23153,1,10
172,156,23325,2,0,B|264:156,2,90
172,156,23839,1,10
172,300,24011,1,0
172,156,24182,5,0
172,300,24353,2,0,B|264:320|352:300,2,180,6|6|2
350,300,25211,1,10
440,224,25382,5,0
440,224,25468,1,0
440,224,25553,2,0,B|456:156|440:88,1,135,4|0
441,91,25896,1,10
344,156,26068,1,0
344,156,26153,1,0
344,156,26239,2,0,B|256:156,1,90
140,68,26582,2,0,B|140:156,1,90,10|0
192,220,26925,5,0
264,184,27096,2,0,B|308:176|356:184,2,90,0|10|0
264,300,27611,1,0
148,300,27782,1,0
148,300,27868,1,0
148,300,27953,2,0,B|140:252|148:208,1,90,10|0
198,104,28296,1,0
288,180,28468,2,0,B|296:224|288:272,2,90,0|10|0
147,210,28982,1,0
198,104,29153,5,0
198,104,29239,1,0
198,104,29325,2,0,B|152:96|108:104,2,90,10|0|0
276,192,29839,1,0
276,192,30011,1,10
392,192,30182,2,0,B|400:148|392:99,1,90,0|0
276,192,30525,2,0,B|268:240|276:284,1,90,0|10
136,316,30868,5,0
136,316,30953,1,0
136,316,31039,2,0,B|88:324|40:316,2,90,4|0|14
136,200,31553,1,0
136,200,31725,1,0
252,200,31896,2,0,B|252:288,1,90,0|10
324,328,32239,1,0
392,284,32411,2,0,B|436:276|484:284,2,90,0|0|10
324,328,32925,1,0
324,328,33268,5,0
236,252,33439,1,10
148,328,33611,1,0
148,328,33953,5,0
60,216,34125,1,10
148,104,34296,1,0
264,104,34468,6,0,B|264:148|264:196,1,90
340,224,34811,1,10
394,164,34982,2,0,B|402:116|394:72,2,90
264,104,35496,1,10
134,165,35668,1,0
264,104,35839,5,0
264,136,35925,1,0
264,168,36011,1,0
264,200,36096,1,0
264,232,36182,2,0,B|264:320,1,90,10|2
256,192,36696,12,4,37896
140,112,49212,6,0,B|224:88|322:112,1,180,2|0
284,224,49725,2,0,B|276:268|284:316,2,90,0|2|0
400,224,50239,1,0
400,224,50412,1,0
340,124,50582,2,0,B|296:116|248:124,1,90,2|0
108,220,50925,6,0,B|92:132|108:40,1,180,0|2
212,96,51439,1,0
212,96,51525,1,0
212,96,51612,2,0,B|256:104|304:96,1,90,4|0
404,152,51953,1,2
404,152,52125,1,0
300,204,52296,2,0,B|300:292,2,90,0|0|2
300,204,52812,1,0
96,92,53153,6,0,B|76:184|96:272,1,180
176,184,53668,2,0,B|356:184,1,180,0|2
356,184,54353,1,4
356,300,54525,5,0
356,300,54612,1,0
356,300,54696,2,0,B|312:308|264:300,1,90,2|0
212,240,55039,1,0
132,240,55212,2,0,B|124:284|132:332,2,90,0|2|0
132,240,55725,2,0,B|88:232|40:240,2,90,0|0|2
132,240,56239,2,0,B|140:196|132:148,2,90,0|0|0
132,240,56753,2,0,B|176:248|224:240,2,90,2|0|4
368,76,57439,6,0,B|388:164|368:260,1,180,2|0
292,280,57953,1,0
224,236,58125,2,0,B|136:236,1,90,2|0
132,120,58468,1,0
132,120,58639,2,0,B|220:120,1,90,0|2
256,192,58982,12,4,59839
76,80,60182,5,2
136,80,60353,1,0
196,80,60525,2,0,B|188:124|196:172,1,90,0|2
256,168,61039,1,0
256,108,61212,2,0,B|300:108,1,45
356,132,61553,2,0,B|356:176,2,45,2|0|0
356,72,62068,2,0,B|404:64|452:72,1,90
445,71,62582,1,4
444,216,62925,6,0,B|428:256,1,45,2|0
360,232,63268,2,0,B|344:272,1,45
276,248,63612,2,0,B|260:288,1,45,2|0
444,216,64125,6,0,B|428:256,1,45,0|2
360,232,64468,2,0,B|344:272,1,45
276,248,64812,1,0
260,272,64896,1,0
244,296,64982,1,2
44,216,65325,6,0,B|36:168|44:124,2,90,0|2|0
104,216,66182,2,0,B|152:216,1,45,0|2
180,164,66525,2,0,B|180:116,2,45
240,164,67039,2,0,B|248:208|240:256,1,90,2|0
296,276,67553,2,0,B|296:320,2,45,0|2|0
348,244,68068,6,0,B|392:236|440:244,1,90,0|2
440,128,68753,2,0,B|448:84|440:36,1,90,0|2
324,40,69439,2,0,B|280:40,2,45,0|0|2
324,100,69953,1,0
276,136,70125,2,0,B|276:172,2,22.5
216,128,70468,2,0,B|212:80|216:36,1,90,2|4
72,92,71153,5,2
72,152,71325,1,0
72,212,71496,2,0,B|72:304,1,90,0|2
132,312,72012,2,0,B|152:356,2,45
168,264,72525,1,2
172,204,72696,2,0,B|216:196|264:204,2,90
164,144,73553,6,0,B|180:104,1,45,4|0
252,128,73896,2,0,B|268:88,1,45,2|0
336,112,74239,2,0,B|352:72,2,45
436,228,75268,5,2
416,246,75353,1,0
396,265,75439,1,0
376,283,75525,1,0
281,230,75782,1,0
260,247,75868,1,0
239,264,75953,1,2
100,228,76296,5,0
56,92,76639,2,0,B|56:36,1,45,2|0
116,56,76982,2,0,B|160:48|208:56,1,90,0|2
236,108,77496,1,0
240,168,77668,2,0,B|240:220,2,45,0|0|2
300,168,78182,2,0,B|344:176|392:168,1,90
416,116,78696,1,2
416,116,79039,5,0
416,116,79212,1,0
292,44,79382,1,10
292,44,79553,1,0
224,140,79725,1,0
224,140,79896,1,0
86,184,80068,1,8
86,184,80239,1,0
219,292,80412,5,0
250,290,80496,1,0
280,280,80582,1,0
302,257,80668,1,0
321,232,80753,1,10
344,210,80839,1,0
370,192,80925,1,0
397,176,81012,1,0
428,168,81096,5,12
428,168,81182,1,0
428,168,81268,1,0
428,168,81353,1,0
428,168,81439,1,10
428,168,81525,1,0
428,168,81612,1,0
428,168,81696,1,0
428,168,81782,6,0,B|396:112|400:36,1,135,4|0
399,37,82125,1,10
296,92,82296,1,0
296,92,82382,1,0
296,92,82468,2,0,B|272:132|228:148,1,90
84,132,82812,2,0,B|108:92|152:76,1,90,10|0
296,92,83153,1,0
416,172,83325,2,0,B|424:216|416:264,2,90,0|10|0
336,156,83839,1,0
268,200,84012,5,0
268,200,84096,1,0
268,200,84182,2,0,B|260:244|268:292,1,90,10|0
152,316,84525,1,0
267,289,84696,1,0
144,212,84868,2,0,B|96:204|48:212,1,90,10|0
152,316,85212,1,0
267,289,85382,2,0,B|359:290,1,90,0|10
267,289,85725,1,0
144,212,85896,6,0,B|136:164|144:120,1,90
204,68,86239,1,10
272,108,86412,2,0,B|316:116|364:108,1,90
361,108,86754,2,0,B|408:116|453:109,1,90,0|10
432,224,87096,5,0
432,224,87182,1,0
432,224,87268,2,0,B|440:268|432:316,1,90,4|0
316,312,87611,1,10
316,312,87782,1,0
312,196,87953,2,0,B|264:188|220:196,1,90
164,252,88296,1,10
83,252,88468,5,0
83,252,88553,1,0
83,252,88639,2,0,B|75:208|83:160,1,90
164,44,88982,2,0,B|172:88|164:136,1,90,10|0
264,196,89325,1,0
308,88,89496,5,0
308,88,89582,1,0
308,88,89668,2,0,B|352:80|400:88,2,90,10|0|0
264,196,90182,1,0
380,180,90353,2,0,B|380:268,1,90,10|0
380,180,90696,5,0
308,88,90868,1,0
264,196,91039,1,10
192,196,91211,5,0
308,20,91382,1,4
415,149,91553,2,0,B|415:237,2,90,0|14|0
304,56,92068,5,4
272,56,92153,1,0
240,56,92239,1,4
208,56,92325,1,0
176,56,92411,1,14
88,132,92582,5,0
88,132,92668,1,0
88,132,92753,2,0,B|76:200|88:268,1,135,4|0
87,266,93096,1,10
184,200,93268,1,0
184,200,93353,1,0
184,200,93439,2,0,B|232:192|276:200,1,90
360,120,93782,1,10
360,120,93953,1,0
472,156,94125,2,0,B|480:200|472:248,2,90,0|0|10
472,156,94639,1,0
204,48,94982,6,0,B|204:92|204:140,1,90,0|10
130,229,95325,1,0
60,136,95496,2,0,B|60:48,1,90
204,48,95839,1,10
204,48,96011,1,0
60,44,96182,2,0,B|60:132,1,90
204,136,96525,2,0,B|204:48,1,90,10|0
276,8,96868,1,0
320,76,97039,2,0,B|408:96|500:76,2,180,2|2|2
208,40,97896,5,10
96,76,98068,1,0
96,76,98153,1,0
96,76,98239,2,0,B|88:120|96:168,1,90,4|0
192,232,98582,1,10
192,232,98753,1,0
288,164,98925,2,0,B|332:156|380:164,2,90,0|0|10
377,163,99439,1,0
380,280,99611,6,0,B|336:288|288:280,1,90
290,280,99953,2,0,B|240:272|200:280,1,90,10|0
136,328,100296,1,0
56,316,100468,2,0,B|48:272|56:224,1,90,0|10
116,172,100811,2,0,B|200:192|296:172,1,180
116,172,101325,5,10
116,56,101496,2,0,B|164:48|208:56,1,90
240,168,101839,1,0
240,168,102011,1,10
384,260,102182,2,0,B|404:168|384:80,2,180,2|2|2
260,188,103039,1,0
136,260,103211,1,0
260,188,103382,2,0,B|260:276,1,90,10|2
256,192,103896,12,4,105096
396,104,116411,6,0,B|416:192|396:288,1,180,2|0
285,192,116925,2,0,B|197:192,2,90,0|2|0
194,192,117439,1,0
80,104,117611,2,0,B|64:192|80:284,1,180
192,192,118125,1,0
428,192,118468,1,2
312,192,118639,5,0
312,192,118725,1,0
312,192,118811,2,0,B|320:236|312:284,1,90,4|0
196,284,119153,1,2
196,168,119325,2,0,B|104:168,2,90
106,168,119839,1,2
108,52,120011,6,0,B|288:52,1,180
384,120,120525,1,2
384,236,120696,1,0
288,304,120868,2,0,B|108:304,2,180,0|2|4
384,236,121725,5,0
384,236,121811,1,0
384,236,121896,2,0,B|376:280|384:328,1,90,2|0
468,208,122239,2,0,B|476:164|468:116,1,90
392,92,122582,1,2
316,120,122753,2,0,B|308:76|316:28,2,90
316,120,123268,2,0,B|272:128|224:120,2,90,2|0|0
316,120,123782,2,0,B|324:164|316:212,2,90,0|2|0
316,209,124296,1,4
84,280,124639,6,0,B|64:192|84:100,1,180,2|0
164,88,125153,1,0
208,156,125325,2,0,B|296:156,2,90,2|0|0
208,300,125839,1,0
352,300,126011,1,0
256,192,126182,12,4,127039
156,72,127382,5,2
216,72,127553,1,0
276,72,127725,2,0,B|284:116|276:164,1,90,0|2
224,192,128239,2,0,B|184:176,2,45
260,240,128753,1,2
224,288,128925,2,0,B|180:296|132:288,2,90
224,288,129782,1,4
256,148,130125,6,0,B|240:108,1,45,2|0
172,132,130468,2,0,B|156:92,1,45
88,116,130811,2,0,B|72:76,1,45,2|0
256,148,131325,6,0,B|272:108,1,45,0|2
340,132,131668,2,0,B|356:92,1,45
424,116,132011,1,0
440,92,132096,1,0
456,68,132182,1,2
452,212,132525,6,0,B|460:256|452:304,1,90,0|2
396,320,133039,1,0
348,284,133211,2,0,B|308:300,2,45,0|0|2
356,224,133725,1,0
320,176,133896,1,0
264,156,134068,2,0,B|220:148|172:156,2,90
320,176,134925,2,0,B|320:224,1,45,2|0
288,272,135268,6,0,B|244:280|196:272,1,90,0|2
96,216,135953,2,0,B|88:172|96:124,1,90,0|2
200,72,136639,2,0,B|192:28,2,45,0|0|2
248,108,137153,1,0
296,72,137325,2,0,B|312:56,2,22.5
354,64,137668,2,0,B|400:72|444:64,1,90,2|4
388,204,138353,5,2
388,264,138525,1,0
388,324,138696,2,0,B|344:336|296:324,1,90,0|2
264,276,139211,1,0
204,276,139382,2,0,B|196:320|204:368,1,90,0|2
148,344,139896,2,0,B|104:352|56:344,1,90
80,288,140411,2,0,B|80:240,1,45,2|0
112,192,140753,6,0,B|128:152,1,45,4|4
200,176,141096,2,0,B|216:136,1,45,2|0
284,160,141439,2,0,B|300:120,2,45
200,268,142468,5,2
220,286,142553,1,0
240,305,142639,1,0
260,323,142725,1,0
355,270,142982,1,0
376,287,143068,1,0
397,304,143153,1,2
468,180,143496,5,0
352,96,143839,1,2
304,132,144011,1,0
244,136,144182,2,0,B|196:128|152:136,2,90,0|2|0
292,172,145039,2,0,B|292:216,1,45,0|2
340,252,145382,2,0,B|384:260|432:252,1,90
452,196,145896,1,2
200,56,146239,5,0
200,56,146411,1,0
132,100,146582,1,10
132,100,146753,1,0
228,168,146925,1,0
228,168,147096,1,0
108,248,147268,1,8
108,248,147439,1,0
260,328,147611,5,0
260,328,147696,1,0
260,328,147782,1,0
260,328,147868,1,0
260,328,147953,1,10
260,328,148039,1,0
260,328,148125,1,0
260,328,148211,1,0
260,328,148296,5,12
292,328,148382,1,0
324,328,148468,1,0
352,316,148553,1,0
376,296,148639,1,10
388,268,148725,1,0
388,236,148811,1,0
383,205,148896,1,0
376,174,148982,6,0,B|364:106|384:38,1,135,4|0
383,40,149325,1,10
496,68,149496,1,0
496,68,149582,1,0
496,68,149668,2,0,B|480:112|440:136,1,90
383,40,150011,2,0,B|340:32|293:41,1,90,10|0
204,116,150353,1,0
92,80,150525,2,0,B|84:124|92:172,2,90,0|10|0
204,116,151039,1,0
184,232,151211,5,0
184,232,151296,1,0
184,232,151382,2,0,B|192:276|184:324,1,90,10|0
264,336,151725,1,0
308,268,151896,2,0,B|352:260|400:268,2,90,0|10|0
397,267,152411,1,0
464,172,152582,1,0
464,172,152753,2,0,B|420:180|372:172,1,90,10|0
308,76,153096,5,0
192,92,153268,1,0
192,92,153439,2,0,B|184:136|192:184,1,90,10|0
80,144,153782,1,0
80,144,153868,1,0
80,144,153953,2,0,B|88:188|80:236,1,90,0|10
78,315,154296,5,0
78,315,154382,1,0
78,315,154468,2,0,B|124:325|167:315,1,90,4|0
236,220,154811,1,10
236,220,154982,1,0
352,236,155153,2,0,B|360:280|352:328,1,90
436,208,155496,2,0,B|428:164|436:116,1,90,10|0
372,68,155839,1,0
304,112,156011,2,0,B|260:120|212:112,2,90,0|10|0
214,112,156525,5,0
100,136,156696,1,0
100,136,156782,1,0
100,136,156868,2,0,B|92:180|100:228,1,90,10|0
216,212,157211,2,0,B|260:204|308:212,1,90
348,320,157553,1,10
444,252,157725,2,0,B|452:208|444:160,2,90
348,320,158239,1,10
348,320,158411,1,0
276,228,158582,6,0,B|232:220|180:228,1,90,4|0
186,227,158839,1,0
186,227,158925,1,14
100,148,159096,1,0
185,67,159268,5,4
185,67,159353,1,0
292,116,159525,1,4
292,116,159611,1,10
432,88,159782,5,0
432,88,159868,1,0
432,88,159953,2,0,B|440:152|432:224,1,135,4|0
432,222,160296,1,10
316,196,160468,1,0
316,196,160553,1,0
316,196,160639,2,0,B|308:240|316:288,1,90
200,308,160982,2,0,B|156:316|108:308,1,90,10|0
156,200,161325,1,0
200,92,161496,6,0,B|156:84|108:92,2,90,0|10|0
280,108,162011,1,0
356,136,162182,2,0,B|400:144|448:136,2,90,0|10|0
356,252,162696,1,0
248,205,162868,2,0,B|240:249|248:301,1,90,0|10
356,252,163211,1,0
247,294,163382,1,0
140,248,163553,5,0
140,248,163639,1,0
140,248,163725,2,0,B|132:200|140:156,1,90,10|0
200,104,164068,1,0
268,148,164239,2,0,B|352:164|448:148,2,180,2|2|2
200,104,165096,1,10
84,88,165268,5,0
84,88,165353,1,0
84,88,165439,2,0,B|76:132|84:180,1,90,4|0
172,292,165782,2,0,B|180:248|172:200,2,90,10|0|0
240,336,166296,1,0
308,292,166468,2,0,B|352:284|400:292,1,90,10|0
428,216,166811,1,0
360,172,166982,2,0,B|352:124|360:80,2,90,0|10|0
88,72,167668,5,0
88,188,167839,2,0,B|132:196|180:188,1,90,10|0
236,132,168182,1,0
316,144,168353,2,0,B|324:188|316:236,2,90,0|10|0
412,76,168868,5,0
428,192,169039,1,0
428,192,169211,1,10
412,308,169382,1,0
220,92,169725,6,0,B|128:76|40:92,1,180,2|2
132,204,170239,1,0
132,236,170325,1,0
132,268,170411,1,0
132,300,170496,1,0
132,332,170582,1,10
132,332,170925,1,2
112,164,172296,6,0,B|140:128|184:112,1,90
291,64,172639,2,0,B|275:24,2,45
407,80,172982,1,0
407,80,173068,1,0
407,80,173153,1,0
407,80,173239,2,0,B|415:124|407:172,1,90
376,171,173496,6,0,B|368:215|376:263,1,90
362,289,173753,1,0
336,307,173839,1,0
305,314,173925,1,0
274,314,174011,2,0,B|250:314|226:314,2,45
224,140,174525,6,0,B|180:132|132:140,2,90
292,184,175039,2,0,B|332:160|352:116,1,90
448,52,175382,1,0
457,82,175468,1,0
459,113,175553,1,0
460,144,175639,1,0
459,175,175725,2,0,B|456:206|453:226,3,45
424,228,176068,6,0,B|400:264|392:312,1,90
316,284,176411,1,0
244,320,176582,1,0
176,276,176753,1,0
96,288,176925,2,0,B|52:212|56:112,1,180
172,100,177439,5,0
196,80,177525,1,0
224,64,177611,1,0
254,55,177696,1,0
285,54,177782,2,0,B|332:64|374:57,1,90
404,68,178039,2,0,B|412:116|404:164,1,90
380,176,178296,2,0,B|372:220|380:268,1,90
379,265,178553,1,0
379,265,178639,1,0
328,328,178811,5,0
256,292,178982,2,0,B|212:300|164:292,1,90
140,216,179325,1,0
69,176,179497,2,0,B|41:180|21:200,2,45
60,96,179839,1,0
128,52,180011,2,0,B|172:44|220:52,1,90
260,120,180353,1,0
256,192,180525,12,0,183268
268,268,194239,6,0,B|356:288|448:268,1,180,4|10
348,128,194753,1,0
348,128,194839,1,0
348,128,194925,2,0,B|304:120|256:128,1,90
96,176,195268,2,0,B|88:132|96:84,1,90,10|0
96,176,195611,1,0
213,177,195782,2,0,B|213:265,1,90,0|10
324,304,196125,1,0
324,304,196296,1,0
428,252,196468,5,0
428,252,196553,1,0
428,252,196639,2,0,B|436:208|428:160,1,90,10|0
288,64,196982,2,0,B|280:108|288:156,1,90
428,252,197325,1,10
428,252,197496,1,0
288,64,197668,1,0
152,168,197839,5,0
152,168,198011,2,0,B|144:212|152:260,1,90,10|0
288,300,198353,5,0
360,176,198525,2,0,B|404:168|452:176,1,90,0|10
360,176,198868,2,0,B|316:184|268:176,1,90
172,72,199211,1,0
172,72,199382,1,10
44,136,199553,5,0
44,136,199639,1,0
44,136,199725,2,0,B|36:180|44:228,1,90,4|0
156,260,200068,1,10
156,260,200239,1,0
252,192,200411,2,0,B|296:184|344:192,1,90
444,328,200753,2,0,B|400:336|352:328,1,90,10|0
252,192,201096,5,0
354,328,201268,1,0
457,192,201439,2,0,B|464:148|457:100,1,90,10|0
348,60,201782,1,0
288,160,201953,2,0,B|244:168|196:160,2,90,0|10|0
198,160,202468,5,0
61,120,202639,2,0,B|53:164|61:212,1,90,0|10
198,160,202982,1,0
332,212,203153,2,0,B|340:164|332:120,1,90
220,252,203496,2,0,B|212:300|220:344,1,90,10|0
384,292,203839,1,4
384,120,204011,2,0,B|340:112|292:120,1,90,0|14
256,228,204353,1,0
160,160,204525,5,4
128,160,204611,1,0
96,160,204696,1,4
64,160,204782,1,0
32,160,204868,1,10
96,256,205039,5,0
96,256,205125,1,0
96,256,205211,2,0,B|88:300|96:348,1,90,4|0
203,300,205553,2,0,B|291:300,1,90,10|0
296,156,205896,1,0
296,156,206068,1,0
440,156,206239,2,0,B|440:244,1,90,10|0
440,156,206582,5,0
296,156,206753,2,0,B|296:68,2,90,0|10|0
192,212,207268,1,0
88,160,207439,1,0
88,160,207525,1,0
88,160,207611,2,0,B|80:112|88:68,2,90,10|0|0
192,212,208125,1,0
192,212,208211,1,0
192,212,208296,2,0,B|200:256|192:304,2,90,10|0|0
264,84,208811,5,0
264,84,208896,1,0
264,84,208982,2,0,B|308:76|356:84,1,90,10|0
336,200,209325,1,0
444,156,209496,2,0,B|460:244|444:336,2,180,2|2|2
444,156,210353,1,10
292,76,210525,5,0
292,76,210611,1,0
292,76,210696,2,0,B|248:68|200:76,1,90,4|0
168,244,211039,2,0,B|212:252|260:244,1,90,10|0
292,76,211382,1,0
168,244,211553,2,0,B|160:288|168:336,1,90,0|10
168,244,211896,5,0
292,76,212068,1,0
440,160,212239,2,0,B|448:204|440:252,1,90,0|10
276,200,212582,1,0
276,200,212753,1,0
111,247,212925,2,0,B|103:203|111:155,1,90,0|10
276,200,213268,1,0
276,200,213611,5,0
188,56,213782,1,10
360,56,213953,1,0
276,200,214126,1,0
276,232,214212,1,0
276,264,214297,1,0
276,296,214383,1,0
276,328,214469,1,0
256,192,214640,12,0,216183
